#TITLE:Requiem;
#SUBTITLE:;
#ARTIST:Mr.Scar;
#TITLETRANSLIT:;
#SUBTITLETRANSLIT:;
#ARTISTTRANSLIT:;
#GENRE:Classical Cover;
#CREDIT:;
#MUSIC:Requiem.ogg;
#BANNER:Requiem.png;
#BACKGROUND:Requiem-bg.png;
#CDTITLE:Wrland Season 2.png;
#SAMPLESTART:53.336;
#SAMPLELENGTH:12.000;
#SELECTABLE:YES;
#OFFSET:0.001;
#BPMS:0.000=89.994
,8.000=179.989
,152.000=89.994
,166.000=179.989
,242.000=1439.912
,250.000=179.989
;
#STOPS:;
#DISPLAYBPM:89.000:179.000;
#ORIGIN:;
#PREVIEWVID:;
#JACKET:Requiem-jacket.png;
#CDIMAGE:;
#DISCIMAGE:;
#BGCHANGES:;
#FGCHANGES:;

//--------------- dance-single - ----------------
#NOTES:
     dance-single:
     :
     Beginner:
     2:
     0.145033,0.350031,0.078094,0.223127,0,91,84,7,20,0,0,0,0,0,0.145033,0.350031,0.078094,0.223127,0,91,84,7,20,0,0,0,0,0:
0000
0000
0000
0000
,
0000
0000
0000
0000
,
0000
0000
0000
0000
,
0000
0000
0000
0000
,
0000
0000
0000
0000
,
0000
0000
0000
0000
,
2000
0000
3000
0000
,
1000
0000
0000
0000
,
0010
0000
0000
0000
,
0010
0000
0000
0000
,
0200
0000
0300
0000
,
0100
0000
0000
0000
,
0001
0000
0000
0000
,
0001
0000
0000
0000
,
1000
0000
0000
0000
,
1000
0000
0000
0000
,
0100
0000
0000
0000
,
0100
0000
0000
0000
,
0010
0000
0000
0000
,
0010
0000
0000
0000
,
0100
0000
0000
0000
,
0100
0000
0000
0000
,
1000
0000
0000
0000
,
1000
0000
0000
0000
,
0100
0000
0000
0000
,
0100
0000
0000
0000
,
0010
0000
0000
0000
,
0010
0000
0000
0000
,
0001
0000
0000
0000
,
0001
0000
0000
0000
,
0100
0000
0000
0000
,
0100
0000
0000
0000
,
1000
0000
0000
0000
,
1000
0000
0000
0000
,
0001
0000
0000
0000
,
0001
0000
0000
0000
,
1000
0000
1000
0000
,
0001
0000
0001
1000
,
2002
0000
0000
3003
,
0220
0000
0000
0330
,
2200
0000
0000
3300
,
0202
0000
0000
0303
1000
0000
0100
0000
,
0010
0001
2002
0000
,
3003
0100
2000
3000
,
0100
0010
0200
0000
,
0300
0000
0001
1000
,
0001
1000
2002
0000
,
3003
1000
0200
0300
,
0010
0100
0001
0000
,
1000
0000
2000
0000
,
0000
3000
0001
0000
,
0000
0000
1000
0000
,
0000
0000
0100
0000
,
1000
0000
0010
0000
,
0010
0000
0100
0000
,
0000
0100
0000
0010
,
0000
0001
0000
1000
,
0000
0100
0000
1000
,
0000
0100
0010
0001
,
1000
0001
1000
0100
,
0010
0100
2002
0000
,
0000
0000
0000
0000
,
0000
0000
0000
3003
;

//--------------- dance-single - ----------------
#NOTES:
     dance-single:
     :
     Easy:
     6:
     0.334691,0.490043,0.256596,0.301222,0,210,187,23,27,0,0,0,0,0,0.334691,0.490043,0.256596,0.301222,0,210,187,23,27,0,0,0,0,0:
0000
0000
0000
0000
,
0000
0000
0000
0000
,
0100
0010
0100
0010
,
0100
1000
0100
0010
,
0100
0010
0100
0010
,
0001
1000
0001
1000
,
2000
0000
3000
0100
,
1000
0000
0100
0000
,
0020
0000
0030
0000
,
0100
0000
0010
0001
,
0200
0000
0300
0100
,
0020
0030
0100
0010
,
0001
0000
1000
0000
,
0001
0000
1000
0000
,
1000
0100
1000
0100
,
0010
0100
0010
0100
,
0001
1000
0100
0010
,
0100
0010
0100
0010
,
0001
0000
0100
0010
,
1000
0100
1000
0100
,
0010
0100
0010
0100
,
0010
0001
1000
0001
,
1000
0001
1000
0001
,
1000
0100
0010
0100
,
0010
1000
0100
1000
,
0100
1000
0100
0010
,
0100
0010
0100
0001
,
0100
1000
0100
0010
,
0100
0010
0100
0010
,
0100
0001
1000
0001
,
1000
0000
0000
0100
,
0010
0100
0010
1000
,
0100
0010
0001
0100
,
0010
1000
0100
1000
,
0001
0000
0000
1000
,
0010
0100
0010
0100
,
1010
0101
0110
1001
,
2200
0000
0000
3300
,
2002
0000
0000
3003
,
2200
0000
0000
3300
,
0202
0000
0000
0303
,
0220
0000
0000
0330
0100
0000
0010
0000
,
0100
0010
2002
0000
,
3003
1001
0220
0330
,
1000
0100
0002
0000
,
0003
0000
1100
0100
,
0001
0100
0202
0000
,
0303
1010
0202
0303
,
0110
1001
0220
0000
,
0330
0000
1100
0000
,
0101
0000
1000
0000
,
0001
0100
0010
1000
,
0100
0010
0100
0010
,
0001
0100
1000
0100
,
0001
1000
0100
0010
,
0100
0100
1000
0100
,
0010
0001
0100
0010
,
1000
0100
0010
0001
,
1000
0001
1000
0001
,
1000
0001
1001
1000
,
0001
1000
2002
0000
,
0000
0000
0000
0000
,
0000
0000
0000
3003
;

//--------------- dance-single - ----------------
#NOTES:
     dance-single:
     :
     Medium:
     9:
     0.678944,0.91008,0.379316,0.189658,0.981759,426,392,34,17,0,0,0,0,0,0.678944,0.91008,0.379316,0.189658,0.981759,426,392,34,17,0,0,0,0,0:
0000
0000
0000
0000
,
0000
0000
0000
0000
,
1000
0001
1000
0100
,
0010
0100
0010
0001
,
1000
0001
1000
0001
,
0100
0010
0100
0010
,
1001
0100
0010
0100
,
1000
0000
0100
0010
,
0100
0010
1000
0100
,
0010
0001
0100
0010
,
0110
0010
1000
0100
,
0001
0000
1000
0001
,
0100
0010
1000
0100
,
0010
0100
0010
0001
,
2000
0000
0000
0000
0000
0000
3000
0000
0000
0001
0010
0100
,
1000
0100
0010
0001
0010
0100
1000
0100
0010
0001
1000
0001
,
0100
0010
0100
0010
0100
0010
0100
0010
0001
0010
0001
0010
,
0001
0010
0100
1000
0100
1000
0100
1000
0100
0010
0100
0010
,
0100
0000
0000
1000
0000
0000
0100
0000
0000
0010
0001
1000
,
0100
0010
0001
0010
1000
0010
0100
0001
1000
0010
0100
0010
,
0001
0010
0100
1000
0100
0010
0001
0010
0100
1000
0100
0010
,
0001
0010
0100
1000
0100
0010
0001
0010
0100
1000
0100
0010
,
0001
0010
0100
1000
0100
0010
0001
0010
0100
1000
0100
0010
,
0001
0010
0100
1000
0100
0010
0001
0010
0100
1000
0100
0010
,
0001
0010
0100
0010
0100
0010
0100
0010
0100
0010
0100
0010
,
0100
0001
1000
0001
1000
0001
1000
0001
1000
0001
1000
0001
,
1000
0100
1000
0100
1000
0100
1000
0100
1000
0100
1000
0100
,
0010
0001
0100
0010
0100
1000
0100
0010
0100
0010
0001
0100
,
0010
1000
0010
0100
0001
0100
0010
1000
0001
0100
0010
0100
,
1000
0100
0010
0001
0100
0010
1000
0100
0010
0100
0010
0001
,
0100
0000
0000
0010
0000
0000
0100
0000
0000
1000
0100
1000
,
0100
1000
0100
1000
0100
0010
0001
0010
0001
0010
0100
0010
,
0100
1000
0001
0100
0010
1000
0100
1000
0100
0001
0100
0010
,
0100
1000
0100
0100
0010
0100
0001
0100
1000
0010
0100
0001
,
1000
0000
0000
0100
0000
0000
1000
0000
0000
0100
0010
0100
,
0010
0001
0100
1000
0100
0010
0100
0010
0001
0010
0100
1000
,
0100
0010
0100
0010
0100
0010
0001
1000
0001
1000
0100
0010
,
2002
0000
0000
0000
0000
0000
0000
3003
0000
1001
0000
0000
,
0220
0000
0000
0330
,
2002
0000
0000
3003
,
2020
0000
0000
3030
,
0202
0000
0000
0000
0000
0000
0000
0000
0000
0303
0000
0000
1000
0000
0010
0000
0001
0000
0010
0000
0100
0000
0010
0000
,
0001
1000
0010
0001
1000
0010
0100
0000
0000
0010
0000
0000
,
0100
0010
1001
0100
,
1000
0000
0000
0100
0000
0000
0020
0000
0000
0000
0030
0000
,
0010
1000
0100
0010
,
0001
0100
0110
1000
,
1010
1000
2002
3003
,
1001
0100
0100
0010
,
0001
1000
0010
0100
,
0010
0001
0100
0010
,
0100
0010
0001
0010
0100
1000
0200
0000
0000
0000
0300
0000
,
0100
0010
0100
0001
1000
0100
0010
0000
0000
1001
0000
0000
,
0100
0110
1000
1001
,
0100
1001
1000
1100
,
0010
0101
0100
1010
,
0010
0110
0001
1001
,
0100
0110
1000
1001
,
0001
1100
0110
0110
,
0110
1001
1001
1001
,
1001
1001
2002
0000
,
0000
0000
0000
0000
,
0000
0000
0000
3003
;

//--------------- dance-single - ----------------
#NOTES:
     dance-single:
     :
     Hard:
     12:
     0.954665,1.050092,0.513192,0.223127,1.941206,599,552,46,20,12,1,0,0,0,0.954665,1.050092,0.513192,0.223127,1.941206,599,552,46,20,12,1,0,0,0:
0000
0000
0000
0000
,
0000
0000
0000
0000
,
1000
0001
1000
0001
1000
0001
1000
0001
1000
0001
1000
0001
,
1000
0001
1000
0001
1000
0001
0100
0000
0000
1010
0000
0000
,
0100
0010
0100
0010
1000
0001
0100
0010
1000
0100
0010
0100
,
0001
1000
0100
0010
0100
0010
1001
0000
0000
0110
0000
0000
,
1010
0000
0000
0101
0010
0100
1010
0100
0001
0011
0010
0100
,
1001
0100
0010
1000
0010
0001
0100
0010
0100
0010
0100
0010
,
0100
0001
1000
0010
0001
0100
0110
0010
0001
1000
0010
0100
,
1001
0100
0110
1000
,
1100
0000
0000
0101
0010
0100
0010
0100
0001
1010
0010
1000
,
0100
0100
1000
0101
0010
0100
0100
0001
0010
1001
0100
0010
,
1000
0100
0001
1100
0010
0100
1000
0100
0010
0101
0010
0100
,
1000
0001
0100
1100
0010
0001
0100
1000
0100
0011
0010
0100
,
0110
0000
0000
0100
0000
0000
1000
0000
0000
0100
0010
0100
,
0010
0100
0010
0001
0100
0010
1000
0000
0002
0000
0003
0000
,
0100
0001
0010
1000
0010
0001
0100
0010
0100
0010
0100
0010
,
0100
1000
0100
0010
0100
1000
0001
0100
0010
1000
0100
0010
,
2002
0000
0000
0000
0000
0000
3003
0000
0000
0100
0010
0001
,
0010
0001
0010
0100
1000
0010
0100
0000
0020
0000
0000
0030
,
1000
0100
0010
0001
0010
0100
1000
0100
0010
0001
0010
0100
,
1000
0100
0010
0001
0010
0100
1000
0100
0010
0001
0010
0100
,
1000
0100
0010
0001
1000
0100
0010
0001
1000
0100
0010
0001
,
1000
0100
0010
0001
1000
0100
0010
0001
1000
0100
0010
0001
,
1000
0100
0010
0001
1000
0100
0010
0001
1000
0100
0010
0001
,
1000
0100
0010
0001
0010
0100
1000
0001
0010
0100
1000
0001
,
0010
0100
1000
0001
0010
0100
1000
0001
0010
0100
1000
0001
,
0010
0100
1000
0001
0010
0100
1000
0100
0010
0001
0010
0100
,
1000
0100
0010
0001
0010
0100
1000
0100
0010
0001
0010
0100
,
1000
0001
0100
0010
1000
0100
0010
0001
0100
0010
1000
0001
,
2000
0000
0000
0000
0000
0000
3000
0000
0000
0100
0010
0001
,
0010
0100
0010
0001
0100
0010
0001
0010
0000
1000
0000
0000
,
0100
0010
1000
0010
1000
0010
1000
0010
1000
0100
0010
0100
,
0010
0100
0010
0100
0010
0001
0100
1000
0001
1000
0001
0100
,
0020
0000
0000
0000
0000
0000
0030
0000
0000
0100
0010
0100
,
1000
0100
0010
0001
0100
0010
0100
0010
0000
1000
0000
0000
,
0001
0010
0100
1000
0001
0010
0100
1000
0001
0010
0100
1000
,
2002
0000
0000
3003
,
2002
0000
0000
0000
0000
0000
0000
3003
,
0220
0000
0000
0000
0000
0000
0000
0330
,
2002
0000
0000
0000
0000
0000
0000
3003
,
2002
0000
0000
0000
0000
0000
0000
0000
0000
3003
0000
0000
1001
00M0
0100
M000
0010
000M
0100
00M0
0001
0M00
1000
000M
,
1010
00M0
0100
M000
0001
00M0
1000
0M00
0001
00M0
0100
000M
1011
0000
0001
0000
1000
0000
0100
0000
0010
0000
0001
0000
,
0010
0100
0010
1100
0010
0001
0100
1000
0100
0010
0100
0010
,
0001
0001
0010
0100
0001
1000
0100
0010
0001
0100
0010
0100
,
0010
0010
0001
1000
1000
0100
0100
0010
0100
0010
0001
1000
,
0001
0010
0100
1000
0100
0010
1000
0010
0001
0100
1000
0100
,
0010
0010
0100
0100
0010
0001
1010
0001
0010
0100
0010
0100
,
1000
0100
0010
0001
0010
1000
0001
0010
1000
0100
0001
0010
,
0100
1000
0100
0010
0001
0001
1000
0010
0001
1000
0100
0001
,
1000
0000
0010
0000
0001
0000
1001
0000
0000
0000
0000
0000
0200
0000
0000
0000
0000
0000
0000
0000
0000
0300
0000
0000
,
0010
0100
0010
0001
0010
0100
0020
0000
0000
0000
0030
0000
,
1000
0100
1000
0100
0010
0001
0100
0000
0000
0100
0000
0000
,
0010
0001
0010
1001
0000
0000
0100
0010
0001
0010
0000
0000
,
0110
0010
0100
1001
0000
0000
0100
0010
0100
0110
0000
0000
,
1000
0010
0001
0110
0000
0000
1000
0001
0010
1100
0000
0000
,
0100
0100
1000
0110
0000
0000
0100
0010
0001
0101
0000
0000
,
0010
0010
0001
0110
0000
0000
1000
0100
0010
1001
0000
0000
,
0100
0001
0010
0110
0000
0000
1001
0010
0100
0010
0100
1000
,
0100
0010
0100
0010
0001
0100
0010
0100
1000
0100
0010
0100
,
0010
0001
0100
0010
0100
0010
2002
0000
0000
0000
0000
0000
,
0000
0000
0000
0000
,
0000
0000
0000
3003
;

//--------------- dance-single - ----------------
#NOTES:
     dance-single:
     :
     Challenge:
     15:
     0.886133,1.095182,0.535505,0.334691,1.980253,556,503,48,30,202,5,8,0,0,0.886133,1.095182,0.535505,0.334691,1.980253,556,503,48,30,202,5,8,0,0:
0000
0000
0000
0000
,
0000
0000
0000
0000
,
0100
0010
0100
0011
0100
0010
0100
1000
0100
1001
0100
0010
,
0001
0010
0100
0110
1000
0100
0010
0001
0010
1010
0100
0001
,
1100
0010
0100
1000
0100
1000
0011
0100
0010
0001
0010
0001
,
1100
0100
0010
0100
0010
0001
0110
1000
0001
1010
0100
1000
,
0011
1000
0100
1000
0100
0001
0100
0010
0100
0010
0010
0001
,
0100
1000
0100
1000
0100
0010
0100
0010
0001
1000
0010
0100
,
0010
0001
0010
0100
0010
1000
0100
0001
1000
0100
0010
0001
,
1200
0010
0301
1020
0100
0031
0102
1000
0013
0210
0001
0310
,
1001
0010
0100
0010
1000
0100
0001
0010
1000
0100
1000
0100
,
0010
0001
0100
0010
0001
0010
0100
1000
0001
0010
0100
0001
,
4040
0000
0000
0000
0000
0000
0000
0000
0000
3030
0000
0010
,
0440
0000
0000
0000
0000
0000
0000
0000
0000
0000
0330
0000
,
2002
0000
0000
0000
0000
0000
0000
3003
0000
0100
0010
0100
,
0010
0001
1000
0001
0100
0010
1000
0000
0001
0000
0000
0100
,
0001
1000
0010
0100
0010
1000
0100
0001
0010
0100
1000
0100
,
0001
0100
0010
1000
0010
0100
0010
0100
0010
0001
0010
1000
,
0220
0000
0000
0000
0000
0000
0000
0330
0000
0001
0010
0001
,
0010
0001
0010
0100
1000
0100
0010
0000
0001
0000
0000
0100
,
1011
0000
0000
000M
1000
0000
00M0
0000
0100
000M
0000
0000
0010
0000
0000
M000
0001
0000
0M00
0000
0010
000M
0000
0000
0100
0000
0000
000M
1000
0000
00M0
0000
0100
000M
0000
0000
0010
0000
0000
0M00
0001
0000
M000
0000
0010
000M
0000
0000
,
0100
0000
0000
00M0
1000
0000
00M0
0000
0100
000M
0000
0000
0010
0000
0000
0M00
0001
0000
0000
0000
0010
M000
0000
0000
0100
0000
0000
00M0
1000
0000
00M0
0000
0100
000M
0000
0000
0010
0000
0000
M000
0001
0000
00M0
0000
0010
M000
0000
0000
,
0100
0010
0001
1000
0001
1000
0001
1000
0100
0010
0100
1000
,
0100
0010
0100
0010
0001
0100
0010
1000
0100
1000
0100
0010
,
0100
0010
0001
1000
0001
1000
0100
1000
0100
0010
0001
0100
,
0010
0100
0010
0001
0100
0010
1000
0100
0001
0100
0010
1000
,
0100
0010
0100
0001
0100
0001
0100
0010
1000
0010
1000
0100
,
0010
0001
0010
0001
0010
0001
0010
0001
0010
0100
1000
0100
,
0010
0100
0001
0100
0001
0010
1000
0001
0100
0010
0100
0010
,
0001
0010
0001
0100
0010
0100
0010
0001
0010
0100
0001
0010
,
2020
0000
0000
0000
0000
0000
0000
3030
0000
0100
0010
0001
,
0010
0100
0010
0001
1000
0100
0001
0000
1000
0000
0000
0001
,
0110
0010
0100
0001
0100
0001
0010
1000
0010
1000
0100
0001
,
0100
0010
1000
0100
0010
0001
0010
0100
0010
0001
1000
0001
,
0202
0000
0000
0000
0000
0000
0000
0303
0000
0100
0010
0001
,
0100
1000
0100
0010
0001
0010
0100
0000
0010
0000
0000
0001
,
1101
1000
0100
0010
0001
0010
0100
1000
0100
0010
0001
0010
,
0202
0000
0000
0303
,
2002
0000
0000
0000
0000
0000
0000
3003
,
0220
0000
0000
0000
0000
0000
0000
0330
,
2020
0000
0000
0000
0000
0000
0000
3030
,
0202
0000
0000
0000
0000
0000
0000
0000
0000
0000
0000
0000
0000
0000
0000
0000
0000
0000
0303
0000
0000
0000
0000
0000
1M11
MMMM
MMMM
MMMM
M1MM
MMMM
MMMM
MMMM
MM1M
MMMM
MMMM
MMMM
MMM1
MMMM
MMMM
MMMM
MM1M
MMMM
MMMM
MMMM
MMM1
MMMM
MMMM
MMMM
,
M1MM
MMMM
MMMM
MMMM
MM1M
MMMM
MMMM
MMMM
M1MM
MMMM
MMMM
MMMM
1MMM
MMMM
MMMM
MMMM
M1MM
MMMM
MMMM
MMMM
MM1M
MMMM
MMMM
MMMM
1M11
0000
0000
0000
0100
0000
0000
0000
0010
0000
0000
0000
0001
0000
0000
0000
0100
0000
0000
0000
0010
0000
0000
0000
,
1000
0010
0100
1001
0010
0100
0100
0001
0010
1000
0100
0001
,
0010
0001
1000
0100
0010
0001
0010
0100
0010
0100
0010
0001
,
0010
0100
1000
0100
0010
0001
2000
0000
3000
0002
0000
0003
,
2000
0000
3000
0002
0000
1003
0001
0010
0100
0010
0001
0010
,
1000
0100
0010
0100
0010
0001
0010
1000
0100
0010
0001
0010
,
0100
0001
0100
0010
0010
0001
4004
0000
0000
0000
0000
0000
,
0000
0000
0000
3003
0000
0100
4040
0000
0000
0000
0000
0000
,
0000
0000
0000
0000
0000
3030
0200
0000
0000
0000
0300
0000
,
0010
1000
0001
0100
1000
0100
0020
0000
0000
0000
0030
0000
,
0001
1000
0001
1000
1001
1000
0001
0000
0000
1001
0000
0000
,
1000
1001
1000
1001
,
0100
0110
0100
0101
,
0010
0110
0010
0101
,
0001
0110
0010
0101
,
0100
1010
0100
0110
,
0100
0000
0000
0110
0000
0000
0010
0001
0100
0010
1000
0100
,
0010
0001
0100
0010
0100
1000
0100
0010
0001
0100
0010
0100
,
0010
0001
0100
0010
1000
0001
2012
0000
0000
0000
0000
0000
,
0000
0000
0000
0000
,
0000
0000
0000
0000
,
0000
0000
0000
0000
3003
0000
0000
0000
0000
0000
0000
0000
;
