#TITLE:RIVER;
#SUBTITLE:;
#ARTIST:AKB48;
#TITLETRANSLIT:;
#SUBTITLETRANSLIT:;
#ARTISTTRANSLIT:;
#GENRE:J-Pop;
#CREDIT:;
#BANNER:RIVER.png;
#BACKGROUND:RIVER-bg.png;
#LYRICSPATH:;
#CDTITLE:Wrland Season 2.png;
#MUSIC:RIVER.ogg;
#OFFSET:0.001000;
#SAMPLESTART:36.631001;
#SAMPLELENGTH:12.000000;
#SELECTABLE:YES;
#DISPLAYBPM:106.000000;
#BPMS:0.000000=106.466003
;
#STOPS:
;
#BGCHANGES:0.000=RIVER.avi=1.000=0=0=0=StretchNoLoop====,
99999=-nosongbg-=1.000=0=0=0 // don't automatically add -songbackground-
;
#KEYSOUNDS:;
#ATTACKS:;

//---------------dance-single - ----------------
#NOTES:
     dance-single:
     :
     Beginner:
     1:
     0.031495,0.086421,0.035274,0.000000,0.000000,25.000000,21.000000,4.000000,0.000000,0.000000,0.000000,0.031495,0.086421,0.035274,0.000000,0.000000,25.000000,21.000000,4.000000,0.000000,0.000000,0.000000:
0000
0000
0000
0000
,
0000
0000
0000
0000
,
0000
0000
0000
0000
,
0000
0000
0000
0000
,
0000
0000
0000
0000
,
0000
0000
0000
0000
,
0000
0000
0000
0000
,
0000
0000
0000
0000
,
1000
0000
0000
0000
,
0000
0000
0000
0000
,
1000
0000
0000
0000
,
0000
0000
0000
0000
,
0001
0000
0000
0000
,
0000
0000
0000
0000
,
0001
0000
0000
0000
,
0000
0000
0000
0000
,
0000
0000
0000
0000
,
0110
0000
0000
0000
,
0000
0000
0000
0000
,
1001
0000
0000
0000
,
0000
0000
0000
0000
,
1000
0000
0000
0000
,
0000
0000
0000
0000
,
0100
0000
0000
0000
,
0000
0000
0000
0000
,
1000
0000
0000
0000
,
0000
0000
0000
0000
,
0010
0000
0000
0000
,
0000
0000
0000
0000
,
0001
0000
0000
0000
,
0000
0000
0000
0000
,
1001
0000
0000
0000
,
0000
0000
0000
0000
,
1001
0000
0000
0000
,
0000
0000
0000
0000
,
0100
0000
0000
0000
,
0000
0000
0000
0000
,
0010
0000
0000
0000
,
0000
0000
0000
0000
,
0100
0000
0000
0000
,
0000
0000
0000
0000
,
0010
0000
0000
0000
,
0000
0000
0000
0000
,
0100
0000
0000
0000
,
0000
0000
0000
0000
,
0001
0000
0000
0000
,
0000
0000
0000
0000
,
1000
0000
0000
0000
,
0000
0000
0000
0000
,
0001
0000
0000
0000
;

//---------------dance-single - ----------------
#NOTES:
     dance-single:
     :
     Easy:
     3:
     0.061729,0.086421,0.070548,0.000000,0.000000,49.000000,41.000000,8.000000,0.000000,0.000000,0.000000,0.061729,0.086421,0.070548,0.000000,0.000000,49.000000,41.000000,8.000000,0.000000,0.000000,0.000000:
0000
0000
0000
0000
,
0000
0000
0000
0000
,
0000
0000
0000
0000
,
0000
0000
0000
0000
,
0000
0000
0000
0000
,
0000
0000
0000
0000
,
0000
0000
0000
0000
,
0000
0000
0000
0000
,
1000
0000
0000
0000
,
1000
0000
0000
0000
,
0001
0000
0000
0000
,
0001
0000
0000
0000
,
0100
0000
0000
0000
,
0100
0000
0000
0000
,
0010
0000
0000
0000
,
0010
0000
0000
0000
,
0000
0000
0000
0000
,
1001
0000
0000
0000
,
0001
0000
0000
0000
,
1000
0000
0000
0000
,
0110
0000
0000
0000
,
0100
0000
0000
0000
,
0010
0000
0000
0000
,
0100
0000
0000
0000
,
0010
0000
0000
0000
,
1010
0000
0000
0000
,
0001
0000
0000
0000
,
1000
0000
0000
0000
,
0101
0000
0000
0000
,
0010
0000
0000
0000
,
0100
0000
0000
0000
,
0010
0000
0000
0000
,
0010
0000
0000
0000
,
1001
0000
0000
0000
,
0100
0000
0000
0000
,
1000
0000
0000
0000
,
0001
0000
0000
0000
,
0100
0000
0000
0000
,
0010
0000
0000
0000
,
0100
0000
0000
0000
,
0001
0000
0000
0000
,
0110
0000
0000
0000
,
1000
0000
0000
0000
,
0100
0000
0000
0000
,
1001
0000
0000
0000
,
0010
0000
0000
0000
,
0100
0000
0000
0000
,
0010
0000
0000
0000
,
0100
0000
0000
0000
,
0110
0000
0000
0000
;

//---------------dance-single - ----------------
#NOTES:
     dance-single:
     :
     Medium:
     6:
     0.151174,0.216053,0.044092,0.220462,0.000000,120.000000,115.000000,5.000000,25.000000,0.000000,0.000000,0.151174,0.216053,0.044092,0.220462,0.000000,120.000000,115.000000,5.000000,25.000000,0.000000,0.000000:
0000
0000
0000
0000
,
0000
0000
0000
0000
,
0000
0000
0000
0000
,
0000
0000
0000
0000
,
0000
0000
0000
0000
,
0000
0000
0000
0000
,
0000
0000
0000
0000
,
0000
0000
0000
0000
,
1000
0000
1000
0000
,
0001
0000
0001
0000
,
1000
0000
1000
0000
,
0001
0000
0001
0000
,
0100
0000
0100
0000
,
0001
0000
0001
0000
,
0100
0000
0010
0000
,
0100
0000
0001
0000
,
1001
0000
0100
0010
,
0220
0000
0000
0000
0330
0000
0000
1000
,
0200
0000
0000
0000
0300
0000
0000
0100
,
0020
0000
0030
0100
,
0020
0000
0030
1000
0200
0000
0300
0000
,
0100
0000
0001
0000
,
1000
0000
0100
0010
,
0200
0300
0001
0000
,
1000
0000
0001
1000
,
0200
0000
0000
0000
0300
0000
0000
0100
,
0020
0000
0000
0000
0030
0000
0000
0001
,
1000
0100
0010
0100
,
0020
0000
0030
1000
0100
0000
0100
0000
,
0010
0000
0100
0010
,
0001
0000
0000
0000
1000
0001
0000
0000
,
0100
0000
0000
0100
0020
0000
0030
0000
,
0001
1000
0001
0100
,
2020
0000
0000
0000
3030
0000
0000
0001
,
0020
0030
0100
1000
,
0020
0030
0100
0010
,
0002
0000
0003
0100
0020
0000
0030
0000
,
1000
0001
0100
1000
,
0010
0100
0100
0010
,
0002
0003
2000
3000
,
0100
0010
0100
0010
,
2002
0000
0000
0000
3003
0000
0000
0010
,
0002
0000
0000
0000
0003
0000
0000
1000
,
0200
0300
0100
0010
,
0200
0000
0300
0100
0010
0000
0100
0000
,
0200
0000
0000
0000
0300
1000
0100
0001
,
0010
0000
0000
1000
0001
1000
0000
0000
,
0100
0000
0000
0010
0100
0000
0000
0000
,
0010
0100
0001
0100
,
1001
0000
0000
0000
;

//---------------dance-single - ----------------
#NOTES:
     dance-single:
     :
     Hard:
     9:
     0.328804,0.345685,0.000000,0.079366,0.083776,261.000000,261.000000,0.000000,9.000000,0.000000,0.000000,0.328804,0.345685,0.000000,0.079366,0.083776,261.000000,261.000000,0.000000,9.000000,0.000000,0.000000:
// measure 0
0000
0000
0000
0000
,  // measure 1
0000
0000
0000
0000
,  // measure 2
0000
0000
0000
0000
,  // measure 3
0000
0000
0000
0000
,  // measure 4
0000
0000
0000
0000
,  // measure 5
0000
0000
0000
0000
,  // measure 6
0000
0000
0000
0000
,  // measure 7
0000
0000
0000
0000
,  // measure 8
1000
0000
1000
0000
0100
0010
0100
0000
,  // measure 9
0001
0000
0001
0000
0100
0010
1000
0000
,  // measure 10
0100
0000
0100
0000
0010
1000
0100
0000
,  // measure 11
0100
0010
1000
0100
0001
0100
0010
0000
,  // measure 12
0100
0000
0010
0000
0100
0010
0001
0000
,  // measure 13
1000
0000
0100
0000
1000
0100
0010
0000
,  // measure 14
0100
0001
0010
1000
0100
0010
0001
0100
,  // measure 15
0020
0000
0000
0000
0030
0000
0100
0001
1000
0000
0010
0000
0100
0000
0010
0000
,  // measure 16
0100
1000
0100
0001
,  // measure 17
0100
0000
0000
0000
0010
0000
0100
0010
0000
0000
1000
0000
0000
0000
0100
0000
,  // measure 18
0010
0000
0000
1000
0100
0000
0100
0010
0000
0000
0001
0000
1000
0000
0100
0000
,  // measure 19
0010
0000
0100
0010
0001
0100
0010
1000
,  // measure 20
0200
0000
0000
0000
0300
0000
0001
0010
2000
0000
0000
0000
0000
0000
3000
0000
,  // measure 21
0100
0000
0000
0001
0010
0000
0000
1000
0100
0000
0010
0000
0100
0000
0010
0000
,  // measure 22
0001
0000
1000
0100
0010
0100
0010
0001
,  // measure 23
0100
0000
0000
0000
0000
0000
0100
0010
1000
0000
0000
0000
0100
0000
0010
0000
,  // measure 24
0001
0000
0100
0000
0010
1000
0100
0010
,  // measure 25
0001
0000
0000
0000
0100
0000
0001
0100
0000
0000
0010
0000
0000
0000
1000
0000
,  // measure 26
0100
0000
0000
0000
0010
0000
0100
0010
0000
0000
0001
0000
0100
0000
0010
0000
,  // measure 27
1000
0000
0100
0010
0001
0100
0010
1000
,  // measure 28
0200
0000
0000
0000
0300
0000
1000
0010
0001
0000
0000
0000
0100
0000
0010
0000
,  // measure 29
1000
0000
0100
0010
0001
0100
0010
0001
,  // measure 30
0100
0000
0000
0010
1000
0100
0000
0000
,  // measure 31
0200
0000
0300
0010
0100
0000
0001
0100
,  // measure 32
0010
1000
0100
0010
0001
0100
0010
0100
,  // measure 33
0010
0000
0000
0000
0100
0000
0010
1000
0000
0000
0100
0000
0000
0000
0010
0000
,  // measure 34
0100
0000
0010
0100
0010
0001
1000
0100
,  // measure 35
0010
0000
0100
0010
0100
1000
0100
0001
,  // measure 36
0200
0000
0000
0000
0300
0000
0001
0010
2000
0000
3000
0000
0100
0000
0010
0000
,  // measure 37
0001
0000
0000
0100
0010
0000
0000
1000
0100
0000
0100
0000
0000
0000
0100
0000
,  // measure 38
0010
0000
0000
1000
0100
0001
0100
0010
,  // measure 39
0100
0000
0000
0000
0000
0000
0100
0010
0100
0000
0000
0000
0100
0000
0010
0000
,  // measure 40
0100
0010
0001
1000
0100
0010
0100
0010
,  // measure 41
0100
0000
0000
0000
0100
0000
0010
1000
0000
0000
0100
0000
0010
0000
0100
0000
,  // measure 42
0010
0000
0000
0000
0001
0000
1000
0001
0000
0000
0100
0000
0010
0000
0100
0000
,  // measure 43
0010
0000
0100
0010
0001
0100
0010
1000
,  // measure 44
0200
0000
0000
0000
0300
0000
0010
0100
0010
0000
1000
0000
0010
0000
0100
0000
,  // measure 45
0010
0000
0100
0010
0001
0100
0010
0100
,  // measure 46
0020
0000
0030
0100
0010
0100
0000
0000
,  // measure 47
0100
0000
0010
0100
0010
0001
0100
0010
,  // measure 48
1000
0100
0010
0100
0010
0100
0010
1000
,  // measure 49
0001
0000
0000
0000
;

//---------------dance-single - ----------------
#NOTES:
     dance-single:
     :
     Challenge:
     11:
     0.393053,0.496922,0.079366,0.176370,0.180779,312.000000,303.000000,9.000000,20.000000,0.000000,0.000000,0.393053,0.496922,0.079366,0.176370,0.180779,312.000000,303.000000,9.000000,20.000000,0.000000,0.000000:
0000
0000
0000
0000
,
0000
0000
0000
0000
,
0000
0000
0000
0000
,
0000
0000
0000
0000
,
0000
0000
0000
0000
,
0000
0000
0000
0000
,
0000
0000
0000
0000
,
0000
0000
0000
0000
,
1000
0000
0100
0010
0100
0000
0010
0000
0100
0000
0010
0000
0001
0000
0000
0000
,
0100
0000
0010
0100
0010
0000
1000
0000
0100
0000
0010
0000
0001
0000
0000
0000
,
1000
0000
0100
0010
0100
0000
0010
0000
1000
0000
0100
0000
0010
0000
0100
0000
,
0010
0001
1000
0100
0010
0100
0010
0000
,
0100
0000
0010
0100
0010
0000
0001
0000
0100
0000
0010
0100
0000
0000
0000
0000
,
1000
0000
0100
0010
0100
0000
0010
0000
0100
0000
0010
0000
0001
0000
0000
0000
,
0100
0010
0100
0010
0001
0100
0010
0100
,
1001
0000
0000
0000
0100
0000
0010
1000
0100
0000
0010
1000
0000
0100
0001
0000
,
0010
1010
0101
1001
,
0110
0000
0000
0000
0010
0000
0100
0010
0000
0000
0100
0000
0010
0000
0001
0000
,
1000
0000
0000
0001
0100
0000
0010
0100
0000
0000
1000
0000
0100
0000
0010
1000
,
0001
0100
0010
0100
0010
0001
0100
0010
,
2000
0000
0000
0000
3000
0000
0100
0010
0200
0000
0300
0000
0010
0000
0100
0000
,
0010
0000
0000
0001
0100
0000
0000
0010
0100
0000
2000
0000
3000
0000
0100
0000
,
0020
0000
0030
0100
0001
0100
1000
0100
,
0020
0000
0000
0000
0030
0000
0100
0010
0200
0000
0300
0000
0010
0000
0100
0000
,
0010
1000
0100
0001
0100
0010
0100
0010
,
2000
0000
3000
0000
0100
0000
0010
0100
0000
0000
0001
0000
0100
0000
0010
0000
,
1000
0000
0000
0010
0100
0000
0010
0001
0000
0000
0100
0000
0010
0000
1000
0000
,
0100
0000
0100
0010
0100
0001
0100
0010
,
2000
0000
0000
0000
3000
0000
0100
0010
0200
0000
0300
0000
0010
0000
0100
0000
,
0002
0003
0100
1000
0100
0010
0100
0010
,
0002
0000
0003
1000
0001
0100
0000
0000
,
0020
0000
0030
0100
0010
0001
0100
1000
,
0100
0000
0010
0000
0101
0000
0010
0000
1001
0010
0100
0010
0100
0010
0100
1000
,
0101
0000
0000
0000
1000
0000
0100
0010
0000
0000
0100
0000
0010
0000
0001
0000
,
2000
0000
3000
0000
0100
0000
0010
0000
0100
0000
0010
0000
0001
0000
0100
0001
,
0010
0000
0100
0010
1000
0100
0010
0001
,
0200
0000
0000
0000
0300
0000
0001
0010
0001
0000
1000
0000
0100
0001
0010
0000
,
0100
0000
0000
0010
0100
0000
0000
0001
0100
0000
1000
0000
0000
0000
0100
0000
,
0020
0000
0030
0000
0100
0000
0010
0000
0001
0000
1000
0000
0100
0000
1000
0010
,
0100
0010
0100
0010
1000
0100
0010
0001
,
0100
0000
0010
0000
0100
0000
0010
0000
0001
0010
1000
0100
0010
0100
0010
0100
,
0010
0000
0000
0000
0100
0000
0010
0100
0000
0000
1000
0000
0100
0000
0010
0000
,
0001
0000
0000
0000
0100
0000
0010
0100
0000
0000
1000
0000
0100
0000
0010
0000
,
0002
0003
0100
0010
0100
0010
0001
0100
,
0020
0000
0030
0000
1000
0000
0100
0010
0100
0000
0010
0000
0000
1000
0000
0000
,
0100
0000
0100
0010
0100
0010
0001
0100
,
0020
0030
0100
0010
1000
0100
0000
0000
,
0200
0000
0300
1000
0020
0030
0100
0010
,
0001
0000
1000
0000
0100
0010
0100
0000
0010
0000
0100
0000
0010
0000
0001
0000
,
1001
0000
0000
0000
;

//---------------dance-double - ----------------
#NOTES:
     dance-double:
     :
     Beginner:
     1:
     0.059210,0.129632,0.044092,0.000000,0.000000,47.000000,42.000000,5.000000,0.000000,0.000000,0.000000,0.059210,0.129632,0.044092,0.000000,0.000000,47.000000,42.000000,5.000000,0.000000,0.000000,0.000000:
00000000
00000000
00000000
00000000
,
00000000
00000000
00000000
00000000
,
00000000
00000000
00000000
00000000
,
00000000
00000000
00000000
00000000
,
00000000
00000000
00000000
00000000
,
00000000
00000000
00000000
00000000
,
00000000
00000000
00000000
00000000
,
00000000
00000000
00000000
00000000
,
00100000
00000000
00000000
00000000
,
10000000
00000000
00000000
00000000
,
00100000
00000000
00000000
00000000
,
01000000
00000000
00000000
00000000
,
00010000
00000000
00000000
00000000
,
00001000
00000000
00000000
00000000
,
00000100
00000000
00000000
00000000
,
00000010
00000000
00000000
00000000
,
00000001
00000000
00000000
00000000
,
00001001
00000000
00000000
00000000
,
00001000
00000000
00000000
00000000
,
00010000
00000000
00000000
00000000
,
00100000
00000000
00000000
00000000
,
01000000
00000000
00000000
00000000
,
00100000
00000000
00000000
00000000
,
01000000
00000000
00000000
00000000
,
00010000
00000000
00000000
00000000
,
00001000
00000000
00000000
00000000
,
00000100
00000000
00000000
00000000
,
00000010
00000000
00000000
00000000
,
00000001
00000000
00000000
00000000
,
00000010
00000000
00000000
00000000
,
00000100
00000000
00000000
00000000
,
10010000
00000000
00000000
00000000
,
00010000
00000000
00000000
00000000
,
00100000
00000000
00000000
00000000
,
01000000
00000000
00000000
00000000
,
10000000
00000000
00000000
00000000
,
00100000
00000000
00000000
00000000
,
01000000
00000000
00000000
00000000
,
00100000
00000000
00000000
00000000
,
00010000
00000000
00000000
00000000
,
00001000
00000000
00000000
00000000
,
00000100
00000000
00000000
00000000
,
00000010
00000000
00000000
00000000
,
00000001
00000000
00000000
00000000
,
00000100
00000000
00000000
00000000
,
00000010
00000000
00000000
00000000
,
00000100
00000000
00000000
00000000
,
00001001
00000000
00000000
00000000
,
00000110
00000000
00000000
00000000
,
00001001
00000000
00000000
00000000
;

//---------------dance-double - ----------------
#NOTES:
     dance-double:
     :
     Easy:
     3:
     0.119680,0.172843,0.035274,0.000000,0.000000,95.000000,91.000000,4.000000,0.000000,0.000000,0.000000,0.119680,0.172843,0.035274,0.000000,0.000000,95.000000,91.000000,4.000000,0.000000,0.000000,0.000000:
00000000
00000000
00000000
00000000
,
00000000
00000000
00000000
00000000
,
00000000
00000000
00000000
00000000
,
00000000
00000000
00000000
00000000
,
00000000
00000000
00000000
00000000
,
00000000
00000000
00000000
00000000
,
00000000
00000000
00000000
00000000
,
00000000
00000000
00000000
00000000
,
10000000
00000000
01000000
00000000
,
10000000
00000000
01000000
00000000
,
00100000
00000000
01000000
00000000
,
00100000
00000000
00010000
00000000
,
00001000
00000000
00000100
00000000
,
00000010
00000000
00000001
00000000
,
00000010
00000000
00000100
00000000
,
00000010
00000000
00000100
00000000
,
00000010
00000000
00000000
00000000
,
00001001
00000000
00000100
00000000
,
00001000
00000000
00010000
00000000
,
00100000
00000000
01000000
00100000
,
01000000
00000000
00000000
10000000
01000000
00000000
00000000
00000000
,
00100000
00000000
00010000
00000000
,
00100000
00000000
01000000
00000000
,
00010000
00000000
00100000
00000000
,
00010000
00000000
00001000
00000000
,
00000100
00000000
00000010
00000000
,
00000001
00000000
00000010
00000000
,
00000100
00000000
00000100
00000010
,
00000001
00000000
00000000
00001000
00000100
00000000
00000010
00000000
,
00000100
00000000
00001000
00000000
,
00010000
00000000
00010000
00000000
,
10010000
00000000
01000000
00000000
,
00100000
00000000
01000000
00000000
,
00100000
00000000
10000000
00000000
,
01000000
00000000
00100000
00000000
,
00010000
00000000
00100000
00000000
,
01000000
00000000
00000000
10000000
01000000
00000000
00000000
00000000
,
01000000
00000000
00100000
00000000
,
00010000
00000000
00001000
00000000
,
00000100
00000000
00000010
00000000
,
00000001
00000000
00000010
00000000
,
00000100
00000000
00000010
00000000
,
00001000
00000000
00000001
00000000
,
00000100
00000000
00000010
00000100
,
00000010
00000000
00000000
00001000
00000100
00000000
00000100
00000000
,
00000010
00000000
00000001
00000000
,
00001000
00000000
00000100
00000000
,
00001001
00000000
00000100
00000000
,
00001000
00000000
00010000
00000000
,
10010000
00000000
00000000
00000000
;

//---------------dance-double - ----------------
#NOTES:
     dance-double:
     :
     Medium:
     5:
     0.292270,0.367290,0.017637,0.070548,0.022046,232.000000,230.000000,2.000000,8.000000,0.000000,0.000000,0.292270,0.367290,0.017637,0.070548,0.022046,232.000000,230.000000,2.000000,8.000000,0.000000,0.000000:
00000000
00000000
00000000
00000000
,
00000000
00000000
00000000
00000000
,
00000000
00000000
00000000
00000000
,
00000000
00000000
00000000
00000000
,
00000000
00000000
00000000
00000000
,
00000000
00000000
00000000
00000000
,
00000000
00000000
00000000
00000000
,
00000000
00000000
00000000
00000000
,
10000000
00000000
01000000
00000000
00100000
01000000
00100000
00000000
,
00010000
00000000
01000000
00000000
00100000
01000000
00100000
00000000
,
10000000
00000000
01000000
00000000
00100000
01000000
00100000
00000000
,
00010000
00000000
00100000
00000000
01000000
00100000
00010000
00000000
,
00001000
00000000
00000100
00000000
00000010
00000100
00000001
00000000
,
00000010
00000000
00000100
00000000
00001000
00000100
00000010
00000000
,
00000100
00000010
00000001
00000010
,
00000200
00000000
00000300
00001000
00000100
00000000
00000001
00000000
,
00000010
00001000
00000100
00000001
,
00001001
00000000
00001000
00010000
00100000
00000000
00100000
01000000
,
00100000
00000000
10000000
01000000
00100000
00000000
01000000
00100000
,
00010000
00000000
01000000
00000000
00100000
01000000
00100000
00010000
,
02000000
00000000
03000000
10000000
02000000
00000000
03000000
00000000
,
00100000
00000000
00000000
00010000
00001000
00000000
00000000
00000100
00000010
00000000
00000100
00000000
00000000
00000000
00000010
00000000
,
00000001
00000100
00000100
00001000
,
00000100
00000010
00000001
00000010
,
00000100
00000010
00000100
00001000
,
00010000
00000000
00100000
00010000
01000000
10000000
00000000
01000000
,
00100000
00000000
01000000
00100000
01000000
00100000
00000000
00010000
,
00001000
00000000
00000100
00000000
00000010
00000001
00000100
00000010
,
00000200
00000000
00000300
00001000
00000100
00000000
00000010
00000100
,
00000001
00000000
00000100
00000000
00000010
00000100
00000100
00000010
,
00000002
00000000
00000003
00001000
00000001
00001000
00000000
00000000
,
00001000
00000000
00010000
00100000
01000000
00000000
10000000
01000000
,
00100000
01000000
00100000
00000000
00010000
00000000
01000000
00000000
,
00100000
00000000
01000000
10000000
01000000
00100000
01000000
00100000
,
00010000
00000000
10000000
01000000
00100000
01000000
00100000
00010000
,
01000000
00000000
00100000
00000000
00010000
00010000
00001000
00000100
,
00000020
00000000
00000030
00000100
00000020
00000030
00000100
00000000
,
00000010
00000000
00000000
00001000
00000100
00000000
00000000
00000010
00000100
00000000
00000010
00000000
00000000
00000000
00000001
00000000
,
00001000
00000000
00000100
00001000
00000100
00000010
00000001
00000100
,
00000010
00000000
00001000
00000100
00000010
00000001
00001000
00000000
,
00000100
00000010
00000100
00000010
00000001
00000010
00000100
00001000
,
00010000
00000000
00100000
01000000
00100000
10000000
00000000
01000000
,
00100000
00000000
01000000
00100000
01000000
10000000
01000000
00100000
,
01000000
00000000
00100000
00000000
00010000
00001000
00000100
00000010
,
00000002
00000003
00000100
00000010
00000100
00000010
00000100
00001000
,
00000100
00000000
00000010
00000000
00000100
00000010
00000001
00000010
,
00000100
00000000
00000000
00000100
00001000
00010000
00000000
00000000
,
10000000
00000000
01000000
00100000
01000000
00000000
00100000
01000000
,
00100000
00000000
00010000
00000000
01000000
00010000
00100000
00000000
01000000
00000000
10000000
00000000
00100000
00000000
01000000
00000000
,
10010000
00000000
00000000
00000000
;

//---------------dance-double - ----------------
#NOTES:
     dance-double:
     :
     Hard:
     7:
     0.371637,0.432106,0.026455,0.105822,0.145505,295.000000,292.000000,3.000000,12.000000,0.000000,0.000000,0.371637,0.432106,0.026455,0.105822,0.145505,295.000000,292.000000,3.000000,12.000000,0.000000,0.000000:
00000000
00000000
00000000
00000000
,
00000000
00000000
00000000
00000000
,
00000000
00000000
00000000
00000000
,
00000000
00000000
00000000
00000000
,
00000000
00000000
00000000
00000000
,
00000000
00000000
00000000
00000000
,
00000000
00000000
00000000
00000000
,
00000000
00000000
00000000
00000000
,
10000000
00000000
01000000
00100000
01000000
00000000
00100000
00000000
10000000
00000000
01000000
00000000
00100000
00000000
00000000
00000000
,
01000000
00000000
00100000
01000000
00100000
00000000
00100000
00000000
01000000
00000000
10000000
00000000
01000000
00000000
00000000
00000000
,
01000000
00000000
00100000
01000000
00100000
00000000
01000000
00000000
01010000
00000000
10100000
00000000
01000000
00000000
00100000
00000000
,
10000000
01000000
00100000
01000000
00100000
01000000
00100000
00000000
,
00010000
00000000
00100000
00010000
00001000
00000000
00000100
00000000
00000010
00000000
00000001
00001000
00000000
00000000
00000000
00000000
,
00000100
00000000
00000010
00001000
00000100
00000000
00000010
00000000
00000100
00000000
00000010
00000000
00000001
00000000
00000000
00000000
,
00001000
00000100
00000010
00001000
00000100
00000010
00000001
00001000
,
00000100
00000000
00000000
00000000
00000000
00000000
00000100
00001000
00000100
00000000
00000100
00000010
00000000
00001000
00000001
00000000
,
00000010
00001000
00010000
00100000
,
01000000
00000000
00000000
00000000
00100000
00000000
10000000
01000000
00000000
00000000
01000000
00000000
00100000
00000000
10000000
00000000
,
01000000
00000000
00000000
01000000
00100000
00000000
01000000
10000000
00000000
00000000
01000000
00000000
00100000
00000000
01000000
00100000
,
01000000
00010000
01000000
00100000
00010000
01000000
00100000
10000000
,
02000000
00000000
00000000
00000000
03000000
00000000
00010000
00100000
00010000
00000000
01000000
00000000
00100000
00000000
10000000
00000000
,
01000000
00000000
00000000
00100000
01000000
00000000
00000000
00100000
00010000
00000000
00010000
00000000
00001000
00000000
00000010
00000000
,
00000200
00000000
00000300
00000010
00000100
00001000
00000100
00000010
,
00000002
00000000
00000000
00000000
00000003
00000000
00000100
00000010
00002000
00000000
00003000
00000000
00000100
00000000
00000010
00000000
,
00000100
00000010
00000001
00001000
00000100
00000100
00000010
00001000
,
00000100
00000000
00000000
00000000
00000001
00000000
00000100
00000010
00000000
00000000
00001000
00000000
00000100
00000000
00000001
00000000
,
00000100
00000000
00000000
00000000
00001000
00000000
00000100
00000010
00000000
00000000
00000100
00000000
00000010
00000000
00000001
00000000
,
00001000
00000000
00000100
00000010
00000100
00001000
00001000
00010000
,
00200000
00000000
00000000
00000000
00300000
00000000
01000000
00100000
02000000
00000000
03000000
00000000
10000000
00000000
01000000
00000000
,
00100000
00000000
01000000
00000000
00100000
01000000
10000000
01000000
,
00200000
00000000
00300000
01000000
00100000
00010000
00000000
00000000
,
00002000
00000000
00003000
00000100
00000010
00000000
00000001
00000100
,
00000010
00001000
00000100
00000000
00000001
00000000
00000100
00000000
,
00001000
00000000
00000000
00000000
00000100
00000000
00000001
00000100
00000000
00000000
00000010
00000000
00001000
00000000
00000100
00000000
,
00000010
00000000
00000000
00000000
00000001
00000000
00001000
00000000
00000100
00000000
00000010
00000000
00000100
00000000
00000010
00001000
,
00000100
00000000
00000010
00000001
00000100
00000010
00001000
00000100
,
00000020
00000000
00000000
00000000
00000030
00000000
00000100
00001000
00000100
00000000
00000010
00000000
00001000
00000000
00010000
00000000
,
00100000
00000000
00000000
10000000
01000000
00000000
00000000
00100000
01000000
00000000
00100000
00000000
00000000
00000000
01000000
00000000
,
10000000
00000000
00000000
00000000
01000000
00000000
00100000
00000000
00010000
00000000
01000000
00000000
00100000
00000000
10000000
01000000
,
10000000
00000000
01000000
00000000
00100000
00000000
10000000
00010000
01000000
00000000
00100000
00000000
10000000
00000000
01000000
00000000
,
00100000
00010000
01000000
00100000
01000000
10000000
01000000
00100000
,
01000000
00000000
00000000
00000000
01000000
00000000
00100000
10000000
00000000
00000000
01000000
00000000
00100000
00000000
01000000
00000000
,
00100000
00000000
00000000
01000000
00100000
00000000
00010000
00001000
00000000
00000000
00010000
00000000
00001000
00000000
00000100
00000000
,
00000010
00000000
00000100
00000010
00000001
00000100
00000010
00000100
,
00002000
00000000
00003000
00000000
00000100
00000000
00000010
00000100
00000010
00000000
00000010
00000000
00000000
00000100
00000000
00000000
,
00000010
00000001
00000100
00000010
00001000
00000100
00000010
00000001
,
00000200
00000000
00000300
00001000
00010000
00100000
00000000
00000000
,
20000000
00000000
30000000
01000000
00100000
01000000
00100000
00010000
,
01000000
00000000
00100000
00000000
10000000
00100000
01000000
00000000
01000000
00000000
00100000
00000000
10000000
00000000
01000000
00000000
,
10010000
00000000
00000000
00000000
;
