#VERSION:0.83;
#TITLE:Permission To Dance;
#SUBTITLE:;
#ARTIST:방탄소년단;
#TITLETRANSLIT:;
#SUBTITLETRANSLIT:;
#ARTISTTRANSLIT:BTS;
#GENRE:K-Pop;
#ORIGIN:;
#CREDIT:;
#BANNER:Permission To Dance.png;
#BACKGROUND:Permission To Dance-bg.png;
#PREVIEWVID:;
#JACKET:Permission To Dance-jacket.png;
#CDIMAGE:;
#DISCIMAGE:;
#LYRICSPATH:;
#CDTITLE:Wrland Season 2.png;
#MUSIC:Permission To Dance.ogg;
#OFFSET:0.000000;
#SAMPLESTART:30.959999;
#SAMPLELENGTH:12.000000;
#SELECTABLE:YES;
#DISPLAYBPM:62.000000:125.000000;
#BPMS:0.000=125.000,
32.000=62.500,
48.000=125.000,
138.000=62.500,
152.000=125.000;
#STOPS:96.000=0.480,
97.000=0.480,
98.000=0.480,
99.000=0.480,
100.000=0.480,
101.000=0.480,
204.000=0.480,
205.000=0.480,
206.000=0.480,
207.000=0.480,
208.000=0.480,
209.000=0.480;
#DELAYS:;
#WARPS:;
#TIMESIGNATURES:0.000=4=4;
#TICKCOUNTS:0.000=4;
#COMBOS:0.000=1;
#SPEEDS:0.000=1.000=0.000=0;
#SCROLLS:0.000=1.000;
#FAKES:;
#LABELS:0.000=Song Start;
#BGCHANGES:0.000=Permission To Dance.avi=1.000=0=0=0=StretchNoLoop====,
99999=-nosongbg-=1.000=0=0=0 // don't automatically add -songbackground-
;
#KEYSOUNDS:;
#ATTACKS:
;

//---------------dance-single - ----------------
#NOTEDATA:;
#CHARTNAME:;
#STEPSTYPE:dance-single;
#DESCRIPTION:;
#CHARTSTYLE:;
#DIFFICULTY:Beginner;
#METER:2;
#RADARVALUES:0.078542,0.170515,0.119520,0.063744,0.000000,69.000000,54.000000,15.000000,8.000000,0.000000,0.000000,0.000000,0.000000,0.000000,0.078542,0.170515,0.119520,0.063744,0.000000,69.000000,54.000000,15.000000,8.000000,0.000000,0.000000,0.000000,0.000000,0.000000;
#CREDIT:;
#DISPLAYBPM:62.000000:125.000000;
#NOTES:
0000
0000
0000
0000
,
0000
0000
0000
0000
,
0000
0000
0000
0000
,
0000
0000
0000
0000
,
1000
0000
0000
0000
,
1000
0000
0000
0000
,
0001
0000
0000
0000
,
0001
0000
0000
0000
,
0200
0000
0300
0000
,
0020
0000
0030
0000
,
2000
0000
3000
0000
,
0001
0000
0100
0000
,
0110
0000
0000
0000
,
1000
0000
0000
0000
,
0001
0000
0000
0000
,
0100
0000
0000
0000
,
0010
0000
0000
0000
,
1000
0000
0000
0000
,
0100
0000
0000
0000
,
1000
0000
0000
0000
,
0001
0000
0000
0000
,
0010
0000
0000
0000
,
0100
0000
0000
0000
,
1000
0000
0000
0000
,
1001
0000
0110
0000
,
1001
0000
0110
0000
,
0000
0000
1001
0000
,
0000
0000
1000
0000
,
0000
0000
0100
0000
,
0000
0000
0010
0000
,
0000
0000
0100
0000
,
0000
0000
0001
0000
,
0000
0000
1000
0000
,
0000
0000
0001
0000
,
0000
0000
2002
0000
,
3003
0000
0200
0000
,
0300
0000
0020
0000
,
0030
0000
0200
0000
,
0300
0000
0000
0000
,
0110
0000
0000
0000
,
0010
0000
0000
0000
,
1000
0000
0000
0000
,
1000
0000
0000
0000
,
1001
0000
0000
0000
,
0010
0000
0000
0000
,
0100
0000
0000
0000
,
0010
0000
0000
0000
,
0110
0000
0000
0000
,
1000
0000
0000
0000
,
0100
0000
0000
0000
,
1000
0000
0000
0000
,
1001
0000
0110
0000
,
1001
0000
0110
0000
,
0000
0000
1001
0000
;

//---------------dance-single - ----------------
#NOTEDATA:;
#CHARTNAME:;
#STEPSTYPE:dance-single;
#DESCRIPTION:;
#CHARTSTYLE:;
#DIFFICULTY:Easy;
#METER:4;
#RADARVALUES:0.150254,0.341030,0.151392,0.063744,0.000000,132.000000,113.000000,19.000000,8.000000,0.000000,0.000000,0.000000,0.000000,0.000000,0.150254,0.341030,0.151392,0.063744,0.000000,132.000000,113.000000,19.000000,8.000000,0.000000,0.000000,0.000000,0.000000,0.000000;
#CREDIT:;
#DISPLAYBPM:62.000000:125.000000;
#NOTES:
0000
0000
0000
0000
,
0000
0000
0000
0000
,
0000
0000
0000
0000
,
0000
0000
0000
0000
,
1000
0000
0001
0000
,
1000
0000
0001
0000
,
1000
0000
0001
0000
,
1000
0000
0001
0000
,
0100
0010
0100
0010
,
0100
0010
0100
0010
,
1000
0100
0010
0001
,
0010
0100
1000
1000
,
1001
0000
1000
0000
,
0001
0000
1000
0000
,
0001
0000
1000
0000
,
0100
0000
0010
0000
,
0001
0000
0010
0000
,
0001
0000
0010
0000
,
0001
0000
0010
0000
,
0100
0000
1000
0000
,
0100
0000
0010
0000
,
0100
0000
0010
0000
,
0100
0000
0001
0000
,
1000
0000
0100
0000
,
1001
1001
1001
1001
,
0110
0110
0110
0000
,
0110
0000
1000
0000
,
0100
0000
1000
0000
,
0100
0000
1000
0000
,
0100
0000
1000
0000
,
0100
0000
0010
0000
,
0001
0000
0010
0000
,
0001
0000
0010
0000
,
0001
0000
0010
0000
,
0001
0000
0200
0300
,
0020
0030
0200
0300
,
0020
0030
2000
3000
,
0002
0003
2000
3000
,
0002
0000
0003
0000
,
1001
0000
1000
0000
,
0010
0000
0100
0000
,
0010
0000
0100
0000
,
0001
0000
1000
0000
,
0100
0000
1000
0000
,
0100
0000
0010
0000
,
0001
0000
0100
0000
,
0010
0000
0100
0000
,
1000
0000
0001
0000
,
1000
0000
0001
0000
,
1000
0000
0001
0000
,
0100
0000
0010
0000
,
0110
0110
1001
1001
,
1100
0011
1001
0000
,
0110
0000
1001
0000
;

//---------------dance-single - ----------------
#NOTEDATA:;
#CHARTNAME:;
#STEPSTYPE:dance-single;
#DESCRIPTION:;
#CHARTSTYLE:;
#DIFFICULTY:Medium;
#METER:7;
#RADARVALUES:0.338071,0.361498,0.039840,0.191232,0.007968,297.000000,292.000000,5.000000,24.000000,0.000000,0.000000,0.000000,0.000000,0.000000,0.338071,0.361498,0.039840,0.191232,0.007968,297.000000,292.000000,5.000000,24.000000,0.000000,0.000000,0.000000,0.000000,0.000000;
#CREDIT:;
#DISPLAYBPM:62.000000:125.000000;
#NOTES:
0000
0000
0000
0000
,
0000
0000
0000
0000
,
0000
0000
0000
0000
,
0000
0000
0000
0000
,
1000
0100
1000
0100
,
0010
0001
0010
0001
,
0010
0100
0010
0100
,
1000
0100
0010
0100
,
0010
0100
0010
0100
1000
0100
0010
0001
,
0100
0010
0100
0010
0100
0000
0010
0100
,
0010
0001
1000
0100
0010
0100
0000
0100
,
0010
0000
0100
0000
0010
0000
0001
0000
1000
0000
0100
0000
1000
0100
0010
0001
,
0000
1000
0001
0100
1000
0000
0100
0010
,
0000
0100
0010
0001
0100
0000
0010
1000
,
0000
1000
0100
0010
0100
0000
0010
0100
,
0001
0000
0100
0010
0000
1000
0100
1000
,
0100
0100
0001
0100
0010
0000
1000
0100
,
0000
0100
0010
0001
1000
0000
1000
0001
,
0000
1000
0001
0100
0010
0000
0100
0010
,
0001
0000
1000
0000
0001
1000
0001
1000
,
0100
0000
0000
0100
0010
0001
1000
0200
,
0000
0000
0300
2000
0000
3000
0100
0010
,
0000
0100
0010
0001
0100
0010
1000
0100
,
0010
0000
0100
0010
0000
0100
0010
0001
,
0001
1000
0001
1000
,
0001
0000
1000
1000
0000
0100
0010
0001
,
0100
0010
1000
0200
0000
0300
1000
0000
,
0100
0001
0100
0020
0030
0000
0100
0010
,
0001
0100
1000
0200
0300
0000
0100
0010
,
0100
0010
0001
0100
0010
0100
1000
0100
,
0010
0001
0100
0020
0000
0030
0100
0010
,
0100
1000
0100
0020
0030
0000
0100
0010
,
0001
0100
0010
0002
0003
0000
0100
0010
,
0100
0010
0001
1000
0100
0010
1000
0100
,
1000
0100
1000
0100
0020
0030
2000
3000
,
0200
0300
0020
0030
0002
0003
0200
0300
,
0020
0030
0200
0300
0020
0030
0200
0300
,
0020
0030
0200
0300
0020
0030
0002
0003
,
1001
0000
1001
0000
1001
0100
0000
0110
,
0000
0100
0010
1000
0100
0000
0010
0100
,
0000
0001
0100
0010
1000
0100
0010
0100
,
0000
0010
0100
0010
0001
1000
0001
0100
,
0010
0000
0100
0010
0000
0001
0100
0010
,
1000
0100
0010
0100
0010
0000
0100
1000
,
0000
0100
0010
0100
0010
0001
1000
0001
,
0000
0100
0010
0001
1000
0100
0010
0100
,
0010
0000
0001
0000
0100
0010
0100
1000
,
0100
0000
0010
0100
0010
0001
1000
0200
,
0000
0000
0300
0002
0000
0003
0010
0100
,
0000
0010
0100
1000
0100
0010
0001
0100
,
0010
0000
1000
0100
0010
0001
0100
0010
,
0100
0010
0100
0010
,
0100
0000
0010
0000
0100
0000
0000
0010
,
1000
0100
0010
1001
0000
0000
0000
0000
;

//---------------dance-single - ----------------
#NOTEDATA:;
#CHARTNAME:;
#STEPSTYPE:dance-single;
#DESCRIPTION:;
#CHARTSTYLE:;
#DIFFICULTY:Hard;
#METER:10;
#RADARVALUES:0.447346,0.680467,0.127488,0.406368,0.306768,393.000000,377.000000,16.000000,51.000000,0.000000,0.000000,0.000000,0.000000,0.000000,0.447346,0.680467,0.127488,0.406368,0.306768,393.000000,377.000000,16.000000,51.000000,0.000000,0.000000,0.000000,0.000000,0.000000;
#CREDIT:;
#DISPLAYBPM:62.000000:125.000000;
#NOTES:
// measure 0
0000
0000
0000
0000
,  // measure 1
0000
0000
0000
0000
,  // measure 2
0000
0000
0000
0000
,  // measure 3
0000
0000
0000
0000
,  // measure 4
1000
0000
0000
0000
0001
0000
0100
0010
0000
0000
1000
0000
0100
0000
0010
0001
,  // measure 5
0000
0000
0000
0000
1000
0001
1000
0000
0000
0000
0010
0000
0100
0000
0010
0100
,  // measure 6
0000
0000
0000
0000
1000
0001
1000
0000
0000
0000
0100
0000
1000
0000
0100
0000
,  // measure 7
0001
0010
0100
0000
0001
0000
1000
0000
0000
0000
0100
0000
0010
0000
0100
0000
,  // measure 8
0010
0000
0100
0010
0001
0100
0000
1000
0000
0100
0010
0001
0100
0010
1000
0100
,  // measure 9
0000
0100
0010
0001
0100
0010
0001
1000
0000
0100
0010
1000
0100
0010
0001
0100
,  // measure 10
0001
0000
1000
0001
1000
0100
0000
1000
0000
0100
0010
0001
0100
0010
0100
1000
,  // measure 11
0000
0100
0001
0100
0010
0001
1000
1001
0000
0000
1001
0000
1001
0101
1010
0110
,  // measure 12
0000
0100
0010
0100
2000
3000
0100
0020
,  // measure 13
0030
0100
0010
0001
1000
0100
0010
0002
,  // measure 14
0003
1000
0001
0100
0010
0100
1000
0100
,  // measure 15
0020
0030
0100
0020
0030
0001
1000
0002
,  // measure 16
0003
0010
0100
1000
0200
0300
0010
0200
,  // measure 17
0300
0010
0001
0100
0010
1000
0100
2000
,  // measure 18
3000
0000
0100
0000
0010
0000
0001
0000
0100
0000
0000
1000
0000
0000
0001
0000
,  // measure 19
2000
3000
0001
2000
3000
0100
0010
0100
,  // measure 20
0010
0000
0010
0100
0010
0001
1000
0200
,  // measure 21
0000
0300
0000
0200
0000
0300
0010
0200
,  // measure 22
0300
1000
0100
0010
0001
0100
0010
1000
,  // measure 23
0200
0300
0100
0010
0001
0100
0010
0100
,  // measure 24
0010
1000
0100
0010
0100
0001
1000
0100
,  // measure 25
1000
0000
0000
0000
0000
0000
0000
0000
0000
0000
0000
0000
0000
0000
0000
0000
0000
0000
0000
0000
0000
0000
0000
0000
0010
0000
0000
0000
0000
0000
0000
0000
0000
0000
0000
0000
0000
0000
0000
0000
0000
0000
0000
0000
0000
0000
0000
0000
0100
1000
0000
0000
0000
0000
0000
0000
0000
0000
0000
0000
0000
0000
0000
0000
0000
0000
0000
0000
0000
0000
0000
0000
0001
0000
0000
0000
0000
0000
0000
0000
0000
0000
0000
0000
0000
0000
0000
0000
0000
0000
0000
0000
0000
0000
0000
0000
0000
0000
0000
0000
0000
0000
0000
0000
0000
0000
0000
0000
0000
0000
0000
0000
0000
0000
0000
0000
0000
0000
0000
0000
0100
0000
0000
0000
0000
0000
0000
0000
0000
0000
0000
0000
0000
0000
0000
0000
0000
0000
0000
0000
0000
0000
0000
0000
0010
0000
0000
0000
0000
0000
0000
0000
0000
0000
0000
0000
0000
0000
0000
0000
0000
0000
0000
0000
0000
0000
0000
0000
1000
0000
0000
0000
0000
0000
0000
0000
0000
0000
0000
0000
0000
0000
0000
0000
0000
0000
0000
0000
0000
0000
0000
0000
,  // measure 26
0100
0000
0010
0000
0001
0000
0220
0000
0000
0000
0330
0000
1000
0000
0001
1000
,  // measure 27
0000
0001
1000
0000
0001
0000
2000
0000
0000
0000
3000
0000
0100
0000
0010
0100
,  // measure 28
0000
0010
0100
0000
0010
0000
2000
0000
0000
0000
3000
0000
0100
0000
0010
0100
,  // measure 29
0000
0010
0100
0000
0010
0000
0001
0000
0100
0000
0010
0000
1000
0000
0100
0000
,  // measure 30
0010
0000
0001
0000
0100
0000
0020
0000
0000
0000
0030
0000
0100
0000
0010
1000
,  // measure 31
0000
0100
0010
0000
0001
0000
2000
0000
0000
0000
3000
0000
0100
0000
0010
0100
,  // measure 32
0000
0010
0100
0000
0010
0000
0200
0000
0000
0000
0300
0000
0010
0000
0100
0001
,  // measure 33
0000
1000
0100
0000
0010
0000
0200
0000
0300
0000
0001
1000
0001
0000
0100
0000
,  // measure 34
0001
0000
0010
1000
0100
0010
0001
1000
0200
0000
0300
0010
0100
0020
0030
2000
,  // measure 35
3000
0020
0000
0000
0000
0030
1000
0002
0003
0100
0010
0001
0100
0010
0100
0020
,  // measure 36
0000
0000
0000
0030
0200
0300
0020
0030
0002
0000
0003
0100
0010
2000
3000
0200
,  // measure 37
0300
0020
0000
0000
0030
0100
0010
0002
0003
1000
0001
0100
0010
0100
0010
0001
,  // measure 38
1001
0000
0110
0000
1010
0202
0303
2002
,  // measure 39
3003
0100
0010
0100
2000
3000
0100
0020
,  // measure 40
0030
0100
0001
0100
1000
0100
0010
2000
,  // measure 41
3000
0100
0010
0001
0100
0010
1000
0100
,  // measure 42
0020
0030
0100
0020
0030
0100
0010
0001
,  // measure 43
1000
0001
1000
0001
2000
3000
0100
0020
,  // measure 44
0030
0100
0010
0100
0001
0100
1000
0200
,  // measure 45
0300
0000
0100
0000
0010
0000
0001
0000
0100
0000
0000
0100
0000
0000
1000
0000
,  // measure 46
0101
0000
0000
0000
1001
0000
0000
0000
0101
0010
0100
0010
0001
1000
0100
0010
,  // measure 47
0001
0010
0100
1000
0100
0010
0001
0200
,  // measure 48
0000
0000
0300
0200
0000
0300
0010
0200
,  // measure 49
0300
0010
0001
1000
0100
0010
0001
0100
,  // measure 50
0010
0100
1000
0100
0010
0001
0100
0010
,  // measure 51
0001
1000
0010
0100
0010
0001
1000
0100
,  // measure 52
0010
0000
0000
0000
0000
0000
0000
0000
0000
0000
0000
0000
0000
0000
0000
0000
0000
0000
0000
0000
0000
0000
0000
0000
0001
0000
0000
0000
0000
0000
0000
0000
0000
0000
0000
0000
0000
0000
0000
0000
0000
0000
0000
0000
0000
0000
0000
0000
1000
0100
0000
0000
0000
0000
0000
0000
0000
0000
0000
0000
0000
0000
0000
0000
0000
0000
0000
0000
0000
0000
0000
0000
0010
0000
0000
0000
0000
0000
0000
0000
0000
0000
0000
0000
0000
0000
0000
0000
0000
0000
0000
0000
0000
0000
0000
0000
0000
0000
0000
0000
0000
0000
0000
0000
0000
0000
0000
0000
0000
0000
0000
0000
0000
0000
0000
0000
0000
0000
0000
0000
0100
0000
0000
0000
0000
0000
0000
0000
0000
0000
0000
0000
0000
0000
0000
0000
0000
0000
0000
0000
0000
0000
0000
0000
1000
0000
0000
0000
0000
0000
0000
0000
0000
0000
0000
0000
0000
0000
0000
0000
0000
0000
0000
0000
0000
0000
0000
0000
0100
0000
0000
0000
0000
0000
0000
0000
0000
0000
0000
0000
0000
0000
0000
0000
0000
0000
0000
0000
0000
0000
0000
0000
,  // measure 53
0010
0001
1000
1001
0000
0000
0000
0000
;
