#VERSION:0.83;
#TITLE:Now;
#SUBTITLE:;
#ARTIST:핑클;
#TITLETRANSLIT:;
#SUBTITLETRANSLIT:;
#ARTISTTRANSLIT:Fin.K.L;
#GENRE:K-Pop;
#ORIGIN:;
#CREDIT:;
#BANNER:Now.png;
#BACKGROUND:Now-bg.png;
#PREVIEWVID:;
#JACKET:Now-jacket.png;
#CDIMAGE:;
#DISCIMAGE:;
#LYRICSPATH:;
#CDTITLE:Wrland Season 2.png;
#MUSIC:Now.ogg;
#OFFSET:0.003000;
#SAMPLESTART:58.980000;
#SAMPLELENGTH:12.000000;
#SELECTABLE:YES;
#DISPLAYBPM:59.000000:118.000000;
#BPMS:0.000=118.000,
148.000=59.000,
152.000=118.000,
172.000=59.000,
174.000=118.000;
#STOPS:;
#DELAYS:;
#WARPS:;
#TIMESIGNATURES:0.000=4=4;
#TICKCOUNTS:0.000=4;
#COMBOS:0.000=1;
#SPEEDS:0.000=1.000=0.000=0;
#SCROLLS:0.000=1.000;
#FAKES:;
#LABELS:0.000=Song Start;
#BGCHANGES:0.000=Now.avi=1.000=0=0=0=StretchNoLoop====,
99999=-nosongbg-=1.000=0=0=0 // don't automatically add -songbackground-
;
#KEYSOUNDS:;
#ATTACKS:
;

//---------------dance-single - ----------------
#NOTEDATA:;
#CHARTNAME:;
#STEPSTYPE:dance-single;
#DESCRIPTION:;
#CHARTSTYLE:;
#DIFFICULTY:Beginner;
#METER:1;
#RADARVALUES:0.033447,0.069654,0.007804,0.007804,0.000000,30.000000,29.000000,1.000000,1.000000,0.000000,0.000000,0.000000,0.000000,0.000000,0.033447,0.069654,0.007804,0.007804,0.000000,30.000000,29.000000,1.000000,1.000000,0.000000,0.000000,0.000000,0.000000,0.000000;
#CREDIT:;
#DISPLAYBPM:59.000000:118.000000;
#NOTES:
0000
0000
0000
0000
,
0000
0000
0000
0000
,
0000
0000
0000
0000
,
0000
0000
0000
0000
,
0000
0000
0000
0000
,
1000
0000
0000
0000
,
0000
0000
0000
0000
,
0001
0000
0000
0000
,
0000
0000
0000
0000
,
1000
0000
0000
0000
,
0000
0000
0000
0000
,
0100
0000
0000
0000
,
0000
0000
0000
0000
,
0010
0000
0000
0000
,
0000
0000
0000
0000
,
0100
0000
0000
0000
,
0000
0000
0000
0000
,
0001
0000
0000
0000
,
0000
0000
0000
0000
,
1000
0000
0000
0000
,
0000
0000
0000
0000
,
0100
0000
0000
0000
,
0000
0000
0000
0000
,
1000
0000
0000
0000
,
0000
0000
0000
0000
,
0100
0000
0000
0000
,
0000
0000
0000
0000
,
1000
0000
0000
0000
,
0000
0000
0000
0000
,
0010
0000
0000
0000
,
0000
0000
0000
0000
,
0100
0000
0000
0000
,
0000
0000
0000
0000
,
0010
0000
0000
0000
,
0000
0000
0000
0000
,
0100
0000
0000
0000
,
0000
0000
0000
0000
,
0002
0000
0003
0000
,
1000
0000
0000
0000
,
0000
0000
0000
0000
,
0001
0000
0000
0000
,
0000
0000
0000
0000
,
1000
0000
0000
0000
,
0000
0000
0100
0000
,
0000
0000
0000
0000
,
0000
0000
0010
0000
,
0000
0000
0000
0000
,
0000
0000
0100
0000
,
0000
0000
0000
0000
,
0000
0000
0010
0000
,
0000
0000
0000
0000
,
0000
0000
0100
0000
,
0000
0000
0000
0000
,
0000
0000
0100
0000
,
0000
0000
0000
0000
,
0000
0000
0010
0000
,
0000
0000
0000
0000
,
0000
0000
0010
0000
,
0000
0000
0000
0000
,
0000
0000
1001
0000
;

//---------------dance-single - ----------------
#NOTEDATA:;
#CHARTNAME:;
#STEPSTYPE:dance-single;
#DESCRIPTION:;
#CHARTSTYLE:;
#DIFFICULTY:Easy;
#METER:3;
#RADARVALUES:0.063550,0.092872,0.007804,0.015609,0.000000,57.000000,56.000000,1.000000,2.000000,0.000000,0.000000,0.000000,0.000000,0.000000,0.063550,0.092872,0.007804,0.015609,0.000000,57.000000,56.000000,1.000000,2.000000,0.000000,0.000000,0.000000,0.000000,0.000000;
#CREDIT:;
#DISPLAYBPM:59.000000:118.000000;
#NOTES:
0000
0000
0000
0000
,
0000
0000
0000
0000
,
0000
0000
0000
0000
,
0000
0000
0000
0000
,
0000
0000
0000
0000
,
1000
0000
0000
0000
,
1000
0000
0000
0000
,
0001
0000
0000
0000
,
0001
0000
0000
0000
,
0100
0000
0000
0000
,
0100
0000
0000
0000
,
0010
0000
0000
0000
,
0010
0000
0000
0000
,
0100
0000
0000
0000
,
1000
0000
0000
0000
,
0100
0000
0000
0000
,
1000
0000
0000
0000
,
0100
0000
0000
0000
,
0010
0000
0000
0000
,
0001
0000
0000
0000
,
0010
0000
0000
0000
,
0100
0000
0000
0000
,
0001
0000
0000
0000
,
1000
0000
0000
0000
,
0100
0000
0000
0000
,
1000
0000
0000
0000
,
0100
0000
0000
0000
,
0010
0000
0000
0000
,
0100
0000
0000
0000
,
0010
0000
0000
0000
,
0010
0000
0000
0000
,
0100
0000
0000
0000
,
0100
0000
0000
0000
,
0010
0000
0000
0000
,
0001
0000
0000
0000
,
1000
0000
0000
0000
,
0100
0000
0000
0000
,
0020
0000
0030
0000
,
1000
0000
0000
0000
,
0001
0000
0000
0000
,
1000
0000
0000
0000
,
0100
0000
0000
0000
,
0010
0000
0000
0000
,
0200
0300
0010
0000
,
0000
0000
1000
0000
,
0000
0000
0100
0000
,
0000
0000
0010
0000
,
0000
0000
0100
0000
,
0000
0000
0001
0000
,
0000
0000
1000
0000
,
0000
0000
0100
0000
,
0000
0000
0010
0000
,
0000
0000
0100
0000
,
0000
0000
0010
0000
,
0000
0000
0100
0000
,
0000
0000
0001
0000
,
0000
0000
1000
0000
,
0000
0000
0100
0000
,
0000
0000
1000
0000
,
0000
0000
1001
0000
;

//---------------dance-single - ----------------
#NOTEDATA:;
#CHARTNAME:;
#STEPSTYPE:dance-single;
#DESCRIPTION:;
#CHARTSTYLE:;
#DIFFICULTY:Medium;
#METER:7;
#RADARVALUES:0.365689,0.394704,0.117065,0.288760,0.039022,328.000000,313.000000,15.000000,37.000000,0.000000,0.000000,0.000000,0.000000,0.000000,0.365689,0.394704,0.117065,0.288760,0.039022,328.000000,313.000000,15.000000,37.000000,0.000000,0.000000,0.000000,0.000000,0.000000;
#CREDIT:;
#DISPLAYBPM:59.000000:118.000000;
#NOTES:
0000
0000
0000
0000
,
0000
0000
0000
0000
,
0000
0000
0000
0000
,
0000
0000
0000
0000
,
0000
0000
0000
0000
,
1000
0001
1000
1001
,
0100
0010
0100
0110
,
0100
0000
0000
0000
0010
0000
0000
0000
1000
0000
0000
0100
0000
0000
0010
0000
,
0100
0010
0100
0010
,
0001
1000
0100
1001
,
0001
0100
0010
1100
,
0010
0000
0000
0000
0001
0000
0000
0000
1000
0000
0000
0001
0000
0000
1000
0000
,
0100
0000
0010
0000
0100
0010
0100
0000
,
1000
0001
1000
0100
0000
0100
0010
0001
,
0100
0000
1000
0100
1000
0100
0020
0030
,
0100
0010
0100
0010
1000
0100
0010
0001
,
0200
0300
0010
0000
0100
0000
1000
0000
,
0100
0010
0100
0010
0100
0010
0001
1000
,
0002
0003
0000
1000
0001
1000
0001
0000
,
0100
0010
0100
1000
0100
0000
1000
0100
,
0020
0030
0100
0010
0001
0010
0100
1000
,
0100
0000
0100
0010
0000
1000
0000
0100
,
0010
0000
0100
0000
0100
0010
1000
0100
,
0010
0000
0100
0010
0001
0000
1000
0001
,
1000
0000
0100
0010
0000
0100
0000
0010
,
1000
0000
0100
0010
0000
0100
0010
0001
,
0000
0000
0100
0010
1000
0100
0010
0200
,
0300
0000
0100
0010
0001
1000
0001
0100
,
0020
0030
0100
0010
0100
1000
0100
0000
,
0100
0010
0100
0010
2000
3000
0100
0010
,
0001
0000
0000
0100
0000
0000
1000
0000
0200
0000
0300
0000
0100
0000
0000
0000
,
0010
1000
0001
1000
0100
0010
0100
2000
,
3000
0000
1000
0100
0010
0001
2002
3003
,
0100
0010
1000
0100
0020
0030
0100
0000
,
0010
0000
0000
0100
0000
0000
0010
0000
1000
0000
0100
0000
0010
0000
0200
0000
,
0300
0100
0010
0100
,
1000
0100
0001
1000
0000
0001
1000
0000
,
1001
0000
0001
1000
0200
0300
0100
0020
0000
0000
0030
0000
0200
0300
0020
0030
,
1001
0000
0100
0010
1000
0000
0100
0020
,
0000
0030
0200
0300
0020
0030
0002
0003
,
1000
0001
1000
0001
0100
0010
1000
0100
,
0020
0000
0000
0030
0100
0010
1000
0100
,
0020
0000
0000
0030
0100
0010
0001
0100
,
2002
3003
1000
0100
0010
0100
0010
0001
,
2000
0000
3000
0000
1000
0000
0100
0000
0020
0000
0030
1000
0000
0000
0100
0000
,
0020
0030
2002
3003
0100
0010
0100
0010
,
0001
0100
0010
2000
0000
3000
0100
0010
,
0001
1000
2002
3003
0100
0010
0100
1000
,
0200
0000
0000
0000
0000
0000
0300
0000
0100
0000
0000
0100
0000
0000
1000
0000
,
0100
0010
0100
0020
0000
0030
1000
0000
,
0100
0000
0010
0000
0100
0010
0100
0020
,
0030
0001
2000
3000
0100
0010
0100
0010
,
0001
0000
1001
0000
0100
1000
0100
1000
,
0100
0000
0110
0000
0001
0100
0001
0100
,
1000
0000
0000
0001
0000
0000
0010
0000
0100
0000
0000
0000
0010
0000
0000
0000
,
0100
0010
1000
0000
0100
0010
0001
0100
,
0010
0000
0110
0000
0001
1000
0001
1000
,
0001
0000
1001
0000
0100
0010
0100
0010
,
0100
0000
0000
0100
0000
0000
0010
0000
0100
0000
0000
0000
0100
0000
0000
0000
,
0001
1000
0001
0000
1001
0000
0000
0000
;

//---------------dance-single - ----------------
#NOTEDATA:;
#CHARTNAME:;
#STEPSTYPE:dance-single;
#DESCRIPTION:;
#CHARTSTYLE:;
#DIFFICULTY:Hard;
#METER:10;
#RADARVALUES:0.433698,0.557229,0.195108,0.507281,0.117065,389.000000,364.000000,25.000000,65.000000,0.000000,0.000000,0.000000,0.000000,0.000000,0.433698,0.557229,0.195108,0.507281,0.117065,389.000000,364.000000,25.000000,65.000000,0.000000,0.000000,0.000000,0.000000,0.000000;
#CREDIT:;
#DISPLAYBPM:59.000000:118.000000;
#NOTES:
// measure 0
0000
0000
0000
0000
,  // measure 1
0000
0000
0000
0000
,  // measure 2
0000
0000
0000
0000
,  // measure 3
0000
0000
0000
0000
,  // measure 4
0000
0000
0000
0000
,  // measure 5
1000
0001
1000
0001
1000
0000
1001
0000
,  // measure 6
0100
0010
0100
0010
0100
0000
0110
0000
,  // measure 7
1000
0000
0100
0000
0010
0000
0100
0000
0010
0000
0000
0100
0000
0000
0010
0000
,  // measure 8
0001
0000
1000
0100
0010
0001
1001
0000
,  // measure 9
0100
0010
0100
1000
0100
0000
0010
0000
,  // measure 10
0100
0010
1000
0010
0001
0000
1001
0000
,  // measure 11
0100
0000
1000
0000
0100
0000
0010
0000
0100
0000
0000
0010
0000
0000
0100
0000
,  // measure 12
0010
0000
0000
0000
0000
0000
0000
0000
0000
0000
0000
0000
0000
0000
0000
0000
1000
0000
0000
0000
0000
0000
0000
0000
0001
0000
0000
0000
0000
0000
0000
0000
0000
0000
0000
0000
0000
0000
0000
0000
0000
0000
0000
0000
0000
0000
0000
0000
0100
0000
0000
0000
0000
0000
0000
0000
0000
0000
0000
0000
0000
0000
0000
0000
0000
0000
0000
0000
0000
0000
0000
0000
0010
0000
0000
0000
0000
0000
0001
0000
0000
0000
0000
0000
0010
0000
0000
0000
0000
0000
0001
0000
0000
0000
0000
0000
0010
0000
0000
0000
0000
0000
0000
0000
0000
0000
0000
0000
0000
0000
0000
0000
0000
0000
0000
0000
0000
0000
0000
0000
1100
0000
0000
0000
0000
0000
0000
0000
0000
0000
0000
0000
0000
0000
0000
0000
0000
0000
0000
0000
0000
0000
0000
0000
1001
0000
0000
0000
0000
0000
0000
0000
0000
0000
0000
0000
0000
0000
0000
0000
0000
0000
0000
0000
0000
0000
0000
0000
0000
0000
0000
0000
0000
0000
0000
0000
0000
0000
0000
0000
0000
0000
0000
0000
0000
0000
0000
0000
0000
0000
0000
0000
,  // measure 13
0100
0010
0100
0010
0000
1000
0100
0010
,  // measure 14
0200
0300
0001
0010
0001
1000
2002
3003
,  // measure 15
0100
1000
0100
1000
0200
0300
0001
0100
,  // measure 16
0020
0030
0100
0010
2002
3003
2002
3003
,  // measure 17
0100
0010
0100
1000
0100
0010
0001
0100
,  // measure 18
0020
0030
0100
0010
1000
0010
2002
3003
,  // measure 19
0100
1000
0100
1000
0200
0300
0100
0010
,  // measure 20
0002
0003
1000
0001
1000
0001
1001
0100
,  // measure 21
2000
3000
0100
2000
3000
0200
0300
0010
,  // measure 22
0200
0300
0100
0010
0001
0100
0010
2000
,  // measure 23
3000
0000
1000
0100
2000
3000
0100
0010
,  // measure 24
2000
3000
0100
0020
0030
0200
0300
0001
,  // measure 25
2000
3000
0001
2000
3000
0100
1000
0200
,  // measure 26
0300
0000
0100
0010
0100
0010
0001
1000
,  // measure 27
0020
0030
0100
0010
1000
0100
0010
0001
,  // measure 28
2000
0000
0000
0000
3000
0000
0001
0000
0000
0000
0000
0000
1000
0000
0000
0000
0100
0000
0000
0000
0010
0000
0000
0000
0110
0010
0100
0010
0100
0010
0100
0010
,  // measure 29
0110
1000
0100
0010
0200
0300
0100
0010
,  // measure 30
0200
0000
0300
1000
0000
0000
0100
0000
0020
0000
0030
0000
0200
0000
0300
0000
,  // measure 31
1001
0100
1000
0100
0010
0100
0010
0001
,  // measure 32
2000
3000
0010
0100
0010
0001
2002
3003
,  // measure 33
0100
1000
0100
0010
0200
0300
0020
0030
,  // measure 34
0100
0000
0000
1000
0000
0000
0100
0000
0010
0000
0001
0000
0100
0000
0020
0000
,  // measure 35
0000
0030
0200
0300
2000
3000
0200
0300
,  // measure 36
0001
1000
0010
0002
0003
0100
0020
0030
,  // measure 37
0100
0000
0001
1000
0002
0003
0100
0010
0200
0000
0000
0300
0200
0300
0020
0030
,  // measure 38
0001
0000
1000
0100
0020
0030
0100
0010
,  // measure 39
0100
0000
0000
0010
0000
0000
1000
0000
0000
0100
0000
0000
0010
0000
0100
0010
0000
0000
1000
0000
0001
0000
0100
0000
,  // measure 40
0010
0001
0100
1000
0100
0010
0100
0010
,  // measure 41
0200
0300
0010
1000
0100
0010
0001
0100
,  // measure 42
0020
0030
1000
0001
1000
0001
0100
0010
,  // measure 43
2002
0000
0000
3003
1001
0100
0010
0100
,  // measure 44
0020
0000
0030
0000
1000
0000
0100
0000
0002
0000
0003
1000
0000
0000
0001
0000
,  // measure 45
2000
3000
0001
0000
1001
0010
1000
0100
,  // measure 46
0010
0100
0010
0002
0000
0003
1000
0001
,  // measure 47
1000
0100
2000
3000
1001
0100
0010
0100
,  // measure 48
2000
0000
3000
0000
1010
0000
0000
0000
0002
0000
0003
1000
0000
0000
0010
0000
,  // measure 49
1000
0100
0010
2000
0000
3000
0200
0300
,  // measure 50
0020
0030
0200
0300
0010
0100
0010
0002
,  // measure 51
0003
1000
0002
0003
1000
0100
0010
0100
,  // measure 52
0010
0000
1001
0000
0100
0010
0100
0010
,  // measure 53
0001
0000
0110
0000
1000
0100
0010
0001
,  // measure 54
1000
0000
0000
0001
0000
0000
1000
0000
0001
0000
0100
1000
0010
0000
0100
0000
,  // measure 55
1000
0001
1000
0000
0100
0000
0000
0000
0010
0000
0100
0000
0010
0000
0010
0000
,  // measure 56
1000
0000
1001
0000
0100
0010
1000
0100
,  // measure 57
1000
0000
1100
0000
0100
0010
0001
0100
,  // measure 58
0010
0000
0000
0000
0000
0000
0000
0000
0000
0000
0000
0000
0000
0000
0000
0000
0000
0000
0000
0000
0000
0000
0000
0000
0000
0000
0000
0000
0000
0000
0000
0000
0000
0000
0000
0000
0100
0000
0000
0000
0000
0000
0000
0000
0000
0000
0000
0000
0000
0000
0000
0000
0000
0000
0000
0000
0000
0000
0000
0000
0000
0000
0000
0000
0000
0000
0000
0000
0000
0000
0000
0000
1000
0000
0000
0000
0000
0000
0000
0000
0000
0000
0000
0000
0000
0000
0000
0000
0000
0000
0000
0000
0000
0000
0000
0000
0100
0000
0000
0000
0000
0000
0000
0000
0000
0000
0000
0000
0000
0000
0000
0000
0010
0000
0000
0000
0000
0000
0000
0000
1000
0000
0000
0000
0000
0000
0000
0000
0000
0000
0000
0000
0000
0000
0000
0000
0000
0000
0000
0000
0000
0000
0000
0000
0100
0000
0000
0000
0000
0000
0000
0000
0000
0000
0000
0000
0000
0000
0000
0000
0000
0000
0000
0000
0000
0000
0000
0000
0010
0000
0000
0000
0000
0000
0100
0000
0000
0000
0000
0000
0010
0000
0000
0000
0000
0000
0100
0000
0000
0000
0000
0000
,  // measure 59
0010
0100
0010
0000
1001
0000
0000
0000
;
