#TITLE:NoNoNo;
#SUBTITLE:;
#ARTIST:에이핑크;
#TITLETRANSLIT:;
#SUBTITLETRANSLIT:;
#ARTISTTRANSLIT:Apink;
#GENRE:K-Pop;
#CREDIT:;
#BANNER:NoNoNo.png;
#BACKGROUND:NoNoNo-bg.png;
#LYRICSPATH:;
#CDTITLE:Wrland Season 2.png;
#MUSIC:NoNoNo.ogg;
#OFFSET:-6.845000;
#SAMPLESTART:90.053001;
#SAMPLELENGTH:12.000000;
#SELECTABLE:YES;
#DISPLAYBPM:120.000000;
#BPMS:0.000000=106.000000
;
#STOPS:
;
#BGCHANGES:0.000=NoNoNo.avi=1.000=0=0=0=StretchNoLoop====,
99999=-nosongbg-=1.000=0=0=0 // don't automatically add -songbackground-
;
#KEYSOUNDS:;
#ATTACKS:;

//---------------dance-single - ----------------
#NOTES:
     dance-single:
     :
     Beginner:
     1:
     0.065356,0.122467,0.042230,0.014077,0.000000,65.000000,59.000000,6.000000,2.000000,0.000000,0.000000,0.065356,0.122467,0.042230,0.014077,0.000000,65.000000,59.000000,6.000000,2.000000,0.000000,0.000000:
0000
0000
0000
0000
,
1000
0000
0000
0000
,
0100
0000
0000
0000
,
0010
0000
0000
0000
,
0100
0000
0000
0000
,
0001
0000
0000
0000
,
1000
0000
0000
0000
,
0001
0000
0000
0000
,
0100
0000
0000
0000
,
1001
0000
0000
0000
,
0100
0000
0000
0000
,
0010
0000
0000
0000
,
1000
0000
0000
0000
,
0100
0000
0000
0000
,
0010
0000
0000
0000
,
0001
0000
0000
0000
,
1000
0000
0000
0000
,
0100
0000
0000
0000
,
0010
0000
0000
0000
,
1000
0000
0000
0000
,
0001
0000
0000
0000
,
0100
0000
0000
0000
,
0010
0000
0000
0000
,
1000
0000
0000
0000
,
0100
0000
0000
0000
,
0010
0000
0000
0000
,
0010
0000
0000
0000
,
1000
0000
0000
0000
,
0001
0000
0000
0000
,
1001
0000
0100
0000
,
0010
0000
0001
0000
,
1000
0000
0000
0000
,
0001
0000
0000
0000
,
0100
0000
0000
0000
,
0010
0000
0000
0000
,
0100
0000
0000
0000
,
0001
0000
0000
0000
,
1001
0000
0000
0000
,
0010
0000
0000
0000
,
0010
0000
0000
0000
,
1000
0000
0000
0000
,
0100
0000
0000
0000
,
0010
0000
0000
0000
,
1000
0000
0000
0000
,
0100
0000
0000
0000
,
0001
0000
0000
0000
,
2002
3003
0000
0000
,
0000
0000
0000
0000
,
0100
0000
0000
0000
,
0010
0000
0000
0000
,
1000
0000
0000
0000
,
0100
0000
0000
0000
,
0010
0000
0000
0000
,
1000
0000
0000
0000
,
0001
0000
0000
0000
,
1001
0000
0000
0000
,
0100
0000
0000
0000
,
0010
0000
0000
0000
,
1001
0000
0000
0000
;

//---------------dance-single - ----------------
#NOTES:
     dance-single:
     :
     Easy:
     3:
     0.120657,0.142878,0.049268,0.014077,0.000000,120.000000,113.000000,7.000000,2.000000,0.000000,0.000000,0.120657,0.142878,0.049268,0.014077,0.000000,120.000000,113.000000,7.000000,2.000000,0.000000,0.000000:
0000
0000
0000
0000
,
1000
0000
0100
0000
,
0010
0000
0100
0000
,
0010
0000
0001
0000
,
0100
0000
0010
0000
,
1000
0000
1000
0000
,
0100
0000
0010
0000
,
0100
0000
0010
0000
,
1001
0000
0100
0000
,
0110
0000
0001
0000
,
1000
0000
0100
0000
,
0010
0000
0100
0000
,
0010
0000
1000
0000
,
0010
0000
0001
0000
,
0001
0000
0100
0000
,
0010
0000
0100
0000
,
0010
0000
0100
0000
,
1000
0000
0100
0000
,
0010
0000
0001
0000
,
0100
0000
0100
0000
,
1000
0000
0100
0000
,
0100
0000
0010
0000
,
0010
0000
0010
0000
,
0100
0000
0100
0000
,
1000
0000
0100
0000
,
0010
0000
0100
0000
,
1000
0000
0100
0000
,
0010
0000
1000
0000
,
0001
0000
0100
0000
,
0110
0000
1000
0000
,
0010
0000
0100
0000
,
0001
0000
0100
0000
,
1000
0000
0100
0000
,
0010
0000
0100
0000
,
1000
0000
0001
0000
,
0100
0000
0001
0000
,
1000
0000
0100
0000
,
1001
0000
0100
0000
,
0010
0000
0100
0000
,
1000
0000
0100
0000
,
0010
0000
0100
0000
,
0001
0000
0001
0000
,
1000
0000
1000
0000
,
0100
0000
0010
0000
,
0100
0000
0010
0000
,
1000
0000
0001
1000
,
2002
0000
3003
0000
,
0000
0000
0000
0000
,
1000
0000
0100
0000
,
0010
0000
0001
0000
,
0100
0000
1000
0000
,
0100
0000
0010
0000
,
0001
0000
0100
0000
,
1000
0000
1000
0000
,
0100
0000
0010
0000
,
0100
0000
0010
0000
,
1001
0000
0100
0000
,
0010
0000
0100
0000
,
1001
0000
0000
0000
;

//---------------dance-single - ----------------
#NOTES:
     dance-single:
     :
     Medium:
     5:
     0.357950,0.346990,0.119652,0.049268,0.000000,356.000000,339.000000,17.000000,7.000000,0.000000,0.000000,0.357950,0.346990,0.119652,0.049268,0.000000,356.000000,339.000000,17.000000,7.000000,0.000000,0.000000:
0000
0000
0000
0000
,
1000
0000
0100
1000
0010
0000
0001
0000
,
1000
0000
0100
1000
0100
0000
0011
0000
,
0100
0100
1000
0100
0011
0000
0100
0000
,
1000
0001
0100
0010
,
0100
0010
0100
0100
1000
0000
0100
0000
,
0010
0001
1000
0100
0001
0000
1001
0000
,
0100
0000
0010
0000
1000
0100
0010
0001
,
1001
0000
0100
0000
0010
0100
1000
0000
,
1000
0000
0100
0000
0010
0100
0010
0000
,
1000
0000
0100
0000
0001
0100
1000
0000
,
0001
0000
0100
0000
0010
1000
0100
0000
,
0010
0000
0100
0000
0001
0100
0010
1001
,
0100
0000
0100
0000
0010
1000
0010
0100
,
0000
0000
0001
0100
0010
1000
0100
0000
,
0100
0010
0100
1000
0000
0100
0010
0100
,
1000
0010
0100
0001
0000
0100
0010
1000
,
0100
0000
0100
0010
0100
1000
0100
0001
,
0000
0100
0010
1000
0000
0100
0010
2000
,
3000
0001
1000
0100
0010
0100
1000
0001
,
1001
0000
0100
0010
0100
1000
0100
0001
,
1001
0000
0100
0020
0030
0100
1000
0100
,
0010
0001
0100
1000
0010
0100
2000
3000
,
0010
0000
0100
1000
0100
0010
0001
0100
,
0100
1000
0100
0010
0001
0100
1000
0001
,
1001
0000
0100
0010
1000
0100
0010
0100
,
1000
0100
0010
0001
0100
2000
3000
0000
,
0200
0300
0010
0100
1000
0100
0001
0100
,
0010
0000
1000
0000
0100
0001
0000
0000
,
0100
1000
0100
0001
0100
0000
0010
1000
,
0100
0000
0010
0100
0010
0000
0001
0000
,
0100
1000
0100
0010
0001
0000
1001
0000
,
0100
0010
1000
0100
0010
1000
0100
0000
,
0100
0010
0001
0100
1000
0000
1001
0000
,
0100
0010
0100
0100
1000
0000
0100
0000
,
0001
0000
0100
0000
0010
1000
0100
0010
,
0001
0000
1000
0000
0001
1000
0001
0000
,
0001
0000
1000
0000
0100
0010
1000
0010
,
0100
0000
0001
0000
0100
0010
1000
0010
,
0100
0000
0001
0000
0100
0010
1000
0000
,
1010
0100
0001
0101
0000
1000
0010
0100
,
0010
0100
0010
1000
0000
1000
0010
0100
,
0010
0100
0001
1000
0000
0100
0001
1000
,
0010
0100
0010
0000
0100
0010
1000
0000
,
0100
0001
1000
0010
0100
0001
0001
0000
,
0100
0010
1000
0010
0100
0000
0001
0100
,
2002
0000
0000
0000
,
3003
0000
0000
0000
0000
0000
0100
0010
,
0101
0000
1000
0010
0100
0000
0001
1000
,
0010
0000
0100
0010
1000
0000
0100
0010
,
0100
0010
1000
0010
1000
0000
0100
0010
,
0100
0010
1000
0001
0100
0000
0010
0000
,
0100
0010
1000
0010
0100
0000
1001
0000
,
0100
0010
1000
0010
0100
0000
0001
0000
,
0100
0001
1000
0010
0100
0001
1000
0001
,
1001
0000
0100
0000
0010
0100
0010
0000
,
1000
0000
0100
0000
0010
0100
0010
0000
,
0100
0000
0001
0000
0100
0010
1000
0100
,
1001
0000
0000
0000
;

//---------------dance-single - ----------------
#NOTES:
     dance-single:
     :
     Hard:
     12:
     0.444421,0.514678,0.168920,0.401185,0.235784,442.000000,418.000000,24.000000,57.000000,0.000000,0.000000,0.444421,0.514678,0.168920,0.401185,0.235784,442.000000,418.000000,24.000000,57.000000,0.000000,0.000000:
// measure 0
0000
0000
0000
0000
0000
0000
0000
0000
0000
0000
0000
0000
0100
0010
1000
0010
,  // measure 1
0002
0000
0003
0000
0100
0000
0001
0000
2002
0000
3003
0000
0100
0010
1000
0010
,  // measure 2
0200
0000
0300
0000
0001
0000
0100
0000
2020
0000
3030
0000
0100
0000
0001
1000
,  // measure 3
0001
0100
0001
1000
0020
0030
0100
0010
,  // measure 4
1000
0000
0010
0000
0100
0000
0100
0001
0000
2000
0000
3000
0010
0000
0000
0000
,  // measure 5
0100
1000
0010
1000
0010
0000
0010
0000
0200
0000
0300
0000
0010
0000
0100
0010
,  // measure 6
1000
0100
1000
0001
0100
0000
1000
0000
0020
0000
0030
0000
0100
0000
0000
0000
,  // measure 7
0100
0010
1000
0100
0010
0001
1000
0100
,  // measure 8
0200
0000
0300
0000
0020
0000
0030
0000
0100
0010
1000
0100
2002
0000
3003
0000
,  // measure 9
0100
0000
0000
0000
0010
0000
0000
0100
0010
0000
1000
0000
0100
0000
0010
0000
,  // measure 10
0002
0000
0003
0000
0200
0000
0300
0010
1000
0000
0100
0000
0010
0000
0001
0000
,  // measure 11
2002
0000
3003
0000
0200
0000
0300
0010
0100
0000
1000
0000
0100
0000
0010
0000
,  // measure 12
0002
0000
0003
1000
0020
0000
0030
0000
0100
1000
0010
0001
2000
0000
3000
0000
,  // measure 13
1001
0000
0100
0010
0100
1000
0100
0020
,  // measure 14
0030
0000
0000
0000
0100
1000
0010
0001
0100
0000
1000
0000
0020
0000
0030
0000
,  // measure 15
0100
0010
1000
0010
0000
0100
0001
1000
,  // measure 16
0010
0100
0010
0100
0000
0100
0010
1000
,  // measure 17
1001
0000
0100
0010
1000
0010
0100
0002
,  // measure 18
0003
0100
0001
2000
3000
0200
0300
2000
,  // measure 19
3000
0010
0100
0010
1000
0001
0100
0010
,  // measure 20
1001
0000
0100
0010
1000
0100
0010
0001
,  // measure 21
0100
0000
0000
0000
1000
0000
0000
0100
0000
0000
0010
0000
1000
0000
0100
0000
,  // measure 22
0010
0000
0001
0000
0100
0000
0010
1000
0020
0000
0030
0000
0100
0000
0010
0000
,  // measure 23
1000
0000
0001
0000
0100
0000
0010
0100
0000
0100
0000
0000
1000
0000
0100
0000
,  // measure 24
0010
0000
0001
0000
0010
1000
0100
0000
0100
0000
0000
0000
0010
0000
0000
0000
,  // measure 25
0100
0010
1000
0100
0010
0001
0100
0010
,  // measure 26
1001
0000
0000
0010
0100
0000
1000
0010
0100
0000
1000
0000
0100
0000
0010
0000
,  // measure 27
1001
0000
0000
0000
0100
0000
0000
0010
0100
0000
0010
0000
1000
0000
0100
0000
,  // measure 28
0010
0000
0000
0000
0001
0000
0000
0000
0100
1000
0010
0001
1000
0100
0010
0001
,  // measure 29
0200
0000
0300
0000
0010
0000
1000
0000
1001
0000
0000
0000
0100
0001
0010
1000
,  // measure 30
0200
0000
0000
0300
0010
0000
0010
0000
2002
0000
3003
0000
0100
0000
0010
1000
,  // measure 31
0100
0010
0001
0100
1000
0000
0100
0010
,  // measure 32
1000
0000
0010
0000
0100
0000
0001
1000
0000
0001
0000
0000
0100
0000
0000
0000
,  // measure 33
0010
0000
0100
0000
0010
0000
1000
0000
1010
0000
0000
0000
0100
0000
0010
0100
,  // measure 34
0010
1000
0010
0100
0001
0000
0100
0000
,  // measure 35
0010
0100
0010
1000
0010
0100
0010
0010
,  // measure 36
2020
0000
3030
0000
0200
0000
0300
0000
0010
0100
0010
0100
0020
0000
0030
0000
,  // measure 37
0220
0330
0000
0001
0100
0010
1000
0010
,  // measure 38
0100
0001
1000
0010
0100
0010
0010
0100
,  // measure 39
2000
3000
0100
0010
0100
0001
1000
0010
,  // measure 40
1010
0010
0100
0002
0003
0020
0030
0000
,  // measure 41
0100
0010
1000
0010
0000
0200
0300
0000
,  // measure 42
0010
0000
0100
0000
1000
0000
0100
0000
1000
0100
0020
0000
0030
0000
0000
0000
,  // measure 43
0100
0000
0010
0000
1000
0000
0100
0010
0100
0000
1000
0000
0100
0000
0000
0000
,  // measure 44
0011
0000
0100
0000
0010
0000
0001
1000
0100
0000
0010
0000
0100
0000
1000
0010
,  // measure 45
0100
0000
0010
0000
1000
0000
0010
0000
0100
0000
0010
0100
1001
0100
0010
0100
,  // measure 46
2002
0000
0000
0000
,  // measure 47
0000
0000
0000
0000
0000
0000
0000
0000
0000
0000
3003
0000
0100
0010
0100
0010
,  // measure 48
0100
0000
0000
0000
0100
0000
1000
0000
1001
0000
0000
0000
0100
0010
0000
0100
,  // measure 49
0110
0000
0000
0000
1000
0000
0100
0000
0010
0000
0000
0100
0000
0000
0010
1000
,  // measure 50
0100
0000
0010
0000
0001
0000
0100
0010
0000
0000
0000
0000
1000
0000
0100
0000
,  // measure 51
0010
0000
0100
0000
0010
0100
0000
0010
0200
0000
0300
0000
2000
0000
3000
0000
,  // measure 52
0100
0010
0100
0010
0100
0000
0010
0000
2000
0000
3000
0000
0001
0000
1000
0001
,  // measure 53
1000
0100
0010
1001
0200
0300
2002
3003
,  // measure 54
0100
0000
0010
0000
0010
1000
0100
0000
0010
0000
0100
0000
0001
0000
1000
0010
,  // measure 55
0200
0000
0300
0000
1010
0000
0000
0000
0001
0100
0001
0100
0002
0000
0003
0000
,  // measure 56
0200
0000
0300
0000
0010
0000
0000
1000
0010
0000
0100
0000
0010
0000
0100
0000
,  // measure 57
0001
0000
0000
0000
0100
0000
0000
0010
1000
0000
0010
0000
0100
0000
0001
0000
,  // measure 58
2002
0000
3003
0000
;
