#TITLE:Me Haces Falta;
#SUBTITLE:;
#ARTIST:Jennifer Lopez;
#TITLETRANSLIT:;
#SUBTITLETRANSLIT:;
#ARTISTTRANSLIT:;
#GENRE:Latin;
#CREDIT:;
#BANNER:Me Haces Falta.png;
#BACKGROUND:Me Haces Falta-bg.png;
#JACKET:Me Haces Falta-jacket.png;
#LYRICSPATH:;
#CDTITLE:Wrland Season 2.png;
#MUSIC:Me Haces Falta.ogg;
#OFFSET:-0.054000;
#SAMPLESTART:63.377998;
#SAMPLELENGTH:12.000000;
#SELECTABLE:YES;
#DISPLAYBPM:40.000000:80.000000;
#BPMS:0.000000=80.000000
,2.000000=79.000000
,3.000000=76.000000
,8.000000=80.000000
,10.000000=76.000000
,12.000000=79.000000
,16.000000=80.000000
,116.000000=40.000000
,124.000000=80.000000
,140.000000=40.000000
;
#STOPS:
;
#BGCHANGES:0.000=Me Haces Falta.avi=1.000=0=0=0=StretchNoLoop====,
99999=-nosongbg-=1.000=0=0=0 // don't automatically add -songbackground-
;
#KEYSOUNDS:;
#ATTACKS:;

//---------------dance-single - ----------------
#NOTES:
     dance-single:
     :
     Beginner:
     1:
     0.037540,0.069247,0.000000,0.000000,0.000000,37.000000,37.000000,0.000000,0.000000,0.000000,0.000000,0.037540,0.069247,0.000000,0.000000,0.000000,37.000000,37.000000,0.000000,0.000000,0.000000,0.000000:
0000
0000
0000
0000
,
0000
0000
0000
0000
,
0000
0000
0000
0000
,
0000
0000
0000
0000
,
0000
0000
0000
0000
,
0000
0000
0000
0000
,
0000
0000
0000
0000
,
0000
0000
0000
0000
,
1000
0000
0000
0000
,
1000
0000
0000
0000
,
0001
0000
0000
0000
,
0001
0000
0000
0000
,
1000
0000
0000
0000
,
0100
0000
0000
0000
,
1000
0000
0000
0000
,
0100
0000
0000
0000
,
0010
0000
0000
0000
,
0100
0000
0000
0000
,
0010
0000
0000
0000
,
0100
0000
0000
0000
,
0000
0000
0000
0000
,
1000
0000
0000
0000
,
0100
0000
0000
0000
,
0010
0000
0000
0000
,
0100
0000
0000
0000
,
0001
0000
0000
0000
,
1000
0000
0000
0000
,
0001
0000
0000
0000
,
1000
0000
0000
0000
,
0100
0000
0010
0000
,
0100
0000
1000
0000
,
0001
0000
0000
0000
,
1000
0000
0000
0000
,
0001
0000
0000
0000
,
0100
0000
0000
0000
,
0010
0000
0010
0000
,
0100
0000
0100
0000
,
0001
0000
1000
0000
,
0001
0000
1000
0000
,
0001
0000
0000
0000
;

//---------------dance-single - ----------------
#NOTES:
     dance-single:
     :
     Easy:
     3:
     0.076095,0.124644,0.000000,0.000000,0.000000,75.000000,75.000000,0.000000,0.000000,0.000000,0.000000,0.076095,0.124644,0.000000,0.000000,0.000000,75.000000,75.000000,0.000000,0.000000,0.000000,0.000000:
0000
0000
0000
0000
,
0000
0000
0000
0000
,
0000
0000
0000
0000
,
0000
0000
0000
0000
,
0000
0000
0000
0000
,
0000
0000
0000
0000
,
0000
0000
0000
0000
,
0000
0000
0000
0000
,
0100
0000
0010
0000
,
0100
0000
0010
0000
,
0001
0000
1000
0000
,
0001
0000
1000
0000
,
0100
0000
0010
0000
,
0100
0000
0010
0000
,
0001
0000
1000
0000
,
0001
0000
1000
0000
,
0100
0000
0100
0000
,
0010
0000
0010
0000
,
0100
0000
0100
0000
,
1000
0000
0001
0000
,
1000
0000
0001
0000
,
0100
0000
0010
0000
,
0100
0000
1000
0000
,
0100
0000
0010
0000
,
0001
0000
0100
0000
,
0010
0000
1000
0000
,
0100
0000
0010
0000
,
0001
0000
0100
0000
,
1000
0000
0100
0000
,
0010
0100
0001
1000
,
0100
0010
0100
0010
,
0100
0000
1000
0000
,
0100
0000
1000
0000
,
0100
0000
0010
0000
,
0100
0000
0010
0000
,
0001
1000
0001
1000
,
0100
0010
0100
0010
,
1000
0001
1000
0100
,
0010
0001
1000
0100
,
0001
0000
0000
0000
;

//---------------dance-single - ----------------
#NOTES:
     dance-single:
     :
     Medium:
     6:
     0.175526,0.262716,0.000000,0.170453,0.188209,173.000000,173.000000,0.000000,24.000000,0.000000,0.000000,0.175526,0.262716,0.000000,0.170453,0.188209,173.000000,173.000000,0.000000,24.000000,0.000000,0.000000:
0000
0000
0000
0000
,
0000
0000
0000
0000
,
0000
0000
0000
0000
,
0000
0000
0000
0000
,
0000
0000
0000
0000
,
0000
0000
0000
0000
,
0000
0000
0000
0000
,
0000
0000
0000
0000
,
1000
0100
0010
0100
,
0010
0001
1000
0100
,
0010
0100
0010
0001
,
0100
0010
0100
1000
,
0100
0010
0100
0010
,
0001
1000
0100
0010
,
0100
0010
0001
1000
,
0100
0010
0100
0010
,
0001
0000
0000
0000
0000
0000
1000
0002
0000
0000
0000
0000
0003
0000
0000
0000
,
0100
0000
0000
0000
0000
0010
0000
2000
0000
0000
0000
0000
3000
0000
0000
0000
,
0100
0000
0000
0000
0000
0000
0100
0020
0000
0000
0000
0000
0030
0000
0000
0000
,
0001
0000
0000
0000
0000
0000
1000
0002
0000
0000
0000
0000
0003
0000
0000
0000
,
2000
3000
0002
0003
,
0100
0000
0100
1000
0000
0100
0020
0000
0030
0000
0200
0000
0000
0000
0300
0000
,
1000
0000
0100
0010
0000
0100
0020
0000
0030
0000
0002
0000
0000
0000
0003
0000
,
0100
0000
0010
0100
0000
0010
0200
0000
0300
0000
1000
0000
0100
0000
0020
0000
,
0030
0100
0010
0001
0100
0010
0100
0010
,
0100
0000
0010
0100
0000
0010
0002
0000
0003
0000
0200
0000
0000
0000
0300
0000
,
0000
0000
1000
0100
0000
0010
0002
0000
0003
0000
2000
0000
0000
0000
3000
0000
,
0100
0000
0010
0100
0000
0010
0002
0000
0003
0000
0100
0000
0010
0000
0200
0000
,
0300
1000
0100
0010
0100
0001
0100
1000
,
0010
0000
0000
1000
0000
0100
0000
0000
0010
0000
0000
0001
0000
1000
0000
0000
,
0010
0000
0000
1000
0000
0000
0001
1000
0000
0000
0100
0010
1000
0100
1000
0100
,
0010
0000
1000
0001
0000
0100
0020
0000
0030
0000
0002
0000
0000
0000
0003
0000
,
1000
0000
0001
1000
0000
0100
0020
0000
0030
0000
0200
0000
0000
0000
0300
0000
,
0100
0000
0010
0100
0000
0010
0200
0000
0300
0000
1000
0000
0100
0000
0002
0000
,
0003
0100
0010
0100
1000
0100
0001
0100
,
0010
0000
0000
0100
0000
0010
0000
0000
1000
0000
0000
0001
0000
1000
0000
0000
,
0000
0001
0000
1000
0000
0100
0010
0100
0000
0010
0001
0100
1000
0100
0010
0100
,
0010
0000
0000
1000
0000
0001
0000
0000
0000
1000
0000
0001
0000
1000
0000
0000
,
0010
0000
0000
1000
0000
0000
0000
0100
0000
0000
0000
0000
0010
0100
0010
0100
;

//---------------dance-single - ----------------
#NOTES:
     dance-single:
     :
     Hard:
     9:
     0.387578,0.457028,0.007102,0.241476,0.639200,382.000000,381.000000,1.000000,34.000000,0.000000,0.000000,0.387578,0.457028,0.007102,0.241476,0.639200,382.000000,381.000000,1.000000,34.000000,0.000000,0.000000:
// measure 0
0000
0000
0000
0000
,  // measure 1
0000
0000
0000
0000
,  // measure 2
0000
0000
0000
0000
,  // measure 3
0000
0000
0000
0000
,  // measure 4
1000
0000
0100
0010
0100
0010
0100
0010
0001
0010
0100
1000
0100
0010
0100
0010
,  // measure 5
0000
0000
0100
1000
0100
0010
0001
0100
0010
0100
1000
0100
0010
0001
0100
0100
,  // measure 6
0000
0000
1000
0100
0010
0001
0100
0010
1000
0100
0010
1000
0100
0010
1000
0100
,  // measure 7
0000
0000
0010
0100
0010
0001
0100
1000
0001
0100
0010
0100
0010
0100
0001
0100
,  // measure 8
1000
0000
0010
0100
1000
0001
0010
0100
0010
1000
0100
0001
0010
0001
0100
0010
,  // measure 9
0100
0000
1000
0100
0010
0100
0010
0001
0100
1000
0100
0000
0010
0100
1000
0100
,  // measure 10
0000
0000
0000
0100
0000
0000
0010
0000
0000
1000
0000
0000
0000
0000
0000
0100
0000
0000
0010
0000
0000
0001
0000
0000
0000
0000
0000
0100
0000
0000
0010
0000
0000
0100
0000
0000
0001
0000
0000
0000
1000
0000
0000
0000
0100
0000
0000
0000
,  // measure 11
0010
0000
0000
0001
1000
0001
0100
0010
0000
0100
1000
0100
0010
0001
0100
0010
,  // measure 12
0000
0100
0001
0010
1000
0100
0010
1000
0100
0010
0100
0010
0100
0000
1000
0100
,  // measure 13
0000
0010
0000
0100
0010
0001
0100
0010
1000
0000
0100
0010
1000
0100
0010
0001
,  // measure 14
0000
0100
0010
0100
1000
0100
0010
0001
0000
1000
0010
0100
0000
0010
1000
0100
,  // measure 15
0000
0010
0001
0100
1000
0100
0010
0100
0010
0100
0010
1000
0100
0010
0001
0100
,  // measure 16
0010
0000
0200
0000
0300
0000
1000
0200
0000
0000
0000
0000
0300
0000
0000
0000
,  // measure 17
0100
0000
0020
0000
0030
0001
0000
2000
0000
0000
0000
0000
3000
0000
0000
0000
,  // measure 18
0100
0000
1000
0000
0000
0000
0100
2000
0000
0000
0000
0000
3000
0000
0000
0000
,  // measure 19
0001
0000
0020
0000
0030
0000
0100
0020
0000
0000
0000
0030
0200
0000
0000
0300
,  // measure 20
0020
0000
0000
0030
2000
0000
0000
3000
0001
1000
0001
1000
0001
1000
0001
1000
,  // measure 21
0001
0000
1000
0100
0000
0010
0002
0000
0003
0000
1000
0000
0001
0000
0010
0000
,  // measure 22
1000
0000
0100
1000
0000
0100
0020
0000
0030
0000
0100
0000
0010
0000
0100
0000
,  // measure 23
1000
0000
0100
0010
0000
0100
0020
0000
0030
0000
0001
0000
1000
0000
0200
0000
,  // measure 24
0300
0010
0100
1000
0100
0010
0100
0010
,  // measure 25
0001
0000
0100
1000
0000
0100
0002
0000
0003
0000
0100
0000
0010
0000
0100
0000
,  // measure 26
1000
0000
0100
0001
0000
0100
0020
0000
0030
0000
1000
0000
0100
0000
0010
0000
,  // measure 27
0001
0000
1000
0100
0000
0010
0200
0000
0300
0000
0010
0000
0001
0000
2000
0000
,  // measure 28
3000
0100
0010
0100
0010
0001
0100
0010
,  // measure 29
1000
0000
0100
0010
0000
1000
0200
0000
0300
0000
0100
0000
0010
0000
0001
0000
0100
0000
0010
1000
0000
0100
0020
0000
0030
0000
0100
0000
0010
0000
0001
0000
,  // measure 30
0100
0000
0010
1000
0000
0100
0020
0000
0030
0000
1000
0000
0100
0000
2000
0000
3000
0000
0100
0000
0010
0000
0001
0000
0100
0000
0010
0000
0001
0000
0100
0010
,  // measure 31
0100
0000
1000
0100
0000
0010
0200
0000
0300
0000
0100
0000
0010
0000
0001
0000
,  // measure 32
0100
0000
1000
0100
0000
0010
0200
0000
0300
0000
0010
0000
0100
0000
0100
0000
,  // measure 33
1000
0000
0100
0010
0000
0001
0200
0000
0300
0000
0010
0000
0100
0000
2000
0000
,  // measure 34
3000
0100
0010
0001
0100
0010
0100
1000
,  // measure 35
0100
0000
0100
1000
0000
0100
0020
0000
0030
0000
0100
0000
0010
0000
0001
0000
0100
0000
0010
0100
0000
1000
0020
0000
0030
0000
0100
0000
0010
0000
0001
0000
,  // measure 36
0100
0000
0010
0100
0000
0001
2000
0000
3000
0000
0100
0000
0010
0000
0002
0000
0003
0000
0100
0000
0010
0000
0001
0000
0100
0000
1000
0000
0100
0000
0010
0000
,  // measure 37
0001
0000
0100
0010
0000
0100
2000
0000
3000
0000
0100
0000
0010
0000
0100
0000
1000
0000
0100
0010
0000
0001
0200
0000
0300
0000
0010
0000
0100
0000
1000
0000
,  // measure 38
0100
0000
0001
0100
0000
0010
2000
0000
3000
0000
0100
0000
0010
0000
0200
0000
0300
0000
1000
0000
0100
0000
0010
0000
0001
0000
0100
0000
0010
0000
0100
0000
,  // measure 39
1001
0000
0000
0000
;
