#TITLE:LOCOMOTION;
#SUBTITLE:;
#ARTIST:ALEXIA;
#TITLETRANSLIT:;
#SUBTITLETRANSLIT:;
#ARTISTTRANSLIT:;
#GENRE:Dance;
#CREDIT:;
#MUSIC:LOCOMOTION.ogg;
#BANNER:LOCOMOTION.png;
#BACKGROUND:LOCOMOTION-bg.png;
#JACKET:LOCOMOTION-jacket.png;
#CDIMAGE:LOCOMOTION-cd.png;
#CDTITLE:Wrland Season 2.png;
#SAMPLESTART:10.670;
#SAMPLELENGTH:12.000;
#SELECTABLE:YES;
#OFFSET:-0.001;
#BPMS:0.000=134.964;
#STOPS:;
#DISPLAYBPM:134.000;
#BGCHANGES:;
#FGCHANGES:;

//--------------- dance-single - ----------------
#NOTES:
     dance-single:
     :
     Beginner:
     1:
     0,0,0,0,0:
0000
0000
0000
0000
,
0000
0000
0000
0000
,
0000
0000
0000
0000
,
0000
0000
0000
0000
,
0000
0000
0000
0000
,
0000
0000
0000
0000
,
0100
0000
0000
0000
,
0000
0000
0000
0000
,
0010
0000
0000
0000
,
0000
0000
0000
0000
,
0100
0000
0000
0000
,
0000
0000
0000
0000
,
0010
0000
0000
0000
,
0000
0000
0000
0000
,
1000
0000
0000
0000
,
0000
0000
0000
0000
,
0001
0000
0000
0000
,
0000
0000
0000
0000
,
1000
0000
0000
0000
,
0000
0000
0000
0000
,
0001
0000
0000
0000
,
0000
0000
0000
0000
,
0100
0000
0000
0000
,
0000
0000
0000
0000
,
1000
0000
0000
0000
,
0000
0000
0000
0000
,
0100
0000
0000
0000
,
0000
0000
0000
0000
,
0010
0000
0000
0000
,
0000
0000
0000
0000
,
0001
0000
0000
0000
,
0000
0000
0000
0000
,
0100
0000
0000
0000
,
0000
0000
0000
0000
,
0010
0000
0000
0000
,
0000
0000
0000
0000
,
0100
0000
0000
0000
,
0000
0000
0000
0000
,
0010
0000
0000
0000
,
0000
0000
0000
0000
,
0100
0000
0000
0000
,
0000
0000
0000
0000
,
0010
0000
0000
0000
,
0000
0000
0000
0000
,
0100
0000
0000
0000
,
0000
0000
0000
0000
,
0001
0000
0000
0000
,
0000
0000
0000
0000
,
1000
0000
0000
0000
,
0000
0000
0000
0000
,
2002
0000
0000
0000
,
3003
0000
0000
0000
;

//--------------- dance-single - ----------------
#NOTES:
     dance-single:
     :
     Easy:
     2:
     0,0,0,0,0:
0000
0000
0000
0000
,
0000
0000
0000
0000
,
0000
0000
0000
0000
,
0000
0000
0000
0000
,
0000
0000
0000
0000
,
0000
0000
0000
0000
,
1000
0000
0000
0000
,
1000
0000
0000
0000
,
0100
1000
0100
0000
,
0010
0001
0010
0000
,
0001
0000
0000
0000
,
0001
0000
0000
0000
,
0010
0001
0010
0000
,
0100
0010
0100
0000
,
0100
0000
0000
0000
,
1000
0000
0000
0000
,
0100
0000
0000
0000
,
1000
0000
0000
0000
,
0100
0000
0000
0000
,
0010
0000
0000
0000
,
0100
0010
0100
0000
,
0001
0010
0001
0000
,
0100
0000
0000
0000
,
1000
0000
0000
0000
,
1000
0000
0000
0000
,
0100
0000
0000
0000
,
0010
0000
0000
0000
,
0100
0000
0000
0000
,
0010
0000
0000
0000
,
0001
0000
0000
0000
,
0100
1000
0100
0000
,
0010
0001
0010
0000
,
0100
0000
0000
0000
,
0010
0000
0000
0000
,
0010
0100
0010
0000
,
1000
0001
1000
0000
,
0100
0000
0000
0000
,
1000
0000
0000
0000
,
0100
0000
0000
0000
,
0010
0000
0000
0000
,
0100
0000
0000
0000
,
0010
0000
0000
0000
,
0100
0000
0000
0000
,
0010
0000
0000
0000
,
0001
0000
0000
0000
,
1000
0000
0000
0000
,
0001
0000
0000
0000
,
1000
0000
0000
0000
,
0100
0000
0000
0000
,
1000
0000
0000
0000
,
0220
0000
0000
0000
,
0330
0000
0000
0000
;

//--------------- dance-single - ----------------
#NOTES:
     dance-single:
     :
     Medium:
     7:
     0,0,0,0,0:
0000
0000
0000
0000
,
0000
0000
0000
0000
,
0000
0000
0000
0000
,
0000
0000
0000
0000
,
0000
0000
0000
0000
,
0000
0000
0000
0000
,
0100
0010
0100
0010
,
0100
0000
0001
1000
0000
0002
0000
0003
,
0000
0100
0010
0000
0100
1000
0000
0100
,
0000
0010
0100
0000
0010
0000
0100
0000
,
0010
0100
1000
0001
,
1000
0001
0100
0001
0000
2000
0000
3000
,
0000
0100
0010
0000
0100
0010
0000
0001
,
0000
0100
0010
0000
1000
0000
0100
0000
,
0100
1000
0100
0001
,
0100
0001
0010
1000
0200
0000
0300
0010
,
0100
1000
0001
0010
1000
0001
0100
0001
,
1000
0010
0100
1000
0020
0000
0030
0001
,
0100
1000
0000
0100
0010
0000
2000
3000
,
0010
0100
0010
0100
,
0010
0100
1000
0100
,
0001
0100
0010
0100
,
0010
0100
1000
0100
,
0001
0100
0010
0100
,
1000
0100
1000
0100
,
1000
0001
0100
0010
,
0100
0010
0001
0100
,
0010
0100
0001
0010
,
1000
0100
0010
0100
,
0001
0000
0100
0020
0030
0200
0000
0300
,
0000
0100
0010
0000
1000
0100
0000
1000
,
0000
0100
0010
0000
0100
0000
0010
0000
,
0001
0100
0010
1000
,
0100
1000
0100
2000
3000
0200
0000
0300
,
0000
0100
0010
0000
0010
0100
0000
0010
,
0000
0100
0010
1000
0001
0000
0100
0000
,
0010
0100
0010
0001
,
0100
0000
1000
0200
0000
0300
0000
0010
,
0100
1000
0010
0001
0100
1000
0010
0100
,
0001
0010
0100
1000
0010
0000
0100
0010
,
1000
0001
0000
0010
0100
0000
0020
0000
,
0030
0001
0100
0010
1000
0100
0010
0001
,
0100
0010
0100
0010
,
0100
1000
0100
0010
,
0001
1000
0001
1000
0001
1000
0001
1000
,
0001
1000
0001
1000
0001
1000
0001
1000
,
0001
0100
0010
0100
0010
0100
0010
0100
,
0010
0100
0010
0100
0010
0100
0010
0100
,
0010
0001
0100
0100
1000
0100
0010
0010
,
0001
0100
0010
0001
0100
0010
1000
0100
,
0010
0100
0010
0100
,
0220
0330
0000
0000
;

//--------------- dance-single - ----------------
#NOTES:
     dance-single:
     :
     Hard:
     8:
     0,0,0,0,0:
0000
0000
0000
0000
,
0000
0000
0000
0000
,
0000
0000
0000
0000
,
0000
0000
0000
0000
,
0000
0000
0000
0000
,
0000
0000
0000
0000
,
0100
0010
0100
0010
0200
0300
0100
0010
,
0200
0300
0100
0020
0030
0002
0000
0003
,
0000
1000
0100
0000
1000
0100
0000
0020
,
0030
0100
0010
0100
0020
0030
0001
0000
,
0100
0010
0100
1000
0100
0010
0001
0100
,
0010
0100
1000
0200
0300
2000
3000
0000
,
0000
1000
0100
0000
0100
0010
0000
0100
,
0000
0010
0100
0010
0002
0003
0100
0000
,
0010
0100
0010
1000
0100
0010
0001
0100
,
0010
0100
1000
0100
0020
0030
0000
0001
,
0100
0010
0100
1000
0100
0010
0001
0100
,
0010
1000
0100
0010
0200
0300
0000
0001
,
0010
0100
0000
0001
0010
0000
0200
0000
,
0300
1000
0100
0010
0001
0100
0010
0100
,
0010
0001
1000
0001
1000
0001
1000
0100
,
0020
0030
0002
0003
0100
0010
0200
0300
,
0010
1000
0100
0001
0010
0100
1000
0100
,
0010
1000
0100
0010
0100
0010
0001
1000
,
0001
1000
0001
0200
0000
0300
1000
0020
,
0000
0030
0001
0200
0000
0300
1000
0100
,
0020
0030
0200
0300
0020
0030
0100
0020
,
0030
0002
0003
0000
2000
3000
0001
0000
,
1001
0010
0100
0010
0200
0300
0100
1000
,
0200
0300
0010
0002
0003
0020
0000
0030
,
0000
0100
0010
0000
0100
1000
0000
0100
,
0000
0010
0001
0100
0020
0030
0100
0000
,
1000
0100
0010
0100
0010
0001
0100
0010
,
2000
3000
0010
0200
0300
0200
0000
0300
,
0000
0100
0010
0000
0001
0010
0000
0100
,
0000
1000
0100
0010
0002
0003
0100
0000
,
0010
0100
0010
1000
0100
0010
0001
0100
,
0020
0030
1000
0100
0020
0030
0000
0100
,
0010
0100
1000
0001
0100
0010
0001
0100
,
0010
0100
1000
0100
0020
0030
0000
0001
,
0100
0010
0000
0100
0010
0000
0002
0003
,
0000
0100
1000
0001
1000
0001
1000
0001
,
1000
0000
0200
0300
0020
0030
0100
0010
,
0002
0003
0100
1000
0010
0100
0020
0030
,
0100
0010
0001
0010
1000
0100
0010
0001
,
0010
0100
1000
0100
0010
0001
0020
0030
,
0100
0010
0100
0010
1000
0100
0010
0001
,
0100
0010
0100
1000
0100
0010
2000
3000
,
0010
0100
0010
0001
0200
0300
0100
0010
,
0100
0000
0001
0000
2000
0000
3000
0000
0001
0000
0100
0000
0010
0001
0100
0000
,
0020
0030
0200
0300
0010
0100
0010
0000
,
2002
3003
0000
0000
;
