#TITLE:마.피.아. In the morning;
#SUBTITLE:;
#ARTIST:있지;
#TITLETRANSLIT:In the morning;
#SUBTITLETRANSLIT:;
#ARTISTTRANSLIT:ITZY;
#GENRE:K-Pop;
#CREDIT:;
#BANNER:In the morning.png;
#BACKGROUND:In the morning-bg.png;
#LYRICSPATH:;
#CDTITLE:Wrland Season 2.png;
#MUSIC:In the morning.ogg;
#OFFSET:0.001000;
#SAMPLESTART:61.713001;
#SAMPLELENGTH:12.000000;
#SELECTABLE:YES;
#DISPLAYBPM:70.000000:140.000000;
#BPMS:0.000000=70.000000
,40.000000=140.000000
,68.000000=70.000000
;
#STOPS:
;
#BGCHANGES:0.000=In the morning.avi=1.000=0=0=0=StretchNoLoop====,
99999=-nosongbg-=1.000=0=0=0 // don't automatically add -songbackground-
;
#KEYSOUNDS:;
#ATTACKS:;

//---------------dance-single - ----------------
#NOTES:
     dance-single:
     :
     Beginner:
     1:
     0.043892,0.080012,0.025604,0.017069,0.000000,36.000000,33.000000,3.000000,2.000000,0.000000,0.000000,0.043892,0.080012,0.025604,0.017069,0.000000,36.000000,33.000000,3.000000,2.000000,0.000000,0.000000:
0000
0000
0000
0000
,
0000
0000
0000
0000
,
1000
0000
0000
0000
,
1000
0000
0000
0000
,
0001
0000
0000
0000
,
0001
0000
0000
0000
,
0100
0000
0000
0000
,
0010
0000
0000
0000
,
0100
0000
0000
0000
,
0010
0000
0000
0000
,
1000
0000
0000
0000
,
0000
0000
0000
0000
,
0001
0000
0000
0000
,
0000
0000
0000
0000
,
1000
0000
0000
0000
,
0000
0000
0000
0000
,
0100
0000
0000
0000
,
0000
0000
0010
0000
,
0000
0000
1000
0000
,
0000
0000
0100
0000
,
0000
0000
1000
0000
,
0000
0000
0020
0030
,
0000
0000
0100
0000
,
0000
0000
0002
0003
,
0000
0000
0100
0000
,
0000
0000
0010
0000
,
0000
0000
0100
0000
,
0000
0000
1000
0000
,
0000
0000
1010
0000
,
0000
0000
1001
0000
,
0000
0000
0100
0000
,
0000
0000
0010
0000
,
0000
0000
0100
0000
,
0000
0000
0010
0000
,
0000
0000
0001
0000
,
0000
0000
1000
0000
,
0000
0000
0100
0000
,
0000
0000
0110
0000
;

//---------------dance-single - ----------------
#NOTES:
     dance-single:
     :
     Easy:
     2:
     0.081688,0.112017,0.017069,0.025604,0.000000,67.000000,65.000000,2.000000,3.000000,0.000000,0.000000,0.081688,0.112017,0.017069,0.025604,0.000000,67.000000,65.000000,2.000000,3.000000,0.000000,0.000000:
0000
0000
0000
0000
,
0000
0000
0000
0000
,
0010
0000
0100
0000
,
0010
0000
0100
0000
,
1000
0000
0001
0000
,
1000
0000
0001
0000
,
1001
0000
0110
0000
,
1000
0000
0001
0000
,
0100
0000
0010
0000
,
0100
0000
1000
0000
,
1000
0000
0000
0000
,
0100
0000
0000
0000
,
1000
0000
0000
0000
,
0100
0000
0000
0000
,
0010
0000
0000
0000
,
0100
0000
0000
0000
,
0010
0000
0000
0000
,
0200
0300
0010
0000
,
0001
0000
0100
0000
,
0010
0000
0100
0000
,
1000
0000
1000
0000
,
0100
0000
0020
0030
,
0100
0000
0001
0000
,
0010
0000
0002
0003
,
0010
0000
0100
0000
,
1000
0000
0100
0000
,
0100
0000
0010
0000
,
0010
0000
0001
0000
,
0001
0000
1000
0000
,
1000
0000
0100
0000
,
0100
0000
0010
0000
,
0010
0000
0100
0000
,
0100
0000
0010
0000
,
0010
0000
0001
0000
,
1000
0000
1000
0000
,
0001
0000
0100
0000
,
0010
0000
0010
0000
,
0100
0000
0010
0000
;

//---------------dance-single - ----------------
#NOTES:
     dance-single:
     :
     Medium:
     5:
     0.363330,0.384057,0.110950,0.145088,0.128019,298.000000,285.000000,13.000000,17.000000,0.000000,0.000000,0.363330,0.384057,0.110950,0.145088,0.128019,298.000000,285.000000,13.000000,17.000000,0.000000,0.000000:
0000
0000
0000
0000
,
0000
0000
0000
0000
,
1000
0100
0100
0010
0100
0010
0001
0010
,
0010
0001
0010
0100
1000
0100
1000
0000
,
0100
1000
0100
0010
0100
0010
0001
0000
,
0010
0100
0010
0100
0010
0100
0010
1001
,
0100
0000
0010
0000
0100
0000
0100
0000
0010
0100
1000
0100
0010
0000
0010
0000
,
0100
0000
0010
0000
0001
0000
1000
0000
0100
0010
0100
0000
0100
0000
0010
0000
,
1000
0100
0010
0001
0100
0010
1000
0100
,
0100
0010
0010
0001
0001
0100
0010
1001
,
0100
0010
0200
0300
0010
0002
0003
1000
,
0001
0100
0010
2000
3000
0100
0010
0001
,
0000
0010
2000
3000
0010
0002
0003
1000
,
0100
0010
0100
2000
3000
0000
0100
0010
,
0100
0010
0100
0010
0100
0010
0100
1000
,
0010
0001
1000
0200
0300
0000
0100
0010
,
0100
0010
0001
1000
0100
0010
0001
1000
,
0200
0300
0002
0003
2000
3000
1001
0000
0100
0000
0010
0001
0100
0010
1000
0100
,
0000
0000
0100
0000
0010
0100
0010
0001
1000
0000
0100
0000
0010
0000
0100
0000
,
0010
0000
0100
0000
0010
0000
0001
0000
1000
0000
0001
0000
1000
0001
1000
0100
,
0000
0000
0010
0100
0010
0001
0100
0010
0000
0000
0100
0000
0010
0000
1000
0000
,
1001
0100
0010
0100
0010
0100
0010
0001
,
0010
0100
1000
0001
1001
0000
0100
0010
,
0100
0010
0001
1000
0100
1000
0100
1000
,
0100
0010
0100
0010
0110
0000
0100
0010
,
0001
0000
0100
0000
2002
0000
3003
0000
0000
0100
0010
0100
0020
0030
0100
1000
,
0100
0010
0002
0000
0000
0000
0003
0000
0100
0000
0010
0000
0100
0000
0010
0000
,
1000
0100
1000
0100
0010
0100
0020
0030
,
1000
0100
0010
0001
1000
0100
0010
0100
,
0010
0000
0000
0000
0000
0000
0010
1000
0100
0000
0010
0000
0100
0010
0100
0001
,
0000
1000
0001
1000
0100
0010
0100
1000
0100
0000
0010
0000
0100
0000
0010
0000
,
0100
0000
1000
0000
0001
0000
1000
0000
0001
0000
1000
0000
0100
0010
0100
0010
,
0000
0100
1000
0100
0010
0100
0010
0001
1000
0000
0100
0000
1000
0000
0100
0000
,
1001
0100
0010
0110
0100
0010
0100
0001
,
1000
0001
1000
0001
1001
0000
0100
0010
,
0010
1000
1001
0000
0100
0010
0100
1000
,
0001
1000
0001
0100
0110
0000
0100
0010
,
0100
0010
0001
2002
3003
0000
0000
0000
;

//---------------dance-single - ----------------
#NOTES:
     dance-single:
     :
     Hard:
     9:
     0.569380,0.656098,0.247504,0.418196,0.793719,467.000000,438.000000,29.000000,49.000000,0.000000,0.000000,0.569380,0.656098,0.247504,0.418196,0.793719,467.000000,438.000000,29.000000,49.000000,0.000000,0.000000:
// measure 0
0000
0000
0000
0000
,  // measure 1
0000
0000
0000
0000
,  // measure 2
0100
0000
0010
0000
0000
0000
0100
0000
1000
0000
0000
0000
0100
0000
0010
0000
0000
0000
0200
0000
0000
0300
0000
0000
,  // measure 3
1000
0000
0000
0000
0000
0000
0000
0000
0000
0000
0000
0000
0000
0000
0000
0000
0001
0000
0000
0000
0000
0000
0000
0000
0000
0000
0000
0000
0000
0000
0000
0000
0000
0000
0000
0000
0000
0000
0000
0000
0000
0000
0000
0000
0000
0000
0000
0000
0100
0000
0000
0000
0000
0000
0000
0000
0000
0000
0000
0000
0000
0000
0000
0000
0010
0000
0000
0000
0000
0000
0000
0000
0000
0000
0000
0000
0000
0000
0000
0000
0000
0000
0000
0000
0000
0000
0000
0000
0000
0000
0000
0000
0000
0000
0000
0000
0100
0000
0000
0000
0000
0000
0000
0000
0000
0000
0000
0000
0000
0000
0000
0000
1000
0000
0000
0000
0000
0000
0000
0000
0000
0000
0000
0000
0000
0000
0000
0000
0000
0000
0000
0000
0000
0000
0000
0000
0000
0000
0000
0000
0000
0000
0000
0000
0100
0000
0000
0000
0000
0000
0010
0000
0000
0000
0000
0000
0100
0000
0000
0000
0000
0000
0010
0000
0000
0000
0000
0000
0100
0000
0000
0000
0000
0000
0010
0000
0000
0000
0000
0000
0100
0000
0000
0000
0000
0000
0010
0000
0000
0000
0000
0000
,  // measure 4
0100
0000
1000
0000
0000
0000
0100
0000
0001
0000
0000
0000
1000
0000
0001
0000
0000
0000
0200
0000
0000
0300
0000
0000
,  // measure 5
1000
0000
0000
0100
0000
0000
0010
0000
0000
0100
0000
0000
1000
0000
0000
0100
0000
0000
0010
0000
0000
0001
0000
0000
1000
0000
0100
0000
0010
0000
1000
0000
0100
0000
0010
0000
0001
0000
0000
0000
0000
0000
1001
0000
0000
0100
0000
0000
,  // measure 6
0010
0000
1000
0000
0100
0000
0010
0000
0001
0000
0010
0000
1000
0001
1000
0001
1000
0000
0100
0000
0020
0000
0030
0000
1000
0000
0000
0000
0001
0000
1000
0000
,  // measure 7
0001
0000
0100
0000
0010
0000
0100
0000
1000
0000
0001
0000
0100
0000
1000
0000
0010
0000
0001
0000
0200
0000
0300
0000
0010
0100
1000
0101
0010
0000
0001
0000
,  // measure 8
0100
1000
0010
1000
0100
0010
0002
0000
0000
0003
0010
0100
1000
0001
0100
0010
0001
1000
0200
0000
0000
0300
0001
0000
,  // measure 9
0100
0000
0001
0000
0010
0000
0100
0000
0010
0000
1000
0000
0100
0000
0020
0000
0030
0000
0100
0000
0010
0000
1000
0000
0200
0000
0000
0300
0000
0000
0010
0000
0100
0000
0010
0000
0220
0000
0000
0330
0000
0000
1001
0000
0000
0100
0000
0000
,  // measure 10
0000
0100
0010
0000
0100
0010
0000
0001
,  // measure 11
1000
0001
0100
0010
1000
0001
0100
0010
,  // measure 12
0100
0010
0100
0000
1000
0001
0100
0010
,  // measure 13
0100
0010
0100
2000
3000
0000
0100
0001
,  // measure 14
1000
0001
0100
0010
1000
0100
0010
0001
,  // measure 15
0100
0010
1000
0200
0300
0000
0100
0010
,  // measure 16
0001
1000
0001
1000
0001
1000
0001
1000
,  // measure 17
1001
0000
0000
0000
0110
0000
0001
0010
1010
0100
0010
0100
0010
0000
0100
0000
0010
0000
0100
0000
0010
0000
1000
0000
0100
0000
0010
0000
0001
0000
0200
0000
,  // measure 18
0300
0010
0100
0010
0001
1000
0001
1000
2002
3003
0100
1000
0010
0100
0010
0001
,  // measure 19
1000
0000
0000
0010
0000
0000
0100
0000
0010
0000
0000
1000
0000
0000
0100
0000
0010
0000
0000
0001
0000
0000
0100
0000
0010
0000
1000
0000
0100
0000
0020
0000
,  // measure 20
0030
0000
0100
0000
0010
0000
1000
0000
0100
0000
0010
0000
1000
0000
0100
0000
0010
0000
0000
0000
0100
0010
0000
0000
0001
0010
0000
0000
0100
0010
0000
0000
,  // measure 21
0440
0000
0330
0000
0100
0110
0010
0100
0010
0000
1000
0000
0001
0000
0100
0000
0010
0001
0000
0000
0010
0100
0000
0000
2000
0000
3000
0000
0100
0010
0000
0000
,  // measure 22
0100
0010
0000
0000
0002
0000
0003
0000
1000
0000
0000
0000
1001
0000
0000
0000
0100
0000
0001
0000
1000
0000
0010
0000
0100
0000
0010
0000
0001
0000
1000
0000
,  // measure 23
0002
0000
0003
0000
0200
0000
0300
0000
0020
0000
0030
0000
0100
0000
0000
0000
0010
1000
0000
0000
1000
0100
0000
0000
0020
0000
0030
0000
0001
1000
0000
0000
,  // measure 24
0100
0010
0000
0000
0020
0000
0030
0000
1000
0000
0000
0000
1001
0000
0000
0000
0110
0000
0000
0000
0100
0000
0010
0000
1000
0000
0100
0000
0010
0000
0001
0000
,  // measure 25
2000
3000
0002
0003
0110
1000
0100
0010
0001
1000
0001
1000
0200
0300
0010
0100
,  // measure 26
0010
0001
0200
0300
2000
0000
3000
0000
1000
0001
0100
1000
0200
0300
2000
3000
,  // measure 27
0100
0000
0010
0000
0100
0000
0010
0000
0100
0000
0010
0000
0001
0000
0100
0000
0020
0000
0030
0000
0100
0010
0000
0000
0002
0000
0003
0000
2000
0000
3000
0000
,  // measure 28
0100
0000
0000
0000
0000
0000
0200
0000
0000
0300
0000
0000
2000
0000
0000
3000
0000
0000
0100
0000
0000
0010
0000
0000
0002
0000
0000
0003
0000
0000
1000
0000
0000
0001
0000
0000
1000
0000
0001
0000
1000
0000
0001
0000
1000
0000
0001
0000
,  // measure 29
1000
0000
0000
0000
0000
0000
0100
0010
1000
0010
0100
0010
0100
0010
0001
2000
,  // measure 30
3000
0100
1000
0100
0010
0100
0010
0001
0101
1000
0010
0100
0010
1000
0100
0010
,  // measure 31
0001
0000
0000
1000
0000
0000
0001
0000
0100
0000
0000
0010
0000
0000
0100
0000
1000
0000
0001
0000
0010
0000
0100
0000
0010
0000
1000
0000
0100
0000
2000
0000
,  // measure 32
3000
0000
0100
0000
0010
0000
0001
0000
0100
0000
0010
0000
0001
0000
1000
0000
1001
0000
0000
0000
0010
0001
0000
0000
1000
0100
0000
0000
0010
0001
0000
0000
,  // measure 33
0404
0000
0303
0000
0100
0010
0001
0000
1001
0000
0110
0000
0110
0000
1001
0000
0100
1000
0000
0000
0100
0010
0000
0000
0002
0000
0003
0000
1000
0001
0000
0000
,  // measure 34
1000
0001
0000
0000
0100
2000
0000
3000
0110
0000
0000
0000
1001
0000
0000
0000
0110
0000
0001
0000
0010
0000
0100
0000
0010
0000
1000
0000
0100
0000
0010
0000
,  // measure 35
2000
0000
3000
0000
0002
0000
0003
0000
0220
0000
0330
0000
0100
0000
1000
0000
0100
0010
0000
0000
0010
0001
0000
0000
2002
0000
3003
0000
0100
0010
0000
0000
,  // measure 36
1000
0100
0000
0000
0001
0200
0000
0300
1001
0000
0000
0000
0110
0000
0000
0000
0100
0000
0010
0000
1000
0000
0100
0000
0010
0000
0001
0000
0100
0000
0010
0000
,  // measure 37
2000
3000
0002
0003
1001
0100
0010
0100
0010
0000
0000
0000
0000
0000
0000
0000
;
