#VERSION:0.83;
#TITLE:神메뉴;
#SUBTITLE:;
#ARTIST:스트레이 키즈;
#TITLETRANSLIT:God's Menu;
#SUBTITLETRANSLIT:;
#ARTISTTRANSLIT:Stray Kids;
#GENRE:K-Pop;
#ORIGIN:;
#CREDIT:;
#BANNER:God's Menu.png;
#BACKGROUND:God's Menu-bg.png;
#PREVIEWVID:;
#JACKET:God's Menu-jacket.png;
#CDIMAGE:;
#DISCIMAGE:;
#LYRICSPATH:;
#CDTITLE:Wrland Season 2.png;
#MUSIC:God's Menu.ogg;
#OFFSET:0.000000;
#SAMPLESTART:30.565001;
#SAMPLELENGTH:12.000000;
#SELECTABLE:YES;
#BPMS:0.000=157.000,
15.021=78.500,
31.000=157.000,
47.000=78.500;
#STOPS:15.000=0.382;
#DELAYS:;
#WARPS:;
#TIMESIGNATURES:0.000=4=4;
#TICKCOUNTS:0.000=4;
#COMBOS:0.000=1;
#SPEEDS:0.000=1.000=0.000=0;
#SCROLLS:0.000=1.000;
#FAKES:;
#LABELS:0.000=Song Start;
#BGCHANGES:0.000=God's Menu.avi=1.000=0=0=0=StretchNoLoop====,
99999=-nosongbg-=1.000=0=0=0 // don't automatically add -songbackground-
;
#KEYSOUNDS:;
#ATTACKS:
;

//---------------dance-single - ----------------
#NOTEDATA:;
#CHARTNAME:;
#STEPSTYPE:dance-single;
#DESCRIPTION:;
#CHARTSTYLE:;
#DIFFICULTY:Beginner;
#METER:1;
#RADARVALUES:0.053015,0.107355,0.063618,0.053015,0.005301,35.000000,29.000000,6.000000,5.000000,0.000000,0.000000,0.000000,0.000000,0.000000,0.053015,0.107355,0.063618,0.053015,0.005301,35.000000,29.000000,6.000000,5.000000,0.000000,0.000000,0.000000,0.000000,0.000000;
#CREDIT:;
#NOTES:
0000
0000
0000
0000
,
0000
0000
0000
0000
,
0000
0000
0000
0000
,
0000
0000
0000
0000
0000
0000
0000
0000
0000
0000
0000
0000
0000
0000
0000
0000
0000
0000
0000
0000
0000
0000
0000
0000
0000
0000
0000
0000
0000
0000
0000
0000
0000
0000
0000
0000
0000
0000
0000
0000
0000
0000
0000
0000
0000
0000
0000
0000
0000
0000
0000
0000
0000
0000
0000
0000
0000
0000
0000
0000
0000
0000
0000
0000
0000
0000
0000
0000
0000
0000
0000
0000
0000
0000
0000
0000
0000
0000
0000
0000
0000
0000
0000
0000
0000
0000
0000
0000
0000
0000
0000
0000
0000
0000
0000
0000
0000
0000
0000
0000
0000
0000
0000
0000
0000
0000
0000
0000
0000
0000
0000
0000
0000
0000
0000
0000
0000
0000
0000
0000
0000
0000
0000
0000
0000
0000
0000
0000
0000
0000
0000
0000
0000
0000
0000
0000
0000
0000
0000
0000
0000
0000
0000
0000
0000
1000
0000
0000
0000
0000
0000
0000
0000
0000
0000
0000
0000
0000
0000
0000
0000
0000
0000
0000
0000
0000
0000
0000
0000
0000
0000
0000
0000
0000
0000
0000
0000
0000
0000
0000
0000
0000
0000
0000
0000
0000
0000
0000
0000
0000
0000
0000
,
0000
0000
0000
0010
,
0000
0000
0000
0100
,
0000
0000
0000
0010
,
0000
0000
0000
0001
,
0000
0000
0000
0000
,
0000
0000
0000
1000
,
0000
0000
0000
0000
,
0000
0000
0000
0100
,
0000
0000
0000
0010
,
0000
0000
0000
2002
,
0000
0000
3003
2000
,
0000
0000
3000
0020
,
0000
0000
0030
2000
,
0000
0000
3000
0100
,
0000
0000
0000
0001
,
0000
0000
0000
0100
,
0000
0000
0000
0010
,
0000
0000
0000
1001
,
0000
0000
0000
1001
,
0000
0000
0000
1001
,
0000
0000
0000
1001
,
0000
0000
0000
0100
,
0000
0000
0000
0010
,
0000
0000
0000
0100
,
0000
0000
0000
0010
,
0000
0000
0000
1000
,
0000
0000
0000
0001
,
0000
0000
0000
1000
,
0000
0000
0000
0100
,
0000
0000
0000
0110
;

//---------------dance-single - ----------------
#NOTEDATA:;
#CHARTNAME:;
#STEPSTYPE:dance-single;
#DESCRIPTION:;
#CHARTSTYLE:;
#DIFFICULTY:Easy;
#METER:3;
#RADARVALUES:0.092398,0.125248,0.042412,0.084824,0.005301,61.000000,57.000000,4.000000,8.000000,0.000000,0.000000,0.000000,0.000000,0.000000,0.092398,0.125248,0.042412,0.084824,0.005301,61.000000,57.000000,4.000000,8.000000,0.000000,0.000000,0.000000,0.000000,0.000000;
#CREDIT:;
#NOTES:
0000
0000
0000
0000
,
0000
0000
0000
0000
,
0000
0000
0000
0000
,
0000
0000
0000
0000
0000
0000
0000
0000
0000
0000
0000
0000
0000
0000
0000
0000
0000
0000
0000
0000
0000
0000
0000
0000
0000
0000
0000
0000
0000
0000
0000
0000
0000
0000
0000
0000
0000
0000
0000
0000
0000
0000
0000
0000
0000
0000
0000
0000
0000
0000
0000
0000
0000
0000
0000
0000
0000
0000
0000
0000
0000
0000
0000
0000
0000
0000
0000
0000
0000
0000
0000
0000
0000
0000
0000
0000
0000
0000
0000
0000
0000
0000
0000
0000
0000
0000
0000
0000
0000
0000
0000
0000
0000
0000
0000
0000
0000
0000
0000
0000
0000
0000
0000
0000
0000
0000
0000
0000
0000
0000
0000
0000
0000
0000
0000
0000
0000
0000
0000
0000
0000
0000
0000
0000
0000
0000
0000
0000
0000
0000
0000
0000
0000
0000
0000
0000
0000
0000
0000
0000
0000
0000
0000
0000
0000
1000
0000
0000
0000
0000
0000
0000
0000
0000
0000
0000
0000
0000
0000
0000
0000
0000
0000
0000
0000
0000
0000
0000
0000
0000
0000
0000
0000
0000
0000
0000
0000
0000
0000
0000
0000
0000
0000
0000
0000
0000
0000
0000
0000
0000
0000
0000
,
0000
0100
0000
0010
,
0000
0100
0000
0001
,
0000
0001
0000
1000
,
0000
1000
0000
0100
,
0000
0000
0000
0100
,
0000
0000
0000
0010
,
0000
0000
0000
0010
,
0000
0000
0000
0001
,
0000
0001
0000
1000
,
0000
1000
0000
0200
,
0300
0200
0300
0020
,
0030
0020
0030
0002
,
0003
0002
0003
2000
,
3000
2000
3000
0001
,
0000
1000
0000
0001
,
0000
1000
0000
0100
,
0000
1000
0000
0100
,
0000
0110
0000
1001
,
0000
1000
0000
0010
,
0000
1000
0000
0100
,
0000
0001
0000
0100
,
0000
0001
0000
1001
,
0000
1000
0000
0100
,
0000
1000
0000
0010
,
0000
1000
0000
0100
,
0000
1000
0000
0100
,
0000
0010
0000
0100
,
0000
0001
0000
0100
,
0000
0010
0000
0100
,
0000
0010
0000
0110
;

//---------------dance-single - ----------------
#NOTEDATA:;
#CHARTNAME:;
#STEPSTYPE:dance-single;
#DESCRIPTION:;
#CHARTSTYLE:;
#DIFFICULTY:Medium;
#METER:7;
#RADARVALUES:0.392311,0.558778,0.371105,0.349899,0.296884,259.000000,224.000000,35.000000,33.000000,0.000000,0.000000,0.000000,0.000000,0.000000,0.392311,0.558778,0.371105,0.349899,0.296884,259.000000,224.000000,35.000000,33.000000,0.000000,0.000000,0.000000,0.000000,0.000000;
#CREDIT:;
#NOTES:
0000
0000
0000
0000
,
0000
0000
0000
0000
,
0000
0000
0000
0000
,
0000
0000
0000
0000
0000
0000
0000
0000
0000
0000
0000
0000
0000
0000
0000
0000
0000
0000
0000
0000
0000
0000
0000
0000
0000
0000
0000
0000
0000
0000
0000
0000
0000
0000
0000
0000
0000
0000
0000
0000
0000
0000
0000
0000
0000
0000
0000
0000
0000
0000
0000
0000
0000
0000
0000
0000
0000
0000
0000
0000
0000
0000
0000
0000
0000
0000
0000
0000
0000
0000
0000
0000
0000
0000
0000
0000
0000
0000
0000
0000
0000
0000
0000
0000
0000
0000
0000
0000
0000
0000
0000
0000
0000
0000
0000
0000
0000
0000
0000
0000
0000
0000
0000
0000
0000
0000
0000
0000
0000
0000
0000
0000
0000
0000
0000
0000
0000
0000
0000
0000
0000
0000
0000
0000
0000
0000
0000
0000
0000
0000
0000
0000
0000
0000
0000
0000
0000
0000
0000
0000
0000
0000
0000
0000
0000
1000
0000
0000
0000
0000
0000
0000
0000
0000
0000
0000
0000
0000
0000
0000
0000
0000
0000
0000
0000
0000
0000
0000
0100
0000
0000
0000
0000
0000
0000
0000
0000
0000
0000
0000
0000
0000
0000
0000
0000
0000
0000
0000
0000
0000
0000
0000
,
0020
0030
0100
0010
0100
0010
0001
0100
,
0010
0000
0100
0000
1000
0000
0100
0000
0010
0000
0100
0000
0011
0000
0000
1001
,
0000
0000
0010
0000
0100
0000
1000
0000
0100
0000
0010
0000
0101
0000
0000
1100
,
0000
0000
0110
0000
0000
0011
0100
0000
1001
0000
0100
0000
0010
0000
0000
0000
,
0100
0010
0100
0010
,
0001
0001
0001
0001
,
0100
1000
1000
1000
,
0100
0000
1000
0000
0100
0000
0010
0100
,
0010
0100
0010
0001
1000
0001
1000
0001
,
0100
0000
1000
0000
0100
0000
1000
0000
0100
0000
0010
0000
0200
0000
0300
0100
,
0000
0000
0010
0000
0000
0100
0000
0000
0020
0000
0030
1000
0100
0000
1000
0000
,
0100
0000
1000
0000
0100
0000
0010
0000
0100
0000
0010
0000
0200
0000
0300
0010
,
0000
0000
0010
0000
0000
0002
0000
0003
2000
0000
3000
1000
0100
0000
0100
0000
,
0010
0100
0002
0000
0003
0100
1000
0100
,
0010
0100
0100
0010
0100
0010
1000
0100
,
1000
0000
0100
0000
0020
0000
0030
0000
0100
0000
0010
0000
0002
0000
0003
1000
,
0002
0000
0003
0100
0010
1000
0100
0010
0000
1000
0100
0000
0100
0010
1000
0001
,
0100
0000
0000
1000
0000
0000
0010
0000
0000
0100
0000
0000
1001
0000
0000
0000
1001
0000
0000
0000
1001
0000
0000
0000
1001
0000
0000
0000
1001
0000
0000
0000
1001
0000
0000
0000
0100
0000
0000
0020
0000
0000
0000
0000
0000
0030
0000
0000
,
0100
0020
0000
0030
1000
0020
0000
0030
0002
0000
0000
0003
0100
2000
0000
3000
,
0100
2000
0000
0000
3010
0200
0000
0300
0020
0000
0000
0030
0001
2000
0000
3000
,
0100
2000
0000
3000
0100
0020
0000
0030
0200
0000
0300
0000
0100
0020
0000
0030
,
0100
0000
0000
0020
0000
0000
0000
0000
0000
0030
0000
0000
0000
0000
0000
0000
0000
0000
0000
0000
0000
0000
0000
0000
0101
0000
0000
0000
1010
0000
0000
0000
0101
0000
0000
0000
1010
0000
0000
0000
0000
0000
0100
0000
0000
0000
0000
0000
,
0010
0000
0100
0000
0010
0000
0001
0000
1000
0100
1000
0100
0020
0000
0030
0200
,
0000
0000
0000
0300
0000
0000
0020
0000
0000
0030
0000
0000
0100
0000
0000
0000
0010
0000
0000
0000
0100
0000
0000
0000
0010
0000
0000
0000
0100
0000
0000
0000
0010
0000
0000
0000
1000
0000
0000
0000
0000
0000
0001
0000
0000
0000
0000
0000
,
1000
0000
0001
0000
1000
0000
0100
0000
0010
0100
0010
0001
2000
0000
3000
2000
,
0000
0000
0000
3000
0000
0000
0002
0000
0000
0003
0000
0000
1100
0000
0000
0000
0101
0000
0000
0000
0110
0000
0000
0000
0110
0000
0000
0000
0110
0000
0000
0000
1001
0000
0000
0000
0100
0000
0000
0000
0000
0000
0010
0000
0000
0000
0000
0000
,
0200
0000
0000
0300
1000
0000
0100
0000
0010
0000
0100
0000
0010
0000
0001
0000
,
0100
0000
0010
0000
0100
0000
0010
0000
0100
0000
1000
0000
1001
0000
0000
1001
,
0000
0000
0100
0000
0010
0000
0100
0000
0010
0000
0100
0000
1010
0000
0000
1001
,
0000
0000
0000
0011
0000
0000
0101
0000
1010
0000
0101
0000
0110
0000
1001
0000
0101
0000
2002
0000
0000
0000
0000
0000
,
3003
0000
0000
0000
;

//---------------dance-single - ----------------
#NOTEDATA:;
#CHARTNAME:;
#STEPSTYPE:dance-single;
#DESCRIPTION:;
#CHARTSTYLE:;
#DIFFICULTY:Hard;
#METER:10;
#RADARVALUES:0.568017,0.684953,0.530150,0.933063,0.837636,375.000000,325.000000,50.000000,88.000000,0.000000,0.000000,0.000000,0.000000,0.000000,0.568017,0.684953,0.530150,0.933063,0.837636,375.000000,325.000000,50.000000,88.000000,0.000000,0.000000,0.000000,0.000000,0.000000;
#CREDIT:;
#NOTES:
// measure 0
0000
0000
0000
0000
,  // measure 1
0000
0000
0000
0000
,  // measure 2
0000
0000
0000
0000
,  // measure 3
0000
0000
0000
0000
0000
0000
0000
0000
0000
0000
0000
0000
0000
0000
0000
0000
0000
0000
0000
0000
0000
0000
0000
0000
0000
0000
0000
0000
0000
0000
0000
0000
0000
0000
0000
0000
0000
0000
0000
0000
0000
0000
0000
0000
0000
0000
0000
0000
0000
0000
0000
0000
0000
0000
0000
0000
0000
0000
0000
0000
0000
0000
0000
0000
0000
0000
0000
0000
0000
0000
0000
0000
0000
0000
0000
0000
0000
0000
0000
0000
0000
0000
0000
0000
0000
0000
0000
0000
0000
0000
0000
0000
0000
0000
0000
0000
0000
0000
0000
0000
0000
0000
0000
0000
0000
0000
0000
0000
0000
0000
0000
0000
0000
0000
0000
0000
0000
0000
0000
0000
0000
0000
0000
0000
0000
0000
0000
0000
0000
0000
0000
0000
0000
0000
0000
0000
0000
0000
0000
0000
0000
0000
0000
0000
0000
0010
0000
0000
0000
0000
0000
0000
0000
0000
0000
0000
0000
0000
0000
0000
0000
0000
0100
0000
0000
0000
0000
0000
0000
0000
0000
0000
0000
0000
0000
0000
0000
0000
0000
0000
0010
0000
0000
0000
0000
0000
0000
0000
0000
0000
0000
0000
,  // measure 4
0000
0001
0000
0100
0010
0100
1000
0100
0010
0001
0100
0010
0100
0010
0100
0010
,  // measure 5
0000
1001
0000
0100
0010
0100
0010
0100
1000
0100
0010
0001
2002
0000
3003
0220
,  // measure 6
0000
0330
1000
0100
0010
0100
0010
0100
0010
0100
0010
0001
2020
0000
3030
2020
,  // measure 7
0000
3030
0202
0000
0303
0100
0020
0030
2200
3300
0022
0033
1001
0000
0000
0000
,  // measure 8
0100
0000
0010
0000
0100
0000
0010
0000
0100
0001
1000
0000
0010
0100
0000
0000
,  // measure 9
0010
0000
0100
0000
0010
0000
0100
0000
0010
0100
0010
0001
1000
0000
0000
0000
,  // measure 10
0100
0000
0010
0000
1000
0000
0100
0010
0001
0010
0100
1000
0100
0000
0000
0000
,  // measure 11
0100
0000
0000
0000
0010
0000
0001
0000
1000
0000
0000
0000
0100
0000
0000
0000
0010
0000
0000
0000
0001
0000
1000
0000
0001
0000
0000
0000
0100
0010
0100
0000
,  // measure 12
0010
0000
1000
0000
0010
0001
0000
0100
0000
0000
0010
0000
0100
0000
0010
0000
0001
0000
1000
0000
0001
0000
0010
0100
0010
0100
0010
0000
0100
0000
1000
0100
,  // measure 13
0010
0000
0001
0000
1000
0000
0100
0000
0010
0000
0001
0000
1000
0000
0100
0000
0010
0000
0100
0000
0010
0001
0010
0100
2000
0000
3000
0000
0100
0000
0020
0000
,  // measure 14
0030
0100
0020
0000
0030
0002
0000
0003
2000
0000
3000
0100
2000
3000
0200
0300
,  // measure 15
0020
0030
0100
0020
0030
0200
0300
0001
1000
0001
1000
0001
2000
3000
1000
0200
,  // measure 16
0300
1000
0200
0000
0300
0020
0000
0030
0200
0000
0300
0010
0200
0300
0020
0030
,  // measure 17
0001
0100
0010
1000
0200
0000
0000
0300
0110
0000
0100
0010
0002
0003
2000
3000
,  // measure 18
0002
0003
2000
3000
0001
2000
0000
3000
0020
0030
0200
0300
0020
0030
0100
0002
,  // measure 19
0003
2000
3000
0200
0000
0000
0300
0010
0100
0010
0100
0010
0202
0000
0303
0010
,  // measure 20
2002
0000
3003
0000
0100
0000
0010
0000
0100
0000
1000
0000
0100
0000
0020
0000
0030
0000
0100
0000
0020
0000
0030
0000
0100
0010
0100
0000
0010
0100
0010
0000
,  // measure 21
1000
0000
0000
0000
0000
0000
0001
0000
0000
0000
0000
0000
1000
0000
0000
0000
0000
0000
0000
0000
0000
0000
0000
0000
0001
0000
0000
0000
0000
0000
1000
0000
0000
0000
0000
0000
0001
0000
0000
0000
0000
0000
0000
0000
0000
0000
0000
0000
0101
0000
0000
0000
0000
0000
0000
0000
0000
0000
0000
0000
0000
0000
0000
0000
1010
0000
0000
0000
0000
0000
0000
0000
0000
0000
0000
0000
0000
0000
0000
0000
0101
0000
0000
0000
0000
0000
0000
0000
0000
0000
0000
0000
0000
0000
0000
0000
0110
0000
0000
0000
0000
0000
0000
0000
0000
0000
0000
0000
0000
0000
0000
0000
0001
0000
0000
0000
0000
0000
0000
0000
0000
0000
0000
0000
0000
0000
0000
0000
1001
0000
0000
0000
0000
0000
0000
0000
0000
0000
0000
0000
0000
0000
0000
0000
1001
0000
0000
0000
0000
0000
0000
0000
0000
0000
0000
0000
0200
0000
0000
0000
0000
0000
0000
0000
0000
0000
0000
0000
0000
0000
0000
0000
0000
0000
0000
0000
0000
0000
0000
0000
0300
0000
0000
0000
0000
0000
0000
0000
0000
0000
0000
0000
,  // measure 22
0010
0200
0000
0300
0001
2000
0000
3000
0220
0000
0000
0330
1000
0200
0000
0300
,  // measure 23
0010
0200
0000
0300
0010
0200
0000
0300
2002
0000
0000
3003
1000
0002
0000
0003
,  // measure 24
1000
0002
0000
0003
0100
0020
0000
0030
0220
0000
0000
0330
1000
0200
0000
0300
,  // measure 25
0100
0000
0000
0020
0000
0000
0000
0000
0000
0000
0000
0000
0030
0000
0000
0000
0000
0000
0000
0000
0000
0000
0000
0000
1001
0000
0000
0000
1001
0000
0000
0000
1001
0000
0000
0000
1001
0000
0000
0000
0000
0000
0100
0000
0000
0000
0000
0000
,  // measure 26
0010
0100
0000
0000
0010
0000
0100
0000
1000
0100
0010
0001
0200
0000
0300
0002
,  // measure 27
0003
0000
0000
1000
0000
0000
0200
0000
0000
0300
0000
0000
0011
0000
0000
0000
1100
0000
0000
0000
0110
0000
0000
0000
0011
0000
0000
0000
1100
0000
0000
0000
0101
0000
0000
0000
0110
0000
0000
0000
0000
0000
1000
0000
0000
0000
0000
0000
,  // measure 28
0001
0000
1000
0000
0000
0000
0000
0000
0100
0000
0000
0000
0010
0000
0000
0000
0100
0000
0001
0000
1000
0000
0100
0000
1000
0100
2000
0000
3000
0000
0200
0000
,  // measure 29
0300
0000
0000
0000
0000
0000
0000
0000
0000
0000
0000
0000
0010
0000
0000
0000
0000
0000
0000
0000
0000
0000
0000
0000
0200
0000
0000
0000
0000
0000
0000
0000
0000
0000
0000
0000
0300
0000
0000
0000
0000
0000
0000
0000
0000
0000
0000
0000
0011
0000
0000
0000
0000
0000
0000
0000
0000
0000
0000
0000
0000
0000
0000
0000
1100
0000
0000
0000
0000
0000
0000
0000
0000
0000
0000
0000
0000
0000
0000
0000
0110
0000
0000
0000
0000
0000
0000
0000
0000
0000
0000
0000
0000
0000
0000
0000
0011
0000
0000
0000
0000
0000
0000
0000
0000
0000
0000
0000
0000
0000
0000
0000
1100
0000
0000
0000
0000
0000
0000
0000
0000
0000
0000
0000
0000
0000
0000
0000
0011
0000
0000
0000
0000
0000
0000
0000
0000
0000
0000
0000
0000
0000
0000
0000
1001
0000
0000
0000
0000
0000
0000
0000
0000
0000
0000
0000
0000
0000
0000
0000
0000
0000
0100
0000
0000
0000
0000
0000
0000
0000
0000
0000
0000
0000
0000
0000
0000
0000
0000
0000
0020
0000
0000
0000
0000
0000
0000
0000
0000
0000
0000
0000
,  // measure 30
0030
0200
0300
0010
0100
0010
1000
0100
0010
0001
0100
0010
0100
0010
0100
0020
,  // measure 31
0030
2000
3000
0100
0010
0100
0010
0001
1000
0100
0010
0100
0220
0000
0330
2002
,  // measure 32
0000
0000
3003
0000
0010
0000
0100
0000
0010
0000
0100
0000
1000
0000
0100
0000
0010
0000
0001
0000
1000
0000
0100
0000
0010
0100
0020
0000
0030
0000
0202
0000
,  // measure 33
0000
0000
0000
0303
0000
0000
2020
0000
0000
3030
0000
0000
0101
0000
0000
0000
1010
0000
0000
0000
1100
0000
0000
0000
0110
0000
0000
0000
0110
0000
0000
0000
0011
0000
0000
0000
2002
0000
0000
0000
0000
0000
0000
0000
0000
0000
0000
0000
,  // measure 34
3003
0000
0000
0000
;
