#TITLE:Fright Song;
#SUBTITLE:;
#ARTIST:Angela Duscio;
#TITLETRANSLIT:;
#SUBTITLETRANSLIT:;
#ARTISTTRANSLIT:;
#GENRE:Monster High;
#CREDIT:;
#BANNER:Fright Song.png;
#BACKGROUND:Fright Song-bg.png;
#LYRICSPATH:;
#CDTITLE:Monster High.png;
#MUSIC:Fright Song.ogg;
#OFFSET:0.006000;
#SAMPLESTART:40.743999;
#SAMPLELENGTH:12.000000;
#SELECTABLE:YES;
#DISPLAYBPM:120.000000;
#BPMS:0.000000=160.000000
,2.000000=120.000000
,77.000000=60.000000
,79.000000=120.000000
;
#STOPS:
;
#BGCHANGES:0.000=Fright Song.avi=1.000=0=0=0=StretchNoLoop====,
99999=-nosongbg-=1.000=0=0=0 // don't automatically add -songbackground-
;
#KEYSOUNDS:;
#ATTACKS:;

//---------------dance-single - ----------------
#NOTES:
     dance-single:
     :
     Beginner:
     1:
     0.040348,0.096836,0.010087,0.020174,0.000000,28.000000,27.000000,1.000000,2.000000,0.000000,0.000000,0.040348,0.096836,0.010087,0.020174,0.000000,28.000000,27.000000,1.000000,2.000000,0.000000,0.000000:
0000
0000
0000
0000
,
0000
0000
0000
0000
,
0000
0000
0000
0000
,
0000
0000
0000
0000
,
0000
0000
0000
1000
,
0000
0000
0000
0000
,
0000
0000
0001
0000
,
0000
0000
0000
0000
,
0000
0000
0100
0000
,
0000
0000
0000
0000
,
0000
0000
0010
0000
,
0000
0000
0000
0000
,
0000
0000
0100
0000
,
0000
0000
0100
0000
,
0000
0000
0100
0000
,
0000
0000
0100
0000
,
0000
0000
0010
0000
,
0000
0000
0010
0000
,
0000
0000
0010
0000
,
0000
2002
0000
3003
,
0100
0000
0000
0000
,
0000
0000
0000
0000
,
1000
0000
0000
0000
,
0000
0000
0000
0000
,
0100
0000
0000
0000
,
0000
0000
0000
0000
,
0010
0000
0000
0000
,
0000
0000
0000
0000
,
0001
0000
0000
0000
,
0000
0000
0000
0000
,
1000
0000
0000
0000
,
0000
0000
0000
0000
,
0001
0000
0000
0000
,
0000
0000
0000
0000
,
1000
0000
0000
0000
,
0000
0000
0000
0000
,
0100
0000
0000
0000
,
0000
0000
0000
0000
,
0010
0000
0000
0000
,
0000
0000
0000
0000
,
0001
0000
0000
0000
,
0000
0000
0000
0000
,
1000
0000
0000
0000
,
0000
0000
0000
0000
,
0100
0000
0000
0000
,
0000
0000
0000
0000
,
0010
0000
0000
0000
,
0000
0000
0000
0000
,
0100
0000
0000
0000
;

//---------------dance-single - ----------------
#NOTES:
     dance-single:
     :
     Easy:
     2:
     0.122486,0.193671,0.010087,0.020174,0.000000,85.000000,84.000000,1.000000,2.000000,0.000000,0.000000,0.122486,0.193671,0.010087,0.020174,0.000000,85.000000,84.000000,1.000000,2.000000,0.000000,0.000000:
0000
0000
0000
0000
,
0000
0000
0000
0000
,
0000
0000
0000
0000
,
0000
0000
0000
0000
,
0000
0000
0100
0000
,
0000
0000
0010
0000
,
0000
0000
0100
0000
,
0000
0000
0001
0000
,
0000
0000
1000
0000
,
0000
0000
1000
0000
,
0000
0000
0001
0000
,
0000
0000
0001
0000
,
0000
0000
0100
0000
,
0000
0000
0010
0000
,
0000
0000
0100
0000
,
0000
0000
0100
0000
,
0000
0000
0001
0000
,
0000
0000
1000
0000
,
0000
0000
0001
0000
,
0000
0000
0000
2000
0000
0000
3000
0000
,
0100
0000
0100
0000
,
0010
0000
0010
0000
,
1000
0100
0010
0001
,
0010
0100
1000
0000
,
0100
0000
1000
0000
,
0100
0000
1000
0000
,
0001
0010
0100
1000
,
0100
0010
0001
0000
,
0100
0000
0010
0000
,
0100
0100
0100
0000
,
1000
0000
0001
0000
,
1000
1000
1000
0000
,
0100
0000
0010
0000
,
0001
0001
0001
0000
,
0100
0000
1000
0000
,
0010
2000
0000
3000
,
0100
0000
0010
0000
,
0100
0001
1000
0001
,
0100
0000
0010
0000
,
0100
0010
1000
0100
,
0001
0000
0100
0000
,
0010
0000
0100
0000
,
1000
0100
1000
0000
,
0010
0100
0010
0000
,
1000
0000
0000
0000
,
0001
0000
0000
0000
,
1000
0000
0000
0000
,
0100
0000
0000
0000
,
1001
0000
0000
0000
;

//---------------dance-single - ----------------
#NOTES:
     dance-single:
     :
     Medium:
     4:
     0.306935,0.363134,0.030261,0.161393,0.030261,213.000000,210.000000,3.000000,16.000000,0.000000,0.000000,0.306935,0.363134,0.030261,0.161393,0.030261,213.000000,210.000000,3.000000,16.000000,0.000000,0.000000:
0000
0000
0000
0000
,
0000
0000
0000
0000
,
0000
0000
0000
0000
,
0000
0000
0000
0000
,
0000
0000
0100
0000
,
1000
0000
0100
0000
,
0010
0000
0100
0000
,
0010
0000
0001
0000
,
0010
0000
0001
0000
,
0100
0000
0010
0000
,
1000
0000
0100
0000
,
1000
0000
0100
0000
,
1000
0000
0100
0100
,
0100
0000
0010
0010
,
0010
0000
0001
1000
,
0001
1000
0100
1000
,
0100
1000
0100
0100
,
0100
0000
1000
1000
,
1000
0000
0100
0010
,
0001
0000
0000
0000
0100
0010
0100
0000
0010
0000
2002
0000
3003
0000
0000
0000
,
0100
0010
0100
0010
0001
0000
1000
0100
,
1000
0000
0100
0010
0001
0100
0010
0000
,
0100
0000
0010
0000
0100
0000
1000
0100
,
0010
0000
0001
0000
0100
0010
0100
0010
,
1000
0100
0010
0100
0010
0000
0001
0100
,
0010
0000
1000
0100
0010
0001
0100
0000
,
0100
0010
1000
0001
1000
0000
0100
0010
,
0100
0000
0010
0000
0001
0100
0010
1000
,
0100
0000
1000
0000
0100
1000
0100
0000
,
0001
0000
0100
0000
0010
0100
0010
0000
,
0100
0000
0001
0000
0100
0010
1000
0000
,
0100
0000
0010
0000
0100
0010
1001
0000
,
0100
0010
0100
0010
0001
0000
0100
0010
,
1000
0000
0000
0000
0100
0000
0010
0000
0100
0000
0010
1000
0000
0000
0000
0000
,
0100
0010
0001
1000
0200
0300
0010
1000
,
0200
0000
0300
0000
0100
0010
0001
1000
,
1000
0100
0010
0100
0010
0000
0100
0010
,
1000
0000
0100
0010
0100
0010
0001
0000
,
1000
0100
0010
0100
0010
0000
0100
0010
,
0001
0000
0100
0000
1000
0100
0010
0100
,
0010
0001
0100
0000
0010
0100
0010
0000
,
0100
0010
0001
0000
0100
0010
1000
0000
,
0100
0010
0001
0000
0100
0010
0100
0000
,
0010
1000
0100
0000
0010
0100
0010
0000
,
0002
0003
2000
3000
0002
0003
0200
0300
,
0020
0000
0000
0030
0000
0000
0200
0000
0000
0300
0000
0000
0002
0000
0000
0003
0100
0000
1000
0000
0000
0000
0100
0000
,
0002
0003
0200
0300
0020
0030
0200
0300
,
0020
0000
0000
0030
0000
0000
1000
0000
0000
0000
0000
0000
1000
0000
0000
0000
0001
0000
1000
0000
0000
0000
0001
0000
,
0110
0000
0000
0000
;

//---------------dance-single - ----------------
#NOTES:
     dance-single:
     :
     Hard:
     7:
     0.455358,0.459970,0.464004,0.353047,0.035305,316.000000,270.000000,46.000000,35.000000,3.000000,0.000000,0.455358,0.459970,0.464004,0.353047,0.035305,316.000000,270.000000,46.000000,35.000000,3.000000,0.000000:
// measure 0
0000
0000
0000
0000
,  // measure 1
0000
0000
0000
0000
,  // measure 2
0000
0000
0000
0000
,  // measure 3
0000
0000
0000
0000
,  // measure 4
0000
0000
0000
0000
0100
0000
0010
0100
,  // measure 5
0010
0001
1000
0001
0100
0000
0200
0000
,  // measure 6
0300
0000
0100
0020
0030
0000
1000
0010
,  // measure 7
0100
0010
0001
0100
0010
1000
0000
0100
,  // measure 8
1010
0000
0101
0000
1001
0000
1010
0100
,  // measure 9
0010
0001
0100
0010
0200
0300
0020
0030
,  // measure 10
2000
0000
3000
0001
0100
0010
0100
0010
,  // measure 11
0001
0100
0010
1000
0100
0010
0200
0000
,  // measure 12
0000
0300
0000
0100
0010
1000
0001
0200
,  // measure 13
0300
0010
0100
0020
0030
0001
1000
0200
,  // measure 14
0300
0010
0100
0010
0001
0100
0020
0030
,  // measure 15
1000
0000
0001
0100
0010
0000
0002
0003
,  // measure 16
1000
0000
0001
0100
0010
0100
0010
0002
,  // measure 17
0003
0100
0010
2000
3000
0100
0010
0002
,  // measure 18
0003
1000
0100
0001
1000
0001
0200
0300
,  // measure 19
0010
0000
0000
0000
0100
0010
2002
3003
0220
0330
2002
0000
3003
0000
0000
0000
,  // measure 20
M1MM
0010
0100
1000
0200
0300
0010
0001
,  // measure 21
0200
0300
0010
0001
0100
0010
2000
3000
,  // measure 22
0100
0010
0001
1000
0101
0000
0100
0010
,  // measure 23
1001
0000
1010
0000
0100
0010
0001
0100
,  // measure 24
0010
1000
0100
0010
0101
0000
0100
0010
,  // measure 25
1010
0000
0001
0100
0010
0100
1010
0000
,  // measure 26
0100
1000
0100
0001
1100
0000
0001
1000
,  // measure 27
0101
0000
1010
0001
0100
0010
0001
0100
,  // measure 28
0010
0100
0010
0100
0010
0100
0110
0000
,  // measure 29
1000
0000
0001
0000
1000
0000
0001
0000
1000
0000
0001
1001
0000
0000
0000
0000
,  // measure 30
0100
0010
0100
1000
0100
0010
0101
0000
,  // measure 31
0010
0100
0010
1000
0100
0010
1001
0000
,  // measure 32
0100
0010
0100
0010
0100
0000
1001
0100
,  // measure 33
0110
0000
0000
0000
1000
0000
0001
0000
1000
0000
0100
1001
0000
0000
0000
0000
,  // measure 34
0100
0010
1000
0100
0020
0030
0001
1000
,  // measure 35
0002
0003
0200
0300
0010
0100
0010
0001
,  // measure 36
0100
0010
0100
1000
2002
3003
0100
0010
,  // measure 37
0220
0330
0001
0100
0001
0100
0101
0000
,  // measure 38
0100
1000
0100
0001
0200
0300
0010
0100
,  // measure 39
2000
3000
1001
0010
0100
0010
0100
0010
,  // measure 40
1000
0100
0022
0033
0100
0010
1001
0000
,  // measure 41
0100
0010
1001
0000
0100
1000
1100
0000
,  // measure 42
0100
0010
0110
0000
0100
0010
0101
0000
,  // measure 43
0010
0100
0110
0000
1000
0001
1001
0000
,  // measure 44
0100
1001
0100
0110
,  // measure 45
0001
0000
0000
1001
0000
0000
0100
0000
0101
0010
0000
1100
,  // measure 46
0010
1100
0001
0101
,  // measure 47
0010
0000
0000
1100
0000
0000
0001
0000
1100
0001
0000
1001
,  // measure 48
0110
0000
0000
0000
;

//---------------dance-solo - ----------------
#NOTES:
     dance-solo:
     :
     Hard:
     8:
     0.455358,0.484178,0.464004,0.605223,0.035305,316.000000,270.000000,46.000000,60.000000,9.000000,0.000000,0.455358,0.484178,0.464004,0.605223,0.035305,316.000000,270.000000,46.000000,60.000000,9.000000,0.000000:
000000
000000
000000
000000
,
000000
000000
000000
000000
,
000000
000000
000000
000000
,
000000
000000
000000
000000
,
000000
000000
000000
000000
000000
000000
001000
000100
,
001000
000100
001000
010000
020000
030000
000020
000030
,
000000
000000
200020
000000
300030
000000
010000
001000
,
010000
001000
000100
000010
001000
000200
000300
001000
,
000200
000300
020200
030300
020020
030030
001000
000100
,
001000
010000
100000
010000
002000
003000
000020
000030
,
020000
000000
030000
001000
000100
010000
001000
000100
,
000010
000001
010000
001000
010000
100000
020000
000000
,
030000
000000
010000
001000
000100
000010
001000
020000
,
030000
001000
000010
002000
003000
100000
010000
002000
,
003000
000100
010000
001000
000200
000300
002020
003030
,
001000
000000
000001
000100
200000
300000
002020
003030
,
010000
000000
001100
000100
010000
001000
000010
000200
,
000300
001000
000100
000002
000003
001000
000100
002000
,
003000
010000
001000
000100
010000
001000
000020
000030
,
010000
000000
000000
000000
000100
000010
020000
030000
020020
030030
200002
000000
000000
300003
000000
000000
,
M1MMMM
000000
001000
000000
010000
000000
001000
000000
020000
000000
000000
030000
000100
000000
000010
000000
,
000200
000000
000300
000000
000010
000000
000100
000000
000010
000000
000001
000000
000020
000000
000000
000030
,
000100
000010
000100
001000
002000
003000
010000
001000
,
200000
000000
000000
300000
010000
000000
000100
000000
001000
000000
010000
000000
001000
000000
000100
000000
,
010000
001000
000100
010000
002000
003000
000100
010000
,
000200
000300
001000
000010
010000
000010
002000
003000
,
000100
100000
000100
010000
000200
000300
001000
000010
,
020000
030000
010010
000100
001000
000100
000100
000010
,
010010
000100
000010
000100
000010
000100
000110
000000
,
001000
000000
000010
000000
001000
000000
000010
000000
001000
000000
000010
001010
000000
000000
000000
000000
,
001000
100000
001000
100000
001000
100000
001100
000000
,
000001
000010
000001
000010
000001
000010
000101
000000
,
010000
001000
010000
001000
020200
030300
001000
000100
,
002020
000000
003030
000000
000001
000000
001000
000000
000100
000000
001000
000011
000000
000000
000000
000000
,
001000
000100
001000
000100
200020
300030
001000
000100
,
220000
330000
001010
000100
010000
000010
001000
000100
,
010010
001000
000100
001000
002200
003300
001000
000100
,
002020
000000
003000
000030
000100
000000
100000
000000
010000
000000
001000
000000
022000
000000
033000
000000
,
001000
000010
010000
001000
000202
000303
001000
000100
,
000022
000033
001000
000100
010000
000100
001000
000100
,
000010
010000
000110
000000
010000
001000
010010
000000
,
001000
010000
011000
000000
100000
010000
110000
000000
,
010000
001000
011000
000000
001000
000010
001010
000000
,
000001
001000
001010
000000
010000
011000
010100
000000
,
010000
010010
001000
100010
,
010000
000000
000000
100010
000000
000000
001000
000000
010010
000001
000000
001010
,
000100
000011
001000
001001
,
010000
000000
000000
000110
000000
000000
000010
000000
001001
000100
000000
010010
,
MM11MM
000000
000000
000000
;
