#VERSION:0.83;
#TITLE:Familia;
#SUBTITLE:;
#ARTIST:Juice=Juice;
#TITLETRANSLIT:;
#SUBTITLETRANSLIT:;
#ARTISTTRANSLIT:;
#GENRE:J-Pop;
#ORIGIN:;
#CREDIT:;
#BANNER:Familia.png;
#BACKGROUND:Familia-bg.png;
#PREVIEWVID:;
#JACKET:Familia-jacket.png;
#CDIMAGE:;
#DISCIMAGE:;
#LYRICSPATH:;
#CDTITLE:Wrland Season 2.png;
#MUSIC:Familia.ogg;
#OFFSET:-0.000000;
#SAMPLESTART:31.792999;
#SAMPLELENGTH:12.000000;
#SELECTABLE:YES;
#DISPLAYBPM:50.000000:100.000000;
#BPMS:0.000=100.021,
196.021=50.010;
#STOPS:1.000=0.600,
2.000=0.600,
3.000=0.600,
6.000=0.600,
7.000=0.600,
8.000=0.600,
9.000=0.600,
128.000=0.600,
196.000=0.600;
#DELAYS:;
#WARPS:;
#TIMESIGNATURES:0.000=4=4;
#TICKCOUNTS:0.000=4;
#COMBOS:0.000=1;
#SPEEDS:0.000=1.000=0.000=0;
#SCROLLS:0.000=1.000;
#FAKES:;
#LABELS:0.000=Song Start;
#BGCHANGES:0.000=Familia (SD).avi=1.000=0=0=0=StretchNoLoop====,
99999=-nosongbg-=1.000=0=0=0 // don't automatically add -songbackground-
;
#KEYSOUNDS:;
#ATTACKS:
;

//---------------dance-single - ----------------
#NOTEDATA:;
#CHARTNAME:;
#STEPSTYPE:dance-single;
#DESCRIPTION:;
#CHARTSTYLE:;
#DIFFICULTY:Beginner;
#METER:1;
#RADARVALUES:0.066446,0.132769,0.083874,0.015250,0.011437,61.000000,50.000000,11.000000,2.000000,0.000000,0.000000,0.000000,0.000000,0.000000,0.066446,0.132769,0.083874,0.015250,0.011437,61.000000,50.000000,11.000000,2.000000,0.000000,0.000000,0.000000,0.000000,0.000000;
#CREDIT:;
#DISPLAYBPM:50.000000:100.000000;
#NOTES:
0000
0000
0000
0000
,
0000
0000
0000
0000
,
0000
0000
0000
0000
0000
0000
0000
0000
0000
0000
0000
0000
0000
0000
0000
0000
0000
0000
0000
0000
0000
0000
0000
0000
0000
0000
0000
0000
0000
0000
0000
0000
0000
0000
0000
0000
0000
0000
0000
0000
0000
0000
0000
0000
0000
0000
0000
0000
0000
1000
0000
0000
0000
0000
0000
0000
0000
0000
0000
0000
0000
0000
0000
0000
0000
0000
0000
0000
0000
0000
0000
0000
0000
0000
0000
0000
0000
0000
0000
0000
0000
0000
0000
0000
0000
0000
0000
0000
0000
0000
0000
0000
0000
0000
0000
0000
0000
0000
0000
0000
0000
0000
0000
0000
0000
0000
0000
0000
0000
0000
0000
0000
0000
0000
0000
0000
0000
0000
0000
0000
0000
0000
0000
0000
0000
0000
0000
0000
0000
0000
0000
0000
0000
0000
0000
0000
0000
0000
0000
0000
0000
0000
0000
0000
0000
0000
0000
0000
0000
0000
0000
0000
0000
0000
0000
0000
0000
0000
0000
0000
0000
0000
0000
0000
0000
0000
0000
0000
0000
0000
0000
0000
0000
0000
0000
0000
0000
0000
0000
0000
0000
0000
0000
0000
0000
0000
0000
0000
0000
0000
0000
0000
,
0000
0001
0000
0000
,
0000
1000
0000
0000
,
0000
0001
0000
0000
,
0000
0100
0000
0000
,
0000
0010
0000
0000
,
0000
0100
0000
0000
,
0000
0010
0000
0000
,
0000
0110
0000
0000
,
1001
0110
0000
0000
,
0000
0010
0000
0000
,
0000
0100
0000
0000
,
0000
0010
0000
0000
,
0000
0001
0000
0000
,
0000
0010
0000
0000
,
0000
0100
0000
0000
,
0000
0010
0000
0000
,
0000
1000
0000
0000
,
0000
1001
0000
0000
0000
0000
0000
0000
,
0000
0010
0000
0000
,
0000
1001
0000
0000
,
0000
1000
0000
0000
,
0000
0100
0000
0000
,
0000
1000
0000
0000
,
0000
0101
0000
0000
,
0000
0010
0000
0000
,
0000
0001
0000
0000
,
0000
0100
0000
0000
,
0000
0010
0000
0000
,
0000
1000
0000
0000
,
1001
0110
0000
0000
0000
0000
0000
0000
0000
0000
0000
0000
0000
0000
0000
0000
0000
0000
0000
0000
0000
0000
0000
0000
0000
0000
0000
0000
0000
0000
0000
0000
0000
0000
0000
0000
0000
0000
0000
0000
0000
0000
0000
0000
0000
0000
0000
0000
0000
0000
0000
0000
0000
0000
0000
0000
0000
0000
0000
0000
0000
0000
0000
0000
0000
0000
0000
0000
0000
0000
0000
0000
0000
0000
0000
0000
0000
0000
0000
0000
0000
0000
0000
0000
0000
0000
0000
0000
0000
0000
0000
0000
0000
0000
0000
0000
0000
0000
0000
0000
0000
0000
0000
0000
0000
0000
0000
0000
0000
0000
0000
0000
0000
0000
0000
0000
0000
0000
0000
0000
0000
0000
0000
0000
0000
0000
0000
0000
0000
0000
0000
0000
0000
0000
0000
0000
0000
0000
0000
0000
0000
0000
0000
0000
0000
0000
0000
0000
0000
0000
0000
0000
0000
0000
0000
0000
0000
0000
0000
0000
0000
0000
0000
0000
0000
0000
0000
0000
0000
0000
0000
0000
0000
0000
0000
0000
0000
0000
0000
0000
0000
0000
0000
0000
0000
0000
0000
0000
0000
0000
0000
0000
,
1000
0000
0000
0000
,
0100
0000
0000
0000
,
0010
0000
0000
0000
,
0101
0000
0000
0000
,
0010
0000
0000
0000
,
0001
0000
0000
0000
,
0010
0000
0000
0000
,
1000
0000
0000
0000
,
0100
0000
0000
0000
,
0010
0000
0000
0000
,
0100
0000
0000
0000
,
0001
0000
0000
0000
,
0100
0000
0000
0000
,
0010
0000
0000
0000
,
0100
0000
0000
0000
,
1001
0000
0000
0000
,
0000
2002
0000
0000
0000
0000
0000
0000
0000
0000
0000
0000
0000
0000
0000
0000
0000
0000
0000
0000
0000
0000
0000
0000
0000
0000
0000
0000
0000
0000
0000
0000
0000
0000
0000
0000
0000
0000
0000
0000
0000
0000
0000
0000
0000
0000
0000
0000
0000
0000
0000
0000
0000
0000
0000
0000
0000
0000
0000
0000
0000
0000
0000
0000
0000
0000
0000
0000
0000
0000
0000
0000
0000
0000
0000
0000
0000
0000
0000
0000
0000
0000
0000
0000
0000
0000
0000
0000
0000
0000
0000
0000
0000
0000
0000
0000
0000
0000
0000
0000
0000
0000
0000
0000
0000
0000
0000
0000
0000
0000
0000
0000
0000
0000
0000
0000
0000
0000
0000
0000
0000
0000
0000
0000
0000
0000
0000
0000
0000
0000
0000
0000
0000
0000
0000
0000
0000
0000
0000
0000
0000
0000
0000
0000
3003
0000
0000
0000
0000
0000
0000
0000
0000
0000
0000
0000
0000
0000
0000
0000
0000
0000
0000
0000
0000
0000
0000
0000
0000
0000
0000
0000
0000
0000
0000
0000
0000
0000
0000
0000
0000
0000
0000
0000
0000
0000
0000
0000
0000
0000
0000
0000
;

//---------------dance-single - ----------------
#NOTEDATA:;
#CHARTNAME:;
#STEPSTYPE:dance-single;
#DESCRIPTION:;
#CHARTSTYLE:;
#DIFFICULTY:Easy;
#METER:3;
#RADARVALUES:0.120909,0.170703,0.091499,0.015250,0.015250,111.000000,99.000000,12.000000,2.000000,0.000000,0.000000,0.000000,0.000000,0.000000,0.120909,0.170703,0.091499,0.015250,0.015250,111.000000,99.000000,12.000000,2.000000,0.000000,0.000000,0.000000,0.000000,0.000000;
#CREDIT:;
#DISPLAYBPM:50.000000:100.000000;
#NOTES:
0000
0000
0000
0000
,
0000
0000
0000
0000
,
0000
0000
0000
0000
0000
0000
0000
0000
0000
0000
0000
0000
0000
0000
0000
0000
0000
0000
0000
0000
0000
0000
0000
0000
0000
0000
0000
0000
0000
0000
0000
0000
0000
0000
0000
0000
0000
0000
0000
0000
0000
0000
0000
0000
0000
0000
0000
0000
0000
1000
0000
0000
0000
0000
0000
0000
0000
0000
0000
0000
0000
0000
0000
0000
0000
0000
0000
0000
0000
0000
0000
0000
0000
0000
0000
0000
0000
0000
0000
0000
0000
0000
0000
0000
0000
0000
0000
0000
0000
0000
0000
0000
0000
0000
0000
0000
0000
0000
0000
0000
0000
0000
0000
0000
0000
0000
0000
0000
0000
0000
0000
0000
0000
0000
0000
0000
0000
0000
0000
0000
0000
0000
0000
0000
0000
0000
0000
0000
0000
0000
0000
0000
0000
0000
0000
0000
0000
0000
0000
0000
0000
0000
0000
0000
1000
0000
0000
0000
0000
0000
0000
0000
0000
0000
0000
0000
0000
0000
0000
0000
0000
0000
0000
0000
0000
0000
0000
0000
0000
0000
0000
0000
0000
0000
0000
0000
0000
0000
0000
0000
0000
0000
0000
0000
0000
0000
0000
0000
0000
0000
0000
0000
,
0000
0001
0000
0001
,
0000
0100
0000
0100
,
0000
0010
0000
0010
,
0000
0001
0000
0100
,
0000
0001
0000
0100
,
0000
0010
0000
1000
,
0000
0010
0000
1000
,
0000
0100
0000
0000
,
1001
0010
0000
0100
,
0000
0010
0000
0100
,
0000
0010
0000
0001
,
0000
1000
0000
0100
,
0000
1001
0000
0010
,
0000
0100
0000
1000
,
0000
0100
0000
0010
,
0000
0100
0000
0001
,
0000
0010
0000
0001
,
0000
1001
0000
0000
0000
0000
0000
0000
,
0100
0000
0110
0000
0000
0010
0000
0000
,
0100
1000
0000
0100
,
0000
0010
0000
0100
,
0000
0010
0000
0001
,
0000
0100
0000
0010
,
0000
0110
0000
1000
,
0000
0100
0000
1000
,
0000
0001
0000
0010
,
0000
0000
0100
0000
0000
0110
0000
0000
,
0000
0000
0100
0000
0000
1100
0000
0000
,
0000
0110
0000
0000
,
1001
0110
0000
0000
0000
0000
0000
0000
0000
0000
0000
0000
0000
0000
0000
0000
0000
0000
0000
0000
0000
0000
0000
0000
0000
0000
0000
0000
0000
0000
0000
0000
0000
0000
0000
0000
0000
0000
0000
0000
0000
0000
0000
0000
0000
0000
0000
0000
0000
0000
0000
0000
0000
0000
0000
0000
0000
0000
0000
0000
0000
0000
0000
0000
0000
0000
0000
0000
0000
0000
0000
0000
0000
0000
0000
0000
0000
0000
0000
0000
0000
0000
0000
0000
0000
0000
0000
0000
0000
0000
0000
0000
0000
0000
0000
0000
1000
0000
0000
0000
0000
0000
0000
0000
0000
0000
0000
0000
0000
0000
0000
0000
0000
0000
0000
0000
0000
0000
0000
0000
0000
0000
0000
0000
0000
0000
0000
0000
0000
0000
0000
0000
0000
0000
0000
0000
0000
0000
0000
0000
0000
0000
0000
0000
0000
0000
0000
0000
0000
0000
0000
0000
0000
0000
0000
0000
0000
0000
0000
0000
0000
0000
0000
0000
0000
0000
0000
0000
0000
0000
0000
0000
0000
0000
0000
0000
0000
0000
0000
0000
0000
0000
0000
0000
0000
0000
0000
0000
0000
0000
0000
0000
,
0100
0000
1000
0000
,
0010
0000
0010
0000
,
0100
0000
0100
0000
,
0101
0000
0010
0000
,
0001
0000
0010
0000
,
1000
0000
0100
0000
,
1000
0000
0010
0000
,
0100
0000
0100
0000
,
0010
0000
0001
0000
,
1000
0000
0100
0000
,
0010
0000
1000
0000
,
0001
0000
1000
0000
,
0001
0000
1000
0000
,
0100
0000
0000
0000
0000
0000
0010
0000
0000
0000
0000
0000
0100
0000
0000
0010
,
0000
0000
0100
0001
0000
0000
1000
0000
,
0001
0000
0100
0000
,
0000
2002
0000
0000
0000
0000
0000
0000
0000
0000
0000
0000
0000
0000
0000
0000
0000
0000
0000
0000
0000
0000
0000
0000
0000
0000
0000
0000
0000
0000
0000
0000
0000
0000
0000
0000
0000
0000
0000
0000
0000
0000
0000
0000
0000
0000
0000
0000
0000
0000
0000
0000
0000
0000
0000
0000
0000
0000
0000
0000
0000
0000
0000
0000
0000
0000
0000
0000
0000
0000
0000
0000
0000
0000
0000
0000
0000
0000
0000
0000
0000
0000
0000
0000
0000
0000
0000
0000
0000
0000
0000
0000
0000
0000
0000
0000
0000
0000
0000
0000
0000
0000
0000
0000
0000
0000
0000
0000
0000
0000
0000
0000
0000
0000
0000
0000
0000
0000
0000
0000
0000
0000
0000
0000
0000
0000
0000
0000
0000
0000
0000
0000
0000
0000
0000
0000
0000
0000
0000
0000
0000
0000
0000
0000
3003
0000
0000
0000
0000
0000
0000
0000
0000
0000
0000
0000
0000
0000
0000
0000
0000
0000
0000
0000
0000
0000
0000
0000
0000
0000
0000
0000
0000
0000
0000
0000
0000
0000
0000
0000
0000
0000
0000
0000
0000
0000
0000
0000
0000
0000
0000
0000
;

//---------------dance-single - ----------------
#NOTEDATA:;
#CHARTNAME:;
#STEPSTYPE:dance-single;
#DESCRIPTION:;
#CHARTSTYLE:;
#DIFFICULTY:Medium;
#METER:5;
#RADARVALUES:0.307175,0.322439,0.060999,0.182998,0.144873,282.000000,274.000000,8.000000,24.000000,0.000000,0.000000,0.000000,0.000000,0.000000,0.307175,0.322439,0.060999,0.182998,0.144873,282.000000,274.000000,8.000000,24.000000,0.000000,0.000000,0.000000,0.000000,0.000000;
#CREDIT:;
#DISPLAYBPM:50.000000:100.000000;
#NOTES:
0000
0000
0000
0000
,
0000
0000
0000
0000
,
0000
0000
0000
0000
0000
0000
0000
0000
0000
0000
0000
0000
0000
0000
0000
0000
0000
0000
0000
0000
0000
0000
0000
0000
0000
0000
0000
0000
0000
0000
0000
0000
0000
0000
0000
0000
0000
0000
0000
0000
0000
0000
0000
0000
0000
0000
0000
0000
0000
0010
0000
0000
0000
0000
0000
0000
0000
0000
0000
0000
0000
0000
0000
0000
0000
0000
0000
0000
0000
0000
0000
0000
0000
0000
0000
0000
0000
0000
0000
0000
0000
0000
0000
0000
0000
0000
0000
0000
0000
0000
0000
0000
0000
0000
0000
0000
0100
0000
0000
0000
0000
0000
0000
0000
0000
0000
0000
0000
0000
0000
0000
0000
0000
0000
0000
0000
0000
0000
0000
0000
0000
0000
0000
0000
0000
0000
0000
0000
0000
0000
0000
0000
0000
0000
0000
0000
0000
0000
0000
0000
0000
0000
0000
0000
0100
0000
0000
0000
0000
0000
0000
0000
0000
0000
0000
0000
0000
0000
0000
0000
0000
0000
0000
0000
0000
0000
0000
0000
0000
0000
0000
0000
0000
0000
0000
0000
0000
0000
0000
0000
0000
0000
0000
0000
0000
0000
0000
0000
0000
0000
0000
0000
,
0010
0100
0010
0001
,
1000
0100
0010
0100
,
0010
0001
0010
0001
,
1000
0100
0010
0100
,
0010
0001
1000
0100
,
1001
0100
0010
0100
,
0010
0001
0100
0010
,
1000
1000
0100
0010
,
0110
0000
0000
0000
1000
0000
0100
0000
0010
0000
0001
0000
0100
0000
0000
0001
,
0000
0000
0200
0000
0300
0000
1000
0000
0100
0000
0001
0000
0100
0000
0010
0100
,
0000
1000
0200
0000
0300
0000
0000
0000
0100
0000
0010
0000
0001
0000
0100
0010
,
0000
0000
0000
1000
0100
0000
0010
0000
0100
0000
0002
0000
0003
0000
1000
0100
,
0000
0010
0100
0000
1010
0000
0000
0000
0100
0000
0010
0000
0100
0000
0000
0010
,
0000
0000
0002
0000
0003
0000
1000
0000
0100
0000
0010
0000
0001
0000
0100
0010
,
0000
0100
0020
0000
0030
0000
0000
0000
0100
0000
0010
0000
0001
0000
1000
0100
,
0000
0000
0000
0100
0010
0000
0100
0000
0010
0000
0002
0000
0003
0000
0000
0000
,
1000
0100
0001
0000
0100
0000
0010
0000
,
0100
0020
0000
0030
0100
0000
0010
0000
,
0001
0000
1000
0100
0010
0200
0000
0300
,
1001
0000
0000
0000
0100
0000
0000
0000
0010
0000
0100
0000
0010
0000
0000
0100
,
0000
0000
0002
0000
0003
0000
1000
0000
0100
0000
0010
0000
0100
0000
0010
0100
,
0000
0001
0200
0000
0300
0000
0000
0000
1000
0000
0100
0000
0001
0000
0100
0010
,
0000
0000
0000
0100
0010
0000
0100
0000
1000
0000
0100
0000
0000
0000
0100
0010
,
0000
0001
0200
0000
0300
0000
0000
0000
1000
0000
0100
0000
0010
0000
0000
0100
,
0001
0000
0000
0100
0010
0000
1000
0000
0100
0000
0010
0000
0100
0000
0001
0000
,
0010
0000
1000
0000
0200
0000
0300
0000
1000
0000
0010
0000
0001
0000
0100
0010
,
0000
0000
0000
0000
0010
0000
0001
0000
1000
0000
0200
0000
0300
0000
0000
0001
,
0100
0000
0010
0100
1000
0200
0300
0010
,
0200
0300
0001
1000
0100
0020
0000
0030
,
1001
0110
0000
0000
0000
0000
0000
0000
0000
0000
0000
0000
0000
0000
0000
0000
0000
0000
0000
0000
0000
0000
0000
0000
0000
0000
0000
0000
0000
0000
0000
0000
0000
0000
0000
0000
0000
0000
0000
0000
0000
0000
0000
0000
0000
0000
0000
0000
0100
0000
0000
0000
0000
0000
0000
0000
0000
0000
0000
0000
0000
0000
0000
0000
0000
0000
0000
0000
0000
0000
0000
0000
0010
0000
0000
0000
0000
0000
0000
0000
0000
0000
0000
0000
0000
0000
0000
0000
0000
0000
0000
0000
0000
0000
0000
0000
1000
0000
0000
0000
0000
0000
0000
0000
0000
0000
0000
0000
0000
0000
0000
0000
0000
0000
0000
0000
0000
0000
0000
0000
0000
0000
0000
0000
0000
0000
0000
0000
0000
0000
0000
0000
1000
0000
0000
0000
0000
0000
0000
0000
0000
0000
0000
0000
0000
0000
0000
0000
0000
0000
0000
0000
0000
0000
0000
0000
0000
0000
0000
0000
0000
0000
0000
0000
0000
0000
0000
0000
0002
0000
0000
0000
0000
0000
0000
0000
0000
0000
0000
0000
0000
0000
0000
0000
0000
0000
0000
0000
0000
0000
0000
0000
,
0000
0000
0003
0000
0100
0000
0010
0000
0100
0000
0000
0100
0000
0000
0020
0000
,
0000
0000
0030
0000
0001
0000
0100
0000
0001
0000
0000
0100
0000
0000
0100
0000
,
0010
0100
1000
0100
0010
0001
0100
0010
,
0100
0000
0000
0000
0100
0000
0010
0000
0001
0000
0000
0001
0000
0000
2000
0000
,
3000
0000
0000
0000
1000
0000
0001
0000
1000
0000
0000
1000
0000
0000
0200
0000
,
0000
0000
0300
0000
1000
0000
0001
0000
0100
0000
0000
0010
0000
0000
0100
0000
,
0010
0001
1000
0010
0100
0010
0001
1000
,
0100
0000
0000
0000
0100
0000
0001
0000
1000
0000
0000
0010
0000
0000
0200
0000
,
0000
0000
0300
0000
0010
0000
0100
0000
1000
0000
0000
0100
0000
0000
0001
0000
,
0100
0000
0000
0000
0010
0000
0100
0000
0010
0000
0000
0100
0000
0000
1000
0000
,
0100
0010
0001
0100
0010
0100
0010
0001
,
1000
0000
0000
0000
0100
0000
0010
0000
0100
0000
0000
0001
0000
0000
2000
0000
,
0000
0000
3000
0000
0100
0000
0010
0000
0100
0000
0000
0010
0000
0000
0001
0000
,
0100
0000
0010
0000
1000
0000
0001
0000
0100
0000
0010
0000
1000
0000
0000
0001
,
0000
0000
0100
0010
0000
0100
0010
0000
,
1000
0000
0100
0010
0100
0010
0001
1000
,
1001
2002
0000
0000
0000
0000
0000
0000
0000
0000
0000
0000
0000
0000
0000
0000
0000
0000
0000
0000
0000
0000
0000
0000
0000
0000
0000
0000
0000
0000
0000
0000
0000
0000
0000
0000
0000
0000
0000
0000
0000
0000
0000
0000
0000
0000
0000
0000
0000
0000
0000
0000
0000
0000
0000
0000
0000
0000
0000
0000
0000
0000
0000
0000
0000
0000
0000
0000
0000
0000
0000
0000
0000
0000
0000
0000
0000
0000
0000
0000
0000
0000
0000
0000
0000
0000
0000
0000
0000
0000
0000
0000
0000
0000
0000
0000
0000
0000
0000
0000
0000
0000
0000
0000
0000
0000
0000
0000
0000
0000
0000
0000
0000
0000
0000
0000
0000
0000
0000
0000
0000
0000
0000
0000
0000
0000
0000
0000
0000
0000
0000
0000
0000
0000
0000
0000
0000
0000
0000
0000
0000
0000
0000
0000
3003
0000
0000
0000
0000
0000
0000
0000
0000
0000
0000
0000
0000
0000
0000
0000
0000
0000
0000
0000
0000
0000
0000
0000
0000
0000
0000
0000
0000
0000
0000
0000
0000
0000
0000
0000
0000
0000
0000
0000
0000
0000
0000
0000
0000
0000
0000
0000
;

//---------------dance-single - ----------------
#NOTEDATA:;
#CHARTNAME:;
#STEPSTYPE:dance-single;
#DESCRIPTION:;
#CHARTSTYLE:;
#DIFFICULTY:Hard;
#METER:9;
#RADARVALUES:0.350746,0.474174,0.144873,0.541369,0.285934,322.000000,303.000000,19.000000,71.000000,0.000000,0.000000,0.000000,0.000000,0.000000,0.350746,0.474174,0.144873,0.541369,0.285934,322.000000,303.000000,19.000000,71.000000,0.000000,0.000000,0.000000,0.000000,0.000000;
#CREDIT:;
#DISPLAYBPM:50.000000:100.000000;
#NOTES:
// measure 0
0000
0000
0000
0000
,  // measure 1
0000
0000
0000
0000
,  // measure 2
0000
0000
0000
0000
0000
0000
0000
0000
0000
0000
0000
0000
0000
0000
0000
0000
0000
0000
0000
0000
0000
0000
0000
0000
0000
0000
0000
0000
0000
0000
0000
0000
0000
0000
0000
0000
0000
0000
0000
0000
0000
0000
0000
0000
0000
0000
0000
0000
0000
0010
0000
0000
0000
0000
0000
0000
0000
0000
0000
0000
0000
0000
0000
0000
0000
0000
0000
0000
0000
0000
0000
0000
0100
0000
0000
0000
0000
0000
0000
0000
0000
0000
0000
0000
0000
0000
0000
0000
0000
0000
0000
0000
0000
0000
0000
0000
0010
0000
0000
0000
0000
0000
0000
0000
0000
0000
0000
0000
0000
0000
0000
0000
0000
0000
0000
0000
0000
0000
0000
0000
0100
0000
0000
0000
0000
0000
0000
0000
0000
0000
0000
0000
0000
0000
0000
0000
0000
0000
0000
0000
0000
0000
0000
0000
1000
0000
0000
0000
0000
0000
0000
0000
0000
0000
0000
0000
0000
0000
0000
0000
0000
0000
0000
0000
0000
0000
0000
0000
0100
0000
0000
0000
0000
0000
0000
0000
0000
0000
0000
0000
0010
0000
0000
0000
0000
0000
0000
0000
0000
0000
0000
0000
,  // measure 3
0000
0100
0000
0010
0000
0000
1000
0100
0000
0010
0000
0001
0000
0000
0100
0020
,  // measure 4
0000
0000
0030
0000
1000
0000
0001
1000
0100
0000
0010
0000
0100
0000
0010
0001
,  // measure 5
0100
0000
1000
0000
0100
0000
0001
1000
0010
0000
0100
0000
0020
0000
0030
0000
,  // measure 6
1001
0100
0000
0010
0001
0000
0100
0000
0010
0000
0100
0000
0010
0000
0100
1000
,  // measure 7
0000
0100
0000
0010
0000
0000
0100
0010
0000
1000
0000
0100
0000
0000
0000
0010
,  // measure 8
0200
0000
0300
0000
0020
0000
0030
2000
0000
3000
0000
0010
0002
0000
0003
0020
,  // measure 9
0000
0030
0000
0100
0020
0000
0030
0000
0200
0000
0300
0000
0020
0000
0030
0000
,  // measure 10
1001
0000
0001
1000
0100
0020
0000
0030
,  // measure 11
2002
0000
3003
0000
0100
0000
0000
0000
0010
0000
0100
0000
0010
0000
0000
0001
,  // measure 12
0000
0000
2000
0000
3000
0000
0100
0000
0010
0000
0100
0000
0010
0000
0001
1000
,  // measure 13
0000
0100
0020
0000
0030
0000
0000
0000
0100
0000
0010
0000
0001
0000
0100
0020
,  // measure 14
0000
0030
0000
1000
0100
0000
0010
0000
0100
0000
0020
0000
0030
0000
0100
0010
,  // measure 15
0000
0100
0010
0000
0001
0000
1000
0000
0001
0000
0100
0000
0020
0000
0030
0200
,  // measure 16
0000
0300
0020
0000
0030
0000
0001
0000
1000
0000
0100
0000
0010
0000
0001
0100
,  // measure 17
0000
0010
2000
0000
3000
0000
0000
0000
0100
0000
0010
0000
0100
0000
0010
0001
,  // measure 18
0000
0000
0000
0100
0010
0000
0100
0000
0010
0000
0002
0000
0000
0000
0003
0000
,  // measure 19
0100
0010
2000
3000
0010
0100
0010
0001
,  // measure 20
1000
0200
0000
0300
0020
0030
0100
0010
,  // measure 21
0001
1000
0101
1010
0101
2020
0000
3030
,  // measure 22
2002
0000
3003
0000
0100
0000
0000
0000
0100
0000
0010
0000
0001
0000
0000
1000
,  // measure 23
0000
0000
0200
0000
0300
0000
0001
0000
0100
0000
0010
0000
0100
0000
0010
1000
,  // measure 24
0000
0100
0020
0000
0030
0000
0000
0000
0100
0000
0010
0000
0001
0000
1000
0200
,  // measure 25
0000
0300
0000
0001
0010
0000
0100
0000
1000
0000
0200
0000
0300
0000
0010
0100
,  // measure 26
0000
0001
0100
0000
1001
0000
0000
0000
1000
0000
0100
0000
0020
0000
0030
0100
,  // measure 27
0002
0000
0003
0100
1000
0000
0100
0010
0000
1000
0000
0002
0000
0003
0100
0010
,  // measure 28
0000
0001
0000
1000
0002
0000
0003
0000
0100
0000
0010
0000
0100
0000
0010
0200
,  // measure 29
0000
0300
0000
0000
0100
0000
0010
0000
1000
0000
0200
0000
0300
0000
0000
0010
,  // measure 30
0200
0300
1000
0010
0001
2000
3000
0100
,  // measure 31
0020
0030
1000
0001
0100
0020
0000
0030
,  // measure 32
1001
0110
0000
0000
0000
0000
0000
0000
0000
0000
0000
0000
0000
0000
0000
0000
0000
0000
0000
0000
0000
0000
0000
0000
0000
0000
0000
0000
0000
0000
0000
0000
0000
0000
0000
0000
0000
0000
0000
0000
0000
0000
0000
0000
0000
0000
0000
0000
0100
0000
0000
0000
0000
0000
0000
0000
0000
0000
0000
0000
0000
0000
0000
0000
0000
0000
0000
0000
0000
0000
0000
0000
0010
0000
0000
0000
0000
0000
0000
0000
0000
0000
0000
0000
0000
0000
0000
0000
0000
0000
0000
0000
0000
0000
0000
0000
2000
0000
0000
0000
0000
0000
0000
0000
0000
0000
0000
0000
0000
0000
0000
0000
0000
0000
0000
0000
0000
0000
0000
0000
3000
0000
0000
0000
0000
0000
0000
0000
0000
0000
0000
0000
0100
0000
0000
0000
0000
0000
0000
0000
0000
0000
0000
0000
0000
0000
0000
0000
0000
0000
0000
0000
0000
0000
0000
0000
0000
0000
0000
0000
0000
0000
0000
0000
0000
0000
0000
0000
0020
0000
0000
0000
0000
0000
0000
0000
0000
0000
0000
0000
0000
0000
0000
0000
0000
0000
0000
0000
0000
0000
0000
0000
,  // measure 33
0000
0000
0030
0000
0100
0000
0010
0000
0200
0000
0300
0010
0000
0000
0200
0000
,  // measure 34
0000
0000
0300
0000
1000
0000
0100
0000
0002
0000
0003
0100
0000
0000
0020
0000
,  // measure 35
0000
0000
0030
0000
0100
0000
0010
0000
2000
0000
3000
0100
0000
0000
0020
0000
,  // measure 36
0000
0000
0030
0000
0100
0000
0010
0000
0002
0000
0003
1000
0000
0000
0200
0000
,  // measure 37
0000
0000
0300
0000
1000
0000
0010
0000
0100
0000
0000
0010
0000
0000
0200
0000
,  // measure 38
0000
0000
0300
0000
0010
0000
0001
0000
0200
0000
0300
0010
0000
0000
0200
0000
,  // measure 39
0000
0000
0300
0000
1000
0000
0100
0000
0020
0000
0030
0100
0000
0000
0020
0000
,  // measure 40
0000
0000
0030
0000
0100
0000
0010
0000
0002
0000
0003
1000
0000
0000
0002
0000
,  // measure 41
0000
0000
0003
0000
0100
0000
1000
0000
0020
0000
0030
1000
0000
0000
0200
0000
,  // measure 42
0000
0000
0300
0000
0010
0000
0100
0000
0020
0000
0030
0001
0000
0000
0200
0000
,  // measure 43
0000
0000
0300
0000
1000
0000
0100
0000
0020
0000
0030
0100
0000
0000
0020
0000
,  // measure 44
0000
0000
0030
0000
0100
0000
0010
0000
0002
0000
0003
1000
0000
0000
0200
0000
,  // measure 45
0000
0000
0300
0000
0010
0000
0100
0000
0010
1000
0001
1000
0001
1000
0001
1000
,  // measure 46
0110
0000
0000
0000
0100
0000
1001
0000
0000
0000
0100
0000
0010
0000
0000
0001
,  // measure 47
0110
1001
1001
0110
0000
0100
0020
0030
,  // measure 48
0100
0000
0010
0000
0100
0000
0010
0000
0001
0000
1000
0000
0010
0100
0010
0100
,  // measure 49
0110
2002
0000
0000
0000
0000
0000
0000
0000
0000
0000
0000
0000
0000
0000
0000
0000
0000
0000
0000
0000
0000
0000
0000
0000
0000
0000
0000
0000
0000
0000
0000
0000
0000
0000
0000
0000
0000
0000
0000
0000
0000
0000
0000
0000
0000
0000
0000
0000
0000
0000
0000
0000
0000
0000
0000
0000
0000
0000
0000
0000
0000
0000
0000
0000
0000
0000
0000
0000
0000
0000
0000
0000
0000
0000
0000
0000
0000
0000
0000
0000
0000
0000
0000
0000
0000
0000
0000
0000
0000
0000
0000
0000
0000
0000
0000
0000
0000
0000
0000
0000
0000
0000
0000
0000
0000
0000
0000
0000
0000
0000
0000
0000
0000
0000
0000
0000
0000
0000
0000
0000
0000
0000
0000
0000
0000
0000
0000
0000
0000
0000
0000
0000
0000
0000
0000
0000
0000
0000
0000
0000
0000
0000
0000
3003
0000
0000
0000
0000
0000
0000
0000
0000
0000
0000
0000
0000
0000
0000
0000
0000
0000
0000
0000
0000
0000
0000
0000
0000
0000
0000
0000
0000
0000
0000
0000
0000
0000
0000
0000
0000
0000
0000
0000
0000
0000
0000
0000
0000
0000
0000
0000
;
