#TITLE:カラフルDAYS;
#SUBTITLE:;
#ARTIST:佐藤利奈, 井上麻里奈, 茅原実里;
#TITLETRANSLIT:Colorful DAYS;
#SUBTITLETRANSLIT:;
#ARTISTTRANSLIT:Rina Satou, Marina Inoue, Minori Chihara;
#GENRE:Minami-Ke;
#CREDIT:;
#MUSIC:Colorful DAYS.ogg;
#BANNER:Colorful DAYS.png;
#BACKGROUND:Colorful DAYS-bg.png;
#CDTITLE:Minami-Ke.png;
#SAMPLESTART:47.877;
#SAMPLELENGTH:12.000;
#SELECTABLE:YES;
#OFFSET:-0.020;
#BPMS:0.000=168.000;
#STOPS:;
#JACKET:Colorful DAYS-jacket.png;
#BGCHANGES:;
#FGCHANGES:;

//--------------- dance-single - ----------------
#NOTES:
     dance-single:
     :
     Beginner:
     1:
     0,0,0,0,0:
0000
0000
0000
0000
,
0000
0000
0000
0000
,
0000
0000
0000
0000
,
0000
0000
0000
0000
,
0000
0000
0000
0000
,
0000
0000
0000
0000
,
0000
0000
0000
0000
,
0000
0000
0000
0000
,
0000
0000
0000
0000
,
0000
0000
0000
0000
,
1000
0000
0000
0000
,
0000
0000
0000
0000
,
0001
0000
0000
0000
,
0000
0000
0000
0000
,
1000
0000
0000
0000
,
0000
0000
0000
0000
,
0001
0000
0000
0000
,
0000
0000
0000
0000
,
0100
0000
0000
0000
,
0000
0000
0000
0000
,
0010
0000
0000
0000
,
0000
0000
0000
0000
,
0100
0000
0000
0000
,
0000
0000
0000
0000
,
0010
0000
0000
0000
,
0000
0000
0000
0000
,
0001
0000
0000
0000
,
0000
0000
0000
0000
,
0010
0000
0000
0000
,
0000
0000
0000
0000
,
0100
0000
0000
0000
,
0000
0000
0000
0000
,
1000
0000
0000
0000
,
0000
0000
0000
0000
,
1000
0000
0000
0000
,
0000
0000
0000
0000
,
0100
0000
0000
0000
,
0000
0000
0000
0000
,
0010
0000
0000
0000
,
0000
0000
0000
0000
,
0001
0000
0000
0000
,
0000
0000
0000
0000
,
0100
0000
0000
0000
,
0000
0000
0000
0000
,
0010
0000
0000
0000
,
0000
0000
0000
0000
,
0100
0000
0000
0000
,
0000
0000
0000
0000
,
0001
0000
0000
0000
,
0000
0000
0000
0000
,
1000
0000
0000
0000
,
0000
0000
0000
0000
,
0100
0000
0000
0000
,
0000
0000
0000
0000
,
0010
0000
0000
0000
,
0000
0000
0000
0000
,
0100
0000
0000
0000
,
0000
0000
0000
0000
,
1001
0000
0000
0000
,
0000
0000
0000
0000
,
0100
0000
0000
0000
,
0000
2002
0000
0000
,
0000
0000
0000
0000
,
3003
0000
0000
0000
;

//--------------- dance-single - ----------------
#NOTES:
     dance-single:
     :
     Easy:
     3:
     0,0,0,0,0:
0000
0000
0000
0000
,
0000
0000
0000
0000
,
0000
0000
0000
0000
,
0000
0000
0000
0000
,
0000
0000
0000
0000
,
0000
0000
0000
0000
,
0000
0000
0000
0000
,
0000
0000
0000
0000
,
0000
0000
0000
0000
,
0000
0000
0000
0000
,
1000
0000
0000
0000
,
0100
0000
0000
0000
,
1000
0000
0000
0000
,
0100
0000
0000
0000
,
0010
0000
0000
0000
,
0001
0000
0000
0000
,
0010
0000
0000
0000
,
0001
0000
0000
0000
,
0100
0000
0000
0000
,
0010
0000
0000
0000
,
0100
0000
0000
0000
,
0010
0000
0000
0000
,
1000
0000
0000
0000
,
0001
0000
0000
0000
,
1000
0000
0000
0000
,
0001
0000
0000
0000
,
0100
0000
0000
0000
,
0010
0000
0000
0000
,
1000
0000
0000
0000
,
0001
0000
0000
0000
,
0100
0000
0000
0000
,
0010
0000
0000
0000
,
0100
0000
0000
0000
,
0001
0000
0000
0000
,
0010
0000
0000
0000
,
1000
0000
0000
0000
,
0100
0000
0000
0000
,
1000
0000
0000
0000
,
0100
0000
0000
0000
,
0010
0000
0000
0000
,
0001
0000
0000
0000
0000
0000
0000
1000
,
0000
0000
0000
0000
,
0001
0000
0000
0000
,
1000
0000
0000
0000
,
0001
0000
0000
0000
,
1000
0000
0000
0000
,
0100
0000
0000
0000
,
0010
0000
0000
0000
,
0100
0000
0000
0000
,
0010
0000
0000
0000
,
0001
0000
0000
0000
,
1000
0000
0000
0000
,
0100
0000
0000
0000
,
1000
0000
0000
0000
,
0010
0000
0000
0000
,
0100
0000
0000
0000
,
0010
0000
0000
0000
,
1001
0000
0000
0000
,
1001
0000
0000
0000
,
0100
0000
0000
0000
,
0010
0000
0000
0000
,
0000
2002
0000
0000
,
0000
0000
0000
0000
,
3003
0000
0000
0000
;

//--------------- dance-single - ----------------
#NOTES:
     dance-single:
     :
     Medium:
     6:
     0,0,0,0,0:
0000
0000
0000
0000
,
0000
0000
0000
0000
,
0000
0000
0000
0000
,
0000
0000
0000
0000
,
0000
0000
0000
0000
,
0000
0000
0000
0000
,
0000
0000
0000
0000
,
0000
0000
0000
0000
,
0000
0000
0000
0000
,
0000
0000
0000
0000
,
1000
0010
0100
0010
,
0100
0010
0002
0003
,
0010
0100
0010
0100
,
0010
0001
1000
0100
,
0010
0100
0020
0030
,
0100
0010
0002
0003
,
1000
0100
1000
0100
,
0010
0100
0010
0100
,
0001
0100
0010
0100
,
0010
0000
0100
0020
0000
0030
0000
0000
,
1000
0100
0010
0100
,
0010
0000
0001
0100
0000
0010
0000
0000
,
0100
0010
0200
0300
,
1000
0100
0010
0000
,
0100
0000
0010
0000
0001
0000
0100
0010
,
0000
0100
0010
0100
,
2000
3000
1000
0001
,
2000
3000
0100
0010
,
0100
0010
0001
0100
,
0020
0030
1000
0100
,
0002
0003
0100
0001
,
0100
0010
0100
0010
,
0001
0100
0020
0030
,
0100
0010
1000
0100
,
0020
0030
0100
0010
,
0200
0300
1000
0100
,
0010
0001
0100
0010
,
0200
0300
1000
0100
,
0010
0001
0100
0010
,
0100
0010
0001
0100
,
0010
0000
0000
0100
0010
0000
0100
0020
,
0000
0000
0030
0000
,
1000
0000
0100
0000
0010
0100
0000
0010
,
0000
0001
0010
1000
0100
0010
0000
0100
,
0000
0010
0100
0010
1000
0001
0100
0010
,
0100
0010
0001
0100
,
0010
0000
0100
0000
1000
0000
0100
0001
,
0000
0010
0100
0020
0000
0030
0100
0000
,
0010
0100
1000
0100
,
0001
0100
0010
0100
,
0010
0000
0100
0010
0001
0100
0000
0010
,
0000
0100
1000
0100
1000
0000
0000
0100
,
0000
0010
0100
0010
0001
0000
0100
0010
,
0100
1000
0100
0010
,
0100
0000
0010
0000
0100
0010
0001
0100
,
0000
0010
0100
2000
0000
3000
0100
0000
,
0020
0000
0030
0100
0020
0000
0030
0000
,
0001
1000
0001
1000
,
0100
0010
0100
0010
,
0001
0100
1000
0100
,
1001
0000
0000
1000
0000
0000
0001
0000
,
0000
2002
0000
0000
,
0000
0000
0000
0000
,
3003
0000
0000
0000
;

//--------------- dance-single - ----------------
#NOTES:
     dance-single:
     :
     Hard:
     9:
     0,0,0,0,0:
0000
0000
0000
0000
,
0000
0000
0000
0000
,
0000
0000
0000
0000
,
0000
0000
0000
0000
,
0000
0000
0000
0000
,
0000
0000
0000
0000
,
0000
0000
0000
0000
,
0000
0000
0000
0000
,
0000
0000
0000
0000
,
0000
0000
0000
0000
,
1000
0000
0100
0000
0010
0000
0100
0010
,
0100
0000
0010
0200
0000
0300
1000
0100
,
0010
0100
0010
0001
,
0100
0000
0001
0100
0000
0020
0000
0030
,
0100
0010
0200
0300
,
0010
1000
0200
0300
,
0100
0010
0001
0100
,
0010
0000
0100
0010
0001
0000
0100
0000
,
0010
1000
0100
0010
,
0100
0000
0010
0200
0000
0300
0100
0010
,
0001
1000
0100
0010
,
0100
0000
0010
0100
0000
0200
0000
1300
,
0100
0010
2002
3003
,
0001
0010
0100
0000
2002
0000
3003
0000
,
0100
0000
0010
0000
0100
0000
0001
0100
,
0000
1000
0100
0010
0100
1000
0100
0010
,
0200
0300
1000
0100
,
0020
0030
0100
0010
,
0100
0001
0100
1000
,
0200
0300
0100
0010
,
2000
3000
0100
0010
,
0100
0001
0100
1000
,
0100
0000
0010
0100
2000
0000
3000
0110
,
0000
0001
1000
0100
0010
1000
0100
0010
,
0001
0100
0010
0100
,
2000
3000
0100
0010
,
0100
0001
0100
1000
,
0200
0300
1000
0001
,
1000
0001
0100
0010
,
0100
0010
1000
0100
,
0002
0000
0003
0100
0020
0000
0030
1001
,
0000
0001
1000
0001
1000
0001
1000
0001
,
1000
0100
0010
0100
1000
0001
0000
0100
,
0000
0010
0001
0100
0010
0001
0000
0100
,
0000
0010
1000
0100
0010
0001
0100
0010
,
0001
0000
1000
0000
0100
0010
0001
0100
,
0010
0000
0100
0000
0010
0100
1000
0100
,
0000
0010
0001
0200
0000
0300
0010
0000
,
0200
0000
0300
0010
0200
0000
0300
0000
,
1001
1010
0110
0101
,
1000
0000
0100
0010
0001
0100
0000
0010
,
0000
1000
0100
0010
0100
1000
0000
0100
,
0000
0010
0100
0010
0001
1000
0100
0010
,
0100
0000
1000
0000
0100
0010
0001
0100
,
0000
0000
0010
0000
1000
0100
0010
0010
,
0000
0100
0010
0002
0000
0003
1000
0000
,
0200
0000
0300
0010
0200
0000
0300
0000
,
1001
0110
0011
1100
,
0010
0000
0100
0010
0000
1000
0100
0010
,
0001
0000
1000
0100
0000
0001
0010
1000
,
0101
0000
0000
1010
0000
0000
0011
0000
,
0000
2002
0000
0000
,
0000
0000
0000
0000
,
3003
0000
0000
0000
;
