#TITLE:꽃핀다;
#SUBTITLE:;
#ARTIST:화연;
#TITLETRANSLIT:Blossom;
#SUBTITLETRANSLIT:;
#ARTISTTRANSLIT:Hwa Yeon;
#GENRE:K-Pop;
#CREDIT:;
#MUSIC:Blossom.ogg;
#BANNER:Blossom.png;
#BACKGROUND:Blossom-bg.png;
#CDTITLE:Wrland Season 2.png;
#SAMPLESTART:48.087;
#SAMPLELENGTH:11.000;
#SELECTABLE:YES;
#OFFSET:0.000;
#BPMS:0.000=115.000
,4.000=120.000
,128.000=60.000
,136.000=120.000
,152.000=60.000
,154.000=120.000
;
#STOPS:;
#ORIGIN:;
#PREVIEWVID:;
#JACKET:Blossom-jacket.png;
#CDIMAGE:Blossom-cd.png;
#DISCIMAGE:;
#BGCHANGES:0.000=Blossom.avi=1.000=0=0=0=StretchNoLoop====,
99999.000=-nosongbg-=1.000=0=0=0=StretchNoLoop====
;
#FGCHANGES:;

//--------------- dance-single - ----------------
#NOTES:
     dance-single:
     :
     Beginner:
     1:
     0,0,0,0,0:
0000
0000
0000
0000
,
0000
0000
0000
0000
,
0000
0000
0000
0000
,
0000
0000
0000
0000
,
0000
0000
0000
0000
,
0000
0000
0000
0000
,
0000
0000
0000
0000
,
0000
0000
0000
0000
,
1000
0000
0000
0000
,
0000
0000
0000
0000
,
1000
0000
0000
0000
,
0000
0000
0000
0000
,
0001
0000
0000
0000
,
0000
0000
0000
0000
,
0001
0000
0000
0000
,
0000
0000
0000
0000
,
0010
0000
0000
0000
,
0000
0000
0000
0000
,
0010
0000
0000
0000
,
0000
0000
0000
0000
,
0100
0000
0000
0000
,
0000
0000
0000
0000
,
0100
0000
0000
0000
,
0000
0000
0000
0000
,
1000
0000
0000
0000
,
1000
0000
0000
0000
,
0001
0000
0000
0000
,
0001
0000
0000
0000
,
1000
0000
0000
0000
,
1000
0000
0000
0000
,
0010
0000
0000
0000
,
0100
0000
0000
0000
,
0010
0000
0000
0000
,
0100
0000
0000
0000
,
0010
0000
0000
0000
,
0000
0000
0000
0000
,
0100
0000
0000
0000
,
0000
0000
0000
0000
,
0010
0000
0100
0000
,
0000
0000
0010
0000
,
0000
0000
1000
0000
,
0000
0000
0001
0000
,
0000
0000
0100
0000
,
0000
0000
0001
0000
,
0000
0000
0010
0000
,
0000
0000
1000
0000
,
0000
0000
1000
0000
,
0000
0000
0100
0000
,
0000
0000
0100
0000
,
0000
0000
0010
0000
,
0000
0000
0001
0000
;

//--------------- dance-single - ----------------
#NOTES:
     dance-single:
     :
     Easy:
     2:
     0,0,0,0,0:
0000
0000
0000
0000
,
0000
0000
0000
0000
,
0000
0000
0000
0000
,
0000
0000
0000
0000
,
0000
0000
0000
0000
,
0000
0000
0000
0000
,
0000
0000
0000
0000
,
0000
0000
0000
0000
,
0100
0000
0000
0000
,
0100
0000
0000
0000
,
0100
0000
0000
0000
,
1000
0000
0000
0000
,
0001
0000
0000
0000
,
0001
0000
0000
0000
,
0010
0000
0000
0000
,
0100
0000
0000
0000
,
1000
0000
0000
0000
,
0100
0000
0000
0000
,
0100
0000
0000
0000
,
0001
0000
0000
0000
,
0010
0000
0000
0000
,
0100
0000
0000
0000
,
0100
0000
0000
0000
,
1000
0000
0000
0000
,
0100
0000
0000
0000
,
0100
0000
0000
0000
,
1000
0000
0000
0000
,
1000
0000
0000
0000
,
0010
0000
0000
0000
,
0010
0000
0000
0000
,
0001
0000
0000
0000
,
0010
0000
0000
0000
,
0100
0000
0010
0000
,
0100
0000
0100
0000
,
1000
0000
0000
0000
,
1000
0000
0000
0000
,
0001
0000
0000
0000
,
0001
0000
0000
0000
,
1001
0000
0100
0000
,
0000
0000
0010
0000
,
0000
0000
1000
0000
,
0000
0000
0001
0000
,
0000
0000
0100
0000
,
0000
0000
0010
0000
,
0000
0000
0100
0000
,
0000
0000
0010
0000
,
0000
0000
0001
0000
,
0000
0000
1000
0000
,
0000
0000
1000
0000
,
0000
0000
0001
0000
,
0000
0000
1001
0000
;

//--------------- dance-single - ----------------
#NOTES:
     dance-single:
     :
     Medium:
     6:
     0,0,0,0,0:
0000
0000
0000
0000
,
0000
0000
0000
0000
,
0000
0000
0000
0000
,
0000
0000
0000
0000
,
0000
0000
0000
0000
,
0000
0000
0000
0000
,
0000
0000
0000
0000
,
0000
0000
0000
0000
,
0100
0000
0100
0000
,
0100
0000
1000
0100
,
0010
0000
0010
0000
,
0010
0000
0010
0010
,
0001
0000
0001
0100
,
0001
0000
0010
1000
,
0100
0000
0100
0000
,
0010
1000
0100
0010
,
1001
0100
0010
0100
0000
0000
0000
0000
,
0010
0100
0010
0001
,
0100
0010
1000
0100
,
0010
0000
0100
0010
,
0001
0000
0100
0010
,
0100
0000
1000
0100
,
1000
0000
0100
0000
,
0010
0100
0010
0100
,
0001
1000
0001
1000
,
0001
1000
0100
0100
,
0010
0100
0010
0001
,
0100
0010
0200
0300
,
1000
1000
1000
0100
,
0010
0100
0100
1000
,
0100
0010
0100
0010
,
0002
0003
1000
0000
,
1000
0000
0001
1000
0100
0000
0100
1000
,
0010
0000
0100
0010
0100
0000
0100
0000
,
0010
0100
0100
0000
,
0001
0010
0010
0000
,
1000
0100
0010
0100
,
0220
0000
0000
0000
,
0330
0000
0100
0010
,
0100
0100
0010
0001
,
1000
0000
0100
1000
,
0100
1000
0100
0010
,
0100
0000
0010
0001
,
1000
1000
0100
0100
,
0010
0000
0100
0010
,
0100
0010
0001
0000
,
1000
0000
0100
0000
,
0100
0000
0010
0000
,
0010
0000
0100
0000
,
0100
0000
0010
0000
,
0010
0000
0000
0000
;

//--------------- dance-single - ----------------
#NOTES:
     dance-single:
     :
     Hard:
     9:
     0,0,0,0,0:
0000
0000
0000
0000
,
0000
0000
0000
0000
,
0000
0000
0000
0000
,
0000
0000
0000
0000
,
0000
0000
0000
0000
,
0000
0000
0000
0000
,
0000
0000
0000
0000
,
0000
0000
0000
0000
2000
3000
0002
0003
,
1000
0100
0010
0002
0003
0100
0010
0100
,
0010
0001
1000
0100
0010
0100
0010
0100
,
0020
0030
0001
2000
3000
0100
1000
0200
,
0000
0300
0000
0100
0010
0001
0100
1000
,
0200
0300
0000
0100
0010
0100
0010
0001
,
2000
3000
0000
0100
0010
0100
0010
0100
,
0020
0030
0001
1000
0200
0300
0100
1000
,
0200
0300
2000
3000
0020
0030
0002
0003
,
0100
0010
1000
0200
0300
0100
0010
0001
,
0100
0010
1000
0100
0010
0001
0100
0010
,
0200
0300
1000
0200
0300
0001
0100
0010
,
0110
0000
0000
0100
0010
0001
1000
0100
,
0020
0030
0000
0100
0010
0001
1000
0100
,
0020
0030
0100
0010
0100
0010
0001
0100
,
0020
0030
0100
0010
2000
3000
0100
0010
,
0100
0010
0100
0010
0002
0003
2000
3000
,
2002
3003
0200
0300
0100
0010
0100
1000
,
0100
0010
0001
0100
0020
0030
0100
1000
,
0100
0010
0002
0003
2200
3300
0001
0100
,
0010
1000
0100
0010
2002
3003
0220
0330
,
0200
0300
2000
3000
0100
0001
0100
0010
,
1000
0100
0010
0001
0200
0300
0100
0010
,
0200
0300
0020
0030
0100
0010
0002
0003
,
2002
0000
3003
0100
,
2200
0000
3300
0000
0100
0010
0100
0010
0002
0000
0003
0100
1000
0100
0010
0001
,
0020
0000
0030
0100
0010
1000
0100
0020
0030
2000
0000
0000
0000
0000
3000
0000
,
0100
0001
0100
0001
0100
0002
0003
0010
,
0100
1000
0010
1000
0010
2000
3000
0000
,
0100
0010
0001
0100
0010
1000
0100
0010
,
2M02
00M0
0M00
00M0
0M00
00M0
0M00
00M0
0M00
00M0
0M00
00M0
0M00
00M0
0M00
00M0
,
3M03
0000
0000
0000
0200
0300
0020
0030
,
0100
0010
0100
0010
0100
0010
0200
0300
,
0002
0003
0000
1000
0100
1000
0200
0300
,
0020
0030
0100
0010
0001
0100
0020
0030
,
0200
0300
0020
0030
0002
0003
2000
3000
,
0001
1000
0001
1000
0100
1000
0200
0300
,
0020
0030
0100
0010
0002
0003
0200
0300
,
1000
0001
0200
0300
0020
0000
0000
0030
,
0200
0000
0300
0000
0010
0000
0000
0000
0110
0000
0000
0100
0010
0000
0100
0000
,
0010
0000
0000
0000
0100
0000
0000
0000
1000
0000
0000
0001
1000
0000
0001
0000
,
0100
0000
0000
0000
0010
0000
0000
0000
0100
0000
1000
0100
1000
0000
0100
0000
,
0010
0001
0200
0000
,
0310
0000
0100
0010
0000
0000
0000
0000
;
