#TITLE:Ba Be Loo Be La;
#SUBTITLE:;
#ARTIST:Kristeen;
#TITLETRANSLIT:;
#SUBTITLETRANSLIT:;
#ARTISTTRANSLIT:;
#GENRE:Pop;
#CREDIT:;
#BANNER:Ba Be Loo Be La.png;
#BACKGROUND:Ba Be Loo Be La-bg.png;
#LYRICSPATH:;
#CDTITLE:Wrland Season 2.png;
#MUSIC:Ba Be Loo Be La.ogg;
#OFFSET:0.000000;
#SAMPLESTART:45.714001;
#SAMPLELENGTH:12.000000;
#SELECTABLE:YES;
#DISPLAYBPM:126.000000;
#BPMS:0.000000=125.999992
;
#STOPS:
;
#BGCHANGES:;
#KEYSOUNDS:;
#ATTACKS:;

//---------------dance-single - ----------------
#NOTES:
     dance-single:
     :
     Beginner:
     1:
     0.050416,0.101640,0.007058,0.056466,0.000000,50.000000,49.000000,1.000000,8.000000,0.000000,0.000000,0.050416,0.101640,0.007058,0.056466,0.000000,50.000000,49.000000,1.000000,8.000000,0.000000,0.000000:
0000
0000
0000
0000
,
0000
0000
0000
0000
,
0000
0000
0000
0000
,
0000
0000
0000
0000
,
0000
0000
0000
0000
,
0000
0000
0000
0000
,
0000
0000
0000
0000
,
0000
0000
0000
0000
,
0100
0000
0000
0000
,
0000
0000
0000
0000
,
0010
0000
0000
0000
,
0000
0000
0000
0000
,
0100
0000
0000
0000
,
0000
0000
0000
0000
,
0001
0000
0000
0000
,
0000
0000
0000
0000
,
1000
0000
0000
0000
,
0000
0000
0000
0000
,
0100
0000
0000
0000
,
0000
0000
0000
0000
,
0010
0000
0000
0000
,
0000
0000
0000
0000
,
0100
0000
0000
0000
,
0000
0000
0000
0000
,
0100
0000
0100
0000
,
0200
0000
0300
0000
,
0010
0000
0010
0000
,
0020
0000
0030
0000
,
1000
0000
0000
0000
,
0000
0000
0000
0000
,
0001
0000
0000
0000
,
0000
0000
0000
0000
,
1000
0000
0100
0000
,
0020
0000
0030
0000
,
0001
0000
0010
0000
,
0200
0000
0300
0000
,
0010
0000
0000
0000
,
0000
0000
0000
0000
,
0100
0000
0000
0000
,
0000
0000
0000
0000
,
1000
0000
0000
0000
,
0000
0000
0000
0000
,
0001
0000
0000
0000
,
0000
0000
0000
0000
,
1000
0000
0000
0000
,
0000
0000
0000
0000
,
0100
0000
0000
0000
,
0000
0000
0000
0000
,
1000
0000
0000
0000
,
0000
0000
0000
0000
,
0100
0000
0000
0000
,
0000
0000
0000
0000
,
1000
0000
0000
0000
,
0000
0000
0000
0000
,
0001
0000
0000
0000
,
0000
0000
0000
0000
,
0100
0000
0010
0000
,
0200
0000
0300
0000
,
0010
0000
0100
0000
,
0020
0000
0030
0000
,
1000
0000
0000
0000
,
0000
0000
0000
0000
,
0010
0000
0000
0000
,
0000
0000
0000
0000
,
0100
0000
1000
0000
,
0002
0000
0003
0000
,
0001
0000
0010
0000
,
0002
0000
0003
0000
,
1000
0000
0000
0000
,
0000
0000
0000
0000
,
0010
0000
0000
0000
,
0000
0000
0000
0000
,
1001
0000
0000
0000
;

//---------------dance-single - ----------------
#NOTES:
     dance-single:
     :
     Easy:
     2:
     0.074616,0.101640,0.007058,0.056466,0.000000,74.000000,73.000000,1.000000,8.000000,0.000000,0.000000,0.074616,0.101640,0.007058,0.056466,0.000000,74.000000,73.000000,1.000000,8.000000,0.000000,0.000000:
0000
0000
0000
0000
,
0000
0000
0000
0000
,
0000
0000
0000
0000
,
0000
0000
0000
0000
,
0000
0000
0000
0000
,
0000
0000
0000
0000
,
0000
0000
0000
0000
,
0000
0000
0000
0000
,
0010
0000
0000
0000
,
0100
0000
0000
0000
,
0010
0000
0000
0000
,
0100
0000
0000
0000
,
0001
0000
0000
0000
,
1000
0000
0000
0000
,
0001
0000
0000
0000
,
1000
0000
0000
0000
,
0001
0000
0000
0000
,
0100
0000
0000
0000
,
0010
0000
0000
0000
,
0100
0000
0000
0000
,
1000
0000
0000
0000
,
0001
0000
0000
0000
,
0100
0000
0000
0000
,
0010
0000
0000
0000
,
0100
0000
0001
0000
,
0200
0000
0300
0000
,
0010
0000
1000
0000
,
0020
0000
0030
0000
,
0100
0000
0000
0000
,
0100
0000
0000
0000
,
0010
0000
0000
0000
,
0010
0000
0000
0000
,
0100
0000
1000
0000
,
0200
0000
0300
0000
,
0100
0000
0010
0000
,
0200
0000
0300
0000
,
0001
0000
0000
0000
,
1000
0000
0000
0000
,
0100
0000
0000
0000
,
0010
0000
0000
0000
,
1000
0000
0000
0000
,
0100
0000
0000
0000
,
1000
0000
0000
0000
,
0010
0000
0000
0000
,
0100
0000
0000
0000
,
0001
0000
0000
0000
,
0010
0000
0000
0000
,
0100
0000
0000
0000
,
0010
0000
0000
0000
,
0100
0000
0000
0000
,
0010
0000
0000
0000
,
0100
0000
0000
0000
,
0010
0000
0000
0000
,
0100
0000
0000
0000
,
0010
0000
0000
0000
,
0100
0000
0000
0000
,
1000
0000
0100
0000
,
2000
0000
3000
0000
,
0100
0000
0010
0000
,
0200
0000
0300
0000
,
0001
0000
0000
0000
,
1000
0000
0000
0000
,
0001
0000
0000
0000
,
0100
0000
0000
0000
,
0010
0000
0100
0000
,
0020
0000
0030
0000
,
1000
0000
0100
0000
,
0200
0000
0300
0000
,
1000
0000
0000
0000
,
0001
0000
0000
0000
,
0100
0000
0000
0000
,
0010
0000
0000
0000
,
1001
0000
0000
0000
;

//---------------dance-single - ----------------
#NOTES:
     dance-single:
     :
     Medium:
     5:
     0.234941,0.304919,0.028233,0.430557,0.077641,233.000000,229.000000,4.000000,61.000000,0.000000,0.000000,0.234941,0.304919,0.028233,0.430557,0.077641,233.000000,229.000000,4.000000,61.000000,0.000000,0.000000:
0000
0000
0000
0000
,
0000
0000
0000
0000
,
0000
0000
0000
0000
,
0000
0000
0000
0000
,
0000
0000
0000
0000
,
0000
0000
0000
0000
,
0000
0000
0000
0000
,
0000
0000
0000
0000
,
0010
0100
0010
0000
,
0100
0010
1000
0000
,
0100
0010
0100
0000
,
0010
0100
0001
0000
,
1000
0100
1000
0000
,
0100
0010
0100
0000
,
0001
0000
1000
0000
,
0001
1000
0001
0100
,
0010
0100
0010
0000
,
0100
1000
0100
0000
,
0001
0100
0010
0000
,
0100
0010
1000
0000
,
1000
0100
1000
0000
,
0100
0010
0100
0000
,
0100
0010
0100
0000
,
0100
0010
0100
0000
,
1000
0001
0100
0010
,
0200
0000
0000
0000
0300
0000
0000
0000
1000
0000
0001
0000
1000
0100
0000
0020
,
0000
0030
0200
0300
0020
0030
2000
3000
,
0200
0000
0000
0000
0000
0000
0300
0000
0020
0000
0000
0000
0000
0030
0000
0000
,
0100
0000
0000
0000
0010
0000
0100
0020
0000
0000
0000
0000
0030
0000
0000
0000
,
0001
0000
1000
0100
2000
0000
3000
0000
,
0100
0000
1000
0000
0200
0000
0000
0300
,
0010
0000
0000
0100
0000
0000
0010
0000
0100
0000
0000
0000
0110
0000
0000
0000
,
0002
0003
0200
0300
2000
3000
0200
0300
,
2000
0000
0000
0000
3000
0000
0100
0010
0100
0010
0000
1000
0000
0100
0000
0002
,
0000
0003
0200
0300
0020
0030
0200
0300
,
2000
0000
0000
3000
0200
0000
0300
0001
,
1000
0000
0000
0000
0100
0000
0010
0200
0000
0000
0300
0000
0000
0000
0000
0000
,
1000
0100
0010
0001
0200
0300
0000
0000
,
0200
0300
2000
3000
0200
0000
0300
0000
,
0100
0000
0000
1000
0000
0000
0100
0000
0020
0000
0030
0000
0101
0000
0000
0000
,
1000
0000
0100
0000
,
1000
0000
0100
0000
,
0010
0000
0100
0000
,
0010
0000
0100
0000
,
0010
0100
0010
0000
,
0100
1000
0100
0000
,
0010
0100
0001
0000
,
0100
0010
0100
0000
,
0010
0100
1000
0000
,
0100
1000
0100
0010
,
0001
0100
0010
0000
,
0100
0010
0001
1000
,
0100
1000
0100
0000
,
1000
1000
1000
0100
,
0010
0100
0001
0000
,
0001
0100
0010
0100
,
0020
0030
0200
0300
2000
3000
0200
0300
,
0020
0000
0000
0000
0000
0000
0030
0000
0100
0000
0001
0000
0010
1000
0000
0200
,
0000
0300
2000
3000
0200
0300
0020
0030
,
0200
0000
0000
0300
0020
0000
0030
0001
,
0100
0000
0000
0000
0010
0000
0100
2000
0000
0000
0000
0000
3000
0000
0000
0000
,
0100
0000
1000
0100
0020
0000
0030
0000
,
0200
0300
0002
0003
0200
0000
0000
0300
,
0010
0000
0000
0100
0000
0000
1000
0000
0200
0000
0300
0000
0110
0000
0000
0000
,
0002
0003
0200
0300
2000
3000
0200
0300
,
0020
0000
0000
0000
0030
0000
0100
0010
0100
0001
0000
1000
0000
0100
0000
0002
,
0000
0003
0200
0300
0020
0030
0200
0300
,
0002
0000
0000
0003
2000
0000
0000
3000
,
0100
0000
0000
0000
1000
0000
0100
0020
0000
0000
0000
0000
0030
0000
0000
0000
,
0100
0010
0100
0010
0002
0000
0003
0000
,
0200
0300
0020
0030
2000
0000
3000
0000
,
1000
0000
0000
0001
0000
0000
1000
0000
0002
0000
0003
0000
1000
0000
0000
0000
,
1001
0000
0000
0000
;

//---------------dance-single - ----------------
#NOTES:
     dance-single:
     :
     Hard:
     8:
     0.367032,0.381149,0.056466,0.585840,0.363503,364.000000,356.000000,8.000000,83.000000,0.000000,0.000000,0.367032,0.381149,0.056466,0.585840,0.363503,364.000000,356.000000,8.000000,83.000000,0.000000,0.000000:
// measure 0
0000
0000
0000
0000
,  // measure 1
0000
0000
0000
0000
,  // measure 2
0000
0000
0000
0000
,  // measure 3
0000
0000
0000
0000
,  // measure 4
0100
0000
0000
0010
0000
0000
0100
0000
0010
0000
0000
0000
0000
0000
1000
0000
,  // measure 5
0001
0000
0000
1000
0000
0000
0100
0000
0000
0000
1000
0000
0100
0000
0010
0000
,  // measure 6
0100
0000
0000
0010
0000
0000
0100
0000
0001
0000
0000
0000
0000
0000
0100
0001
,  // measure 7
0100
0000
0000
1000
0000
0000
0100
0000
0000
0000
0010
0000
0100
0000
0010
0000
,  // measure 8
0100
0000
0010
1000
0000
0100
0000
0020
0000
0000
0030
0000
0000
0000
1000
0000
,  // measure 9
0001
1000
0000
0010
0000
0100
0000
2000
0000
0000
3000
0000
0000
0000
0000
0000
,  // measure 10
0100
0000
0010
0100
0000
0010
0000
0002
0000
0000
0000
0000
0003
0000
0100
0000
,  // measure 11
0010
0000
1000
0100
0000
0100
0000
0020
0000
0000
0030
0000
0000
0000
0100
0000
,  // measure 12
0010
0000
1000
0100
0000
0010
0000
0200
0000
0000
0300
0000
0000
0000
0100
0000
,  // measure 13
0010
0100
0000
1000
0000
0100
0000
0010
0000
0000
0001
0000
1000
0000
0001
0000
,  // measure 14
1000
0000
0000
0100
0000
0000
0010
0000
0001
0000
0000
0000
0000
0000
0100
0000
,  // measure 15
0010
0000
0000
0100
0000
0000
1000
0000
0000
0000
0100
0000
1000
0000
0100
0000
,  // measure 16
0010
0001
0000
0100
0000
0010
0000
2000
0000
0000
3000
0000
0000
0000
0100
0000
,  // measure 17
0010
0000
0100
1000
0000
0100
0000
0020
0000
0000
0030
0000
0000
0000
0000
0000
,  // measure 18
0100
0010
0000
0100
0000
0010
0000
0200
0000
0000
0300
0000
0000
0000
0100
0000
,  // measure 19
1000
0000
0100
1000
0000
0100
0000
0020
0000
0000
0030
0000
0000
0000
0000
0000
,  // measure 20
0100
0000
0010
0001
0000
0100
0000
2000
0000
0000
3000
0000
0000
0000
0100
0000
,  // measure 21
1000
0000
0100
0010
0000
0100
0000
0020
0000
0000
0030
0000
0000
0000
0000
0000
,  // measure 22
0100
0010
0000
0001
0000
1000
0000
0000
0100
0000
0000
0010
0000
0000
0100
0000
,  // measure 23
0010
0000
0001
0100
0000
0000
0010
0000
2000
0000
3000
0000
0110
0000
0000
0000
,  // measure 24
2000
3000
0200
0300
0002
0003
0020
0030
,  // measure 25
0200
0000
0000
0000
0000
0000
0300
0000
1000
0000
0001
0000
1000
0001
0000
1000
,  // measure 26
0000
0100
0020
0030
0020
0030
0200
0300
,  // measure 27
2000
0000
0000
3000
0200
0000
0300
0100
,  // measure 28
0010
0000
0100
0010
0000
0001
2000
0000
0000
0000
0000
0000
3000
0000
0000
0000
,  // measure 29
0100
0010
1000
0100
0020
0000
0000
0030
,  // measure 30
0200
0300
0002
0003
0200
0000
0000
0300
,  // measure 31
0100
0000
0000
1000
0000
0000
0100
0000
2002
0000
0000
0000
0000
0000
3003
0000
,  // measure 32
0200
0300
0020
0030
0200
0300
2000
3000
,  // measure 33
0001
0000
0000
1000
0001
0000
0010
0100
1000
0010
0000
0100
0000
0100
0000
2000
,  // measure 34
0000
3000
0200
0300
0020
0030
0002
0003
,  // measure 35
0200
0000
0000
0300
2000
0000
3000
0100
,  // measure 36
0010
0000
1000
0100
0010
0001
1000
0002
0000
0000
0000
0000
0003
0000
0000
0000
,  // measure 37
0100
0010
0100
0010
0002
0000
0003
0000
,  // measure 38
2000
3000
0002
0003
2000
0000
0000
3000
,  // measure 39
0100
0000
0000
0010
0000
0000
0100
0000
0020
0000
0030
0000
1001
0000
0000
0000
,  // measure 40
0100
0000
0000
0010
0000
0000
0100
0000
0010
0000
0000
0000
0000
0000
0100
0000
,  // measure 41
0010
0000
0000
0001
0000
0000
1000
0000
0000
0000
0000
0000
0000
0000
0001
0000
,  // measure 42
0100
0000
0000
0010
0000
0000
0100
0000
1000
0000
0000
0000
0000
0000
1000
0000
,  // measure 43
0100
0000
0000
0010
0000
0000
0100
0000
0000
0000
0000
0000
0010
0000
0001
0000
,  // measure 44
0100
0000
0000
0010
0000
0000
0001
0000
0100
0000
0000
0000
0000
0000
1000
0000
,  // measure 45
0100
0000
0000
1000
0000
0000
0100
0000
0000
0000
0000
0000
0000
0000
0010
0000
,  // measure 46
0100
0000
0000
0010
0000
0000
0001
0000
0100
0000
0000
0000
0000
0000
1000
0000
,  // measure 47
0010
0000
0000
1000
0000
0000
0100
0000
0000
0000
0000
0000
0010
0000
0001
0000
,  // measure 48
0100
0000
0000
0010
0000
0000
0100
0000
0010
0000
0000
0000
0000
0000
1000
0000
,  // measure 49
0001
0000
0000
1000
0000
0000
0100
0000
0000
0000
1000
0000
0001
1000
0001
0000
,  // measure 50
0100
0000
0000
0010
0000
0000
0100
0000
0010
0000
0000
0000
0000
0000
0100
0000
,  // measure 51
0010
0000
0000
0100
0000
0000
1000
0000
0100
0000
0010
0000
0100
0001
1000
0000
,  // measure 52
0100
0000
0000
0010
0000
0000
0100
0000
0010
0000
0000
0000
0000
0000
0001
0000
,  // measure 53
0100
0000
0000
1000
0000
0000
0100
0000
0000
0000
1000
0000
0100
1000
0100
0000
,  // measure 54
0100
0000
0000
0010
0000
0000
0100
0000
0010
0000
0000
0000
0000
0000
0001
0000
,  // measure 55
0100
0000
0000
1000
0000
0000
0100
0000
0010
0000
0100
0000
0010
0100
0010
0000
,  // measure 56
0020
0030
0200
0300
0020
0030
0002
0003
,  // measure 57
0100
0000
0000
1000
0200
0000
0300
0000
0010
0000
0100
0000
1000
0100
0000
0010
,  // measure 58
0000
1000
0200
0300
0020
0030
0200
0300
,  // measure 59
0020
0000
0000
0030
0002
0000
0003
0100
,  // measure 60
0010
0001
0000
1000
0000
0100
0020
0000
0000
0000
0000
0000
0000
0000
0030
0000
,  // measure 61
0100
0010
0100
1000
0200
0000
0000
0300
,  // measure 62
0200
0300
0020
0030
0002
0000
0000
0003
,  // measure 63
0100
0000
0000
0010
0000
0000
0100
0000
0202
0000
0303
0000
2020
0000
3030
0000
,  // measure 64
0200
0300
0020
0030
0200
0300
0002
0003
,  // measure 65
0100
0000
0000
1000
0100
0000
0001
0010
0100
0010
0000
0100
0000
1000
0000
0200
,  // measure 66
0000
0300
0020
0030
0200
0300
0020
0030
,  // measure 67
0002
0000
0000
0003
0200
0000
0300
1000
,  // measure 68
0001
0000
0100
0000
0010
0001
1000
0200
0000
0000
0000
0000
0300
0000
0000
0000
,  // measure 69
0100
0010
0100
1000
0200
0000
0300
0000
,  // measure 70
0200
0300
0020
0030
0002
0000
0000
0003
,  // measure 71
0100
0000
0000
0010
0000
0000
1000
0000
2200
0000
3300
0000
0202
0000
0303
0000
,  // measure 72
1001
0000
0000
0000
;
