#VERSION:0.83;
#TITLE:[E];
#SUBTITLE:;
#ARTIST:dj MAX STEROID;
#TITLETRANSLIT:;
#SUBTITLETRANSLIT:;
#ARTISTTRANSLIT:;
#GENRE:Trance;
#ORIGIN:;
#CREDIT:;
#BANNER:E.png;
#BACKGROUND:E-bg.png;
#PREVIEWVID:;
#JACKET:E-jacket.png;
#CDIMAGE:;
#DISCIMAGE:;
#LYRICSPATH:;
#CDTITLE:Wrland Season 2.png;
#MUSIC:E.ogg;
#OFFSET:-0.001000;
#SAMPLESTART:58.430000;
#SAMPLELENGTH:12.000000;
#SELECTABLE:YES;
#DISPLAYBPM:152.000000;
#BPMS:0.000=152.000;
#STOPS:147.000=0.395;
#DELAYS:;
#WARPS:;
#TIMESIGNATURES:0.000=4=4;
#TICKCOUNTS:0.000=4;
#COMBOS:0.000=1;
#SPEEDS:0.000=1.000=0.000=0;
#SCROLLS:0.000=1.000;
#FAKES:;
#LABELS:0.000=Song Start;
#BGCHANGES:;
#KEYSOUNDS:;
#ATTACKS:
;

//---------------dance-single - ----------------
#NOTEDATA:;
#CHARTNAME:;
#STEPSTYPE:dance-single;
#DESCRIPTION:;
#CHARTSTYLE:;
#DIFFICULTY:Beginner;
#METER:1;
#RADARVALUES:0.059080,0.125333,0.109719,0.008440,0.004220,49.000000,36.000000,13.000000,1.000000,0.000000,0.000000,0.000000,0.000000,0.000000,0.059080,0.125333,0.109719,0.008440,0.004220,49.000000,36.000000,13.000000,1.000000,0.000000,0.000000,0.000000,0.000000,0.000000;
#CREDIT:;
#DISPLAYBPM:152.000000;
#NOTES:
0000
0000
0000
0000
,
0000
0000
0000
0000
,
0000
0000
0000
0000
,
0000
0000
0000
0000
,
0000
0000
0000
0000
,
1000
0000
0000
0000
,
0000
0000
0000
0000
,
0001
0000
0000
0000
,
0000
0000
0000
0000
,
0100
0000
0000
0000
,
0000
0000
0000
0000
,
0010
0000
0000
0000
,
0000
0000
0000
0000
,
0100
0000
0000
0000
,
0000
0000
0000
0000
,
0010
0000
0000
0000
,
0000
0000
0000
0000
,
0001
0000
0000
0000
,
0000
0000
0000
0000
,
0100
0000
0000
0000
,
0000
0000
0000
0000
,
0001
0000
0000
0000
,
0000
0000
0000
0000
,
1000
0000
0000
0000
,
0000
0000
0000
0000
,
0100
0000
0000
0000
,
0000
0000
0000
0000
,
1000
0000
0000
0000
,
0000
0000
0000
0000
,
0001
0000
0000
0000
,
0000
0000
0000
0000
,
0010
0000
0000
0000
,
0000
0000
0000
0000
,
0001
0000
0000
0000
,
0000
0000
0000
0000
,
1000
0000
0000
0000
,
0000
0000
0000
0000
0000
0000
0000
0000
0000
0000
0000
0000
0000
0000
0000
0000
0000
0000
0000
0000
0000
0000
0000
0000
0000
0000
0000
0000
0000
0000
0000
0000
0000
0000
0000
0000
0000
0000
0000
0000
0000
0000
0000
0000
0000
0000
0000
0000
0000
0000
0000
0000
0000
0000
0000
0000
0000
0000
0000
0000
0000
0000
0000
0000
0000
0000
0000
0000
0000
0000
0000
0000
0000
0000
0000
0000
0000
0000
0000
0000
0000
0000
0000
0000
0000
0000
0000
0000
0000
0000
0000
0000
0000
0000
0000
0000
0000
0000
0000
0000
0000
0000
0000
0000
0000
0000
0000
0000
0000
0000
0000
0000
0000
0000
0000
0000
0000
0000
0000
0000
0000
0000
0000
0000
0000
0000
0000
0000
0000
0000
0000
0000
0000
0000
0000
0000
0000
0000
0000
0000
0000
0000
0000
0000
0000
1001
0000
0000
0000
0000
0000
0000
0000
0000
0000
0000
0000
0000
0000
0000
0000
0000
0000
0000
0000
0000
0000
0000
0000
0000
0000
0000
0000
0000
0000
0000
0000
0000
0000
0000
0000
0000
0000
0000
0000
0000
0000
0000
0000
0000
0000
0000
,
0000
0000
0000
0000
,
0000
0000
0000
0110
,
0000
0000
0000
0000
,
0000
0000
0000
1010
,
0000
0000
0000
0000
,
0000
0000
0000
0101
,
0000
0000
0000
0000
,
0000
0000
0000
0110
,
0000
0000
0000
0000
,
0000
0000
0000
1010
,
0000
0000
0000
0000
,
0000
0000
0000
0101
,
0000
0000
0000
0000
,
0000
0000
0000
1010
,
0000
0000
0000
0000
,
0000
0000
0000
0110
,
0000
0000
0000
0000
,
0000
0000
0000
0001
,
0000
0000
0000
0000
,
0000
0000
0000
1001
,
0000
0000
0000
0000
,
0000
0000
0000
1000
,
0000
0000
0000
0000
,
0000
0000
0000
0110
,
0000
0000
0000
0000
,
0000
0000
0000
0001
,
0000
0000
0000
0000
,
0000
0000
0000
1001
,
0000
0000
0000
0000
,
0000
0000
0000
0001
,
0000
0000
0000
0000
,
0000
0000
0000
1000
,
0000
0000
0000
0000
,
0000
0000
0000
0100
,
0000
0000
0000
0000
,
0000
0000
0000
2000
,
0000
0000
3000
0000
,
0000
1001
0000
0000
;

//---------------dance-single - ----------------
#NOTEDATA:;
#CHARTNAME:;
#STEPSTYPE:dance-single;
#DESCRIPTION:;
#CHARTSTYLE:;
#DIFFICULTY:Easy;
#METER:3;
#RADARVALUES:0.094045,0.155612,0.067520,0.025320,0.004220,78.000000,70.000000,8.000000,3.000000,0.000000,0.000000,0.000000,0.000000,0.000000,0.094045,0.155612,0.067520,0.025320,0.004220,78.000000,70.000000,8.000000,3.000000,0.000000,0.000000,0.000000,0.000000,0.000000;
#CREDIT:;
#DISPLAYBPM:152.000000;
#NOTES:
0000
0000
0000
0000
,
0000
0000
0000
0000
,
0000
0000
0000
0000
,
0000
0000
0000
0000
,
0000
0000
0000
0000
,
1000
0000
0000
0000
,
1000
0000
0000
0000
,
0001
0000
0000
0000
,
0001
0000
0000
0000
,
0100
0000
0000
0000
,
0100
0000
0000
0000
,
0010
0000
0000
0000
,
0010
0000
0000
0000
,
0001
0000
0000
0000
,
0010
0000
0000
0000
,
0001
0000
0000
0000
,
0010
0000
0000
0000
,
1000
0000
0000
0000
,
1000
0000
0000
0000
,
0001
0000
0000
0000
,
0001
0000
0000
0000
,
1000
0000
0000
0000
,
0100
0000
0000
0000
,
1000
0000
0000
0000
,
0100
0000
0000
0000
,
0010
0000
0000
0000
,
0001
0000
0000
0000
,
0010
0000
0000
0000
,
0010
0000
0000
0000
,
0100
0000
0000
0000
,
0001
0000
0000
0000
,
0100
0000
0000
0000
,
0200
0000
0000
0300
,
1000
0000
0000
0010
,
0000
0000
0000
1000
,
0000
0000
0000
0001
,
0000
0000
0000
0000
0000
0000
0000
0000
0000
0000
0000
0000
0000
0000
0000
0000
0000
0000
0000
0000
0000
0000
0000
0000
0000
0000
0000
0000
0000
0000
0000
0000
0000
0000
0000
0000
0000
0000
0000
0000
0000
0000
0000
0000
0000
0000
0000
0000
0000
0000
0000
0000
0000
0000
0000
0000
0000
0000
0000
0000
0000
0000
0000
0000
0000
0000
0000
0000
0000
0000
0000
0000
0000
0000
0000
0000
0000
0000
0000
0000
0000
0000
0000
0000
0000
0000
0000
0000
0000
0000
0000
0000
0000
0000
0000
0000
0000
0000
0000
0000
0000
0000
0000
0000
0000
0000
0000
0000
0000
0000
0000
0000
0000
0000
0000
0000
0000
0000
0000
0000
0000
0000
0000
0000
0000
0000
0000
0000
0000
0000
0000
0000
0000
0000
0000
0000
0000
0000
0000
0000
0000
0000
0000
0000
0000
1001
0000
0000
0000
0000
0000
0000
0000
0000
0000
0000
0000
0000
0000
0000
0000
0000
0000
0000
0000
0000
0000
0000
0000
0000
0000
0000
0000
0000
0000
0000
0000
0000
0000
0000
0000
0000
0000
0000
0000
0000
0000
0000
0000
0000
0000
0000
,
0000
0000
0000
0100
,
0000
0000
0000
0110
,
0000
0000
0000
0010
,
0000
0000
0000
0101
,
0000
0000
0000
0100
,
0000
0000
0000
0110
,
0000
0000
0000
0010
,
0000
0000
0000
1010
,
0000
0000
0000
1000
,
0000
0000
0000
0101
,
0000
0000
0000
0100
,
0000
0000
0000
1001
,
0000
0000
0000
1000
,
0000
0000
0000
0101
,
0000
0000
0000
0002
,
0000
0000
0003
0100
,
0000
0000
0000
0010
,
0000
0000
0000
0100
,
0000
0000
0000
0010
,
0000
0000
0000
1000
,
0000
0000
0000
1000
,
0000
0000
0000
0100
,
0000
0000
0000
0100
,
0000
0000
0000
0010
,
0000
0000
0000
0001
,
0000
0000
0000
0010
,
0000
0000
0000
0001
,
0000
0000
0000
0100
,
0000
0000
0000
0010
,
0000
0000
0000
0100
,
0000
0000
0000
0010
,
0000
0000
0000
1000
,
0000
0000
0000
1000
,
0000
0000
0000
0001
,
0000
0000
0000
0001
,
0000
0000
0000
2000
,
0000
0000
3000
0001
;

//---------------dance-single - ----------------
#NOTEDATA:;
#CHARTNAME:;
#STEPSTYPE:dance-single;
#DESCRIPTION:;
#CHARTSTYLE:;
#DIFFICULTY:Medium;
#METER:6;
#RADARVALUES:0.444906,0.658000,0.067520,0.109719,0.291179,369.000000,361.000000,8.000000,13.000000,0.000000,0.000000,0.000000,0.000000,0.000000,0.444906,0.658000,0.067520,0.109719,0.291179,369.000000,361.000000,8.000000,13.000000,0.000000,0.000000,0.000000,0.000000,0.000000;
#CREDIT:;
#DISPLAYBPM:152.000000;
#NOTES:
0000
0000
0000
0000
,
0000
0000
0000
0000
,
0000
0000
0000
0000
,
0000
0000
0000
0000
,
0000
0000
0000
0000
,
1000
0000
0000
0100
0000
0000
1000
0000
0000
0000
0100
0000
0010
0000
0000
0000
,
0100
0000
0000
0010
0000
0000
0001
0000
0000
0000
0100
0000
0001
0000
0000
0000
,
0010
0000
0000
1000
0000
0000
0100
0000
0000
0000
1000
0000
0100
0000
0000
0000
,
0001
0000
1000
0001
,
0100
0000
0000
0001
0000
0000
1000
0000
0000
0000
0001
0000
1000
0000
0100
0000
,
1000
0000
0000
0100
0000
0000
0010
0000
0000
0000
0100
0000
0010
0000
0001
0000
,
1000
0000
0000
0100
0000
0000
1000
0000
0000
0000
0100
0000
1000
0000
0100
0000
,
0010
0000
0000
0100
0000
0000
0010
0000
0000
0000
0001
0000
0100
0000
0010
0000
,
1000
0000
0000
0100
0000
0000
1000
0000
0000
0000
0100
0000
0010
0000
0100
0000
,
1000
0000
0000
0100
0000
0000
0010
0000
0000
0000
0100
0000
0010
0000
0001
0000
,
1000
0000
0000
0100
0000
0000
0001
0000
0000
0000
0100
0000
0010
0000
0001
0000
,
1000
0000
0100
0010
,
0100
0010
0100
1000
,
0000
0001
0000
0000
1000
0000
0000
0000
0100
0000
0000
0000
0010
0000
0000
0000
,
0000
1000
0100
0000
0100
0000
0010
0000
,
0000
0100
0010
0000
0001
0000
1000
0000
,
0000
0000
0001
0000
1000
0000
0000
0000
0001
0000
0000
0000
1000
0000
0000
0010
,
0000
0100
0000
0010
0000
0000
0000
0000
0001
0000
0000
0000
1000
0000
0000
0000
,
0000
0100
0000
1000
0000
0000
0000
0000
0100
0000
0000
0000
0010
0000
0000
0000
,
0000
0100
0000
0010
0000
0000
0000
0000
0001
0000
0000
0000
1000
0000
0000
0000
,
0100
0000
0000
0010
0000
0000
0100
0000
0000
0000
0001
0000
1000
0000
0000
0000
,
0100
0000
0000
1000
0000
0000
0100
0000
0000
0000
0010
0000
0100
0000
0000
0000
,
0010
0000
0000
0001
0000
0000
1000
0000
0000
0100
0000
0000
1000
0000
0001
0000
,
0100
0010
0100
1000
0100
0010
0001
0000
0000
1000
0000
0000
,
0100
0000
0000
0001
0000
0000
1000
0000
0000
0100
0000
0000
1000
0000
0000
0000
,
0100
0000
0000
0010
0000
0000
0100
0000
0000
0000
0010
0000
0001
0000
0000
0000
,
0100
0000
0000
1000
0000
0000
0100
0000
0000
0000
0001
0000
0100
0000
0000
0000
,
0001
0100
1000
0100
0010
0001
0110
0000
0000
1001
0000
0000
,
0100
0000
0000
0010
0001
0000
0000
0000
,
0010
0000
0000
0100
1000
0000
0000
0000
,
0010
0000
0000
0001
1000
0000
0000
0000
,
0001
0000
0000
0000
0000
0000
0000
0000
0000
0000
0000
0000
0000
0000
0000
0000
0000
0000
0000
0000
0000
0000
0000
0000
0000
0000
0000
0000
0000
0000
0000
0000
0000
0000
0000
0000
0000
0000
0000
0000
0000
0000
0000
0000
0000
0000
0000
0000
0000
0000
0000
0000
0000
0000
0000
0000
0000
0000
0000
0000
0000
0000
0000
0000
0000
0000
0000
0000
0000
0000
0000
0000
1000
0000
0000
0000
0000
0000
0000
0000
0000
0000
0000
0000
0000
0000
0000
0000
0000
0000
0000
0000
0000
0000
0000
0000
0001
0000
0000
0000
0000
0000
0000
0000
0000
0000
0000
0000
0000
0000
0000
0000
0000
0000
0000
0000
0000
0000
0000
0000
0000
0000
0000
0000
0000
0000
0000
0000
0000
0000
0000
0000
0000
0000
0000
0000
0000
0000
0000
0000
0000
0000
0000
0000
0000
0100
0000
0000
0000
0000
0000
0000
0000
0000
0000
0000
0000
0000
0000
0000
0000
0000
0000
0000
0000
0000
0000
0000
0000
0000
0000
0000
0000
0000
0000
0000
0000
0000
0000
0000
0010
0000
0000
0000
0000
0000
0000
0000
0000
0000
0000
0000
,
0000
0000
1000
0000
0000
0000
0100
0000
1000
0000
0100
0000
0010
0000
0000
0001
,
0000
0000
1000
0000
0001
0000
0000
0100
0000
0000
1000
0000
0100
0000
0010
0000
,
0001
2000
0000
3000
0100
0010
0100
0010
,
0100
0001
1000
0000
0001
0000
0200
0000
,
0000
0000
0300
0010
1000
0100
0020
0000
,
0030
0000
0001
0000
1000
0000
0000
0010
0000
0000
1000
0000
0100
0000
0010
0000
,
0001
2000
0000
3000
0100
1000
0200
0300
,
0020
0000
0030
0000
0100
0000
2000
0000
0000
0000
3000
0000
0001
0000
0000
1000
,
0000
0000
0002
0000
0003
0000
0100
0000
0010
0000
0100
0000
1000
0000
0000
0100
,
0000
0000
0010
0000
0001
0000
0000
1000
0000
0000
0100
0000
0010
0000
0001
0000
,
1000
0200
0000
0300
0001
0100
2000
3000
,
0200
0000
0300
0000
0010
0000
0002
0000
0000
0000
0003
0000
0100
0000
0000
0010
,
0000
0000
1000
0000
0000
0000
0100
0000
0010
0000
1000
0000
0100
0000
0001
0010
,
0000
0000
1000
0000
0100
0000
0000
0010
0000
0000
0100
0000
1000
0000
0001
0000
,
1000
0000
0000
0200
0000
0000
0000
0000
0000
0300
0000
0000
0100
0000
0000
0010
0000
0000
0100
0000
0001
0000
0001
0000
,
0001
0000
1000
0000
0100
0000
0000
0000
0110
0000
0000
0000
0010
0000
0000
0100
,
0000
0000
0010
0000
0000
0000
1000
0000
0100
0000
0000
0000
0001
0000
0000
1000
,
0000
0000
0001
0000
0000
0000
0100
0000
0100
0000
0000
0000
1000
0000
0000
0100
,
0000
0000
0010
0000
0000
0000
0100
0000
0010
0000
0000
0000
0001
0000
0000
1000
,
0000
0000
0010
0000
1000
0000
0000
0000
1001
0000
0000
0000
0100
0000
0000
0010
,
0000
0000
0100
0000
0000
0000
0010
0000
0001
0000
0000
0000
1000
0000
0000
0100
,
0000
0000
1000
0000
0000
0000
0100
0000
0100
0000
0000
0000
1000
0000
0000
0100
,
0000
0000
0001
0000
0000
0000
0100
0000
0010
0000
0000
0000
0001
0000
0000
1000
,
0000
0000
0001
0000
0100
0000
0000
0000
0110
0000
0000
0000
0010
0000
0000
0001
,
0000
0000
1000
0000
0000
0000
0010
0000
0100
0000
0000
0000
1000
0000
0000
0100
,
0000
0000
0010
0000
0000
0000
0100
0000
0010
0000
0000
0000
0001
0000
0000
1000
,
0000
0000
0100
0000
0000
0000
1000
0000
0100
0000
0000
0000
0010
0000
0000
0100
,
0000
0000
0010
0000
0001
0000
0000
0000
0101
0000
0000
0000
0100
0000
0000
1000
,
0000
0000
0100
0000
0000
0000
0010
0000
0100
0000
0000
0000
1000
0000
0000
0100
,
0000
0000
0010
0000
0000
0000
0001
0000
0100
0000
0000
0000
0001
0000
0000
0010
,
0000
0000
0100
0000
0000
0000
0010
0000
1000
0000
0000
0000
0001
0000
0000
1000
,
0000
0100
1010
0000
1001
0000
0100
0000
,
0010
0100
0010
0001
,
1000
0001
1000
0100
,
1000
0100
1000
0100
,
0010
0000
0000
0000
0100
0000
0000
0000
0010
0000
0000
0000
0100
0000
1000
0100
,
0001
0000
1000
0100
0010
0001
1000
0001
0100
0010
0100
0010
0100
0000
0001
0000
,
1000
0100
0010
0000
0000
0000
0000
0000
;

//---------------dance-single - ----------------
#NOTEDATA:;
#CHARTNAME:;
#STEPSTYPE:dance-single;
#DESCRIPTION:;
#CHARTSTYLE:;
#DIFFICULTY:Hard;
#METER:11;
#RADARVALUES:0.835556,1.065334,0.067520,0.160359,1.101415,693.000000,685.000000,8.000000,19.000000,0.000000,0.000000,0.000000,0.000000,0.000000,0.835556,1.065334,0.067520,0.160359,1.101415,693.000000,685.000000,8.000000,19.000000,0.000000,0.000000,0.000000,0.000000,0.000000;
#CREDIT:;
#DISPLAYBPM:152.000000;
#NOTES:
// measure 0
0000
0000
0000
0000
,  // measure 1
0000
0000
0000
0000
,  // measure 2
0000
0000
0000
0000
,  // measure 3
0000
0000
0000
0000
,  // measure 4
0000
0000
0000
0000
,  // measure 5
0100
0000
0000
1000
0100
0000
0010
0000
0000
0000
0100
0000
0010
0000
0001
0000
,  // measure 6
1000
0001
0000
0100
0010
0000
0001
0100
0010
0001
0010
0100
0010
0000
0000
0000
,  // measure 7
0100
0000
0000
0010
0000
0000
0001
0000
0000
0000
1000
0100
0010
0000
0000
0000
,  // measure 8
1001
0000
0000
0000
0000
0000
0000
0000
0100
0000
0000
0010
0000
0100
0010
0100
,  // measure 9
0010
0000
0000
0100
0000
0000
0010
0000
0000
0000
0100
1000
0100
0000
0001
0000
,  // measure 10
0010
0000
0000
0100
0000
0000
0010
0000
0000
0000
0001
0000
1000
0100
1000
0000
,  // measure 11
0100
0000
0000
0010
0000
0000
1000
0000
0000
0000
0100
0000
0010
0001
0100
0000
,  // measure 12
0010
0000
0000
0001
0000
0000
1000
0000
0000
0000
0100
0000
1000
0001
0100
0000
,  // measure 13
0010
0000
0000
0100
0000
0000
0010
0000
0000
0000
0100
0000
0010
0100
0010
0000
,  // measure 14
0001
0000
0000
0001
0000
0000
1000
0000
0000
0000
0001
0000
1000
0100
1000
0000
,  // measure 15
0001
0000
0000
0010
0000
0000
0100
0000
0000
0000
0010
0000
1000
0001
1000
0000
,  // measure 16
0100
0000
0010
0000
0001
0010
0001
0010
0001
1000
0100
0010
0101
0000
0000
0000
,  // measure 17
0010
0000
0100
1000
0100
0000
0000
0000
0010
0001
0010
0000
0100
0010
0100
0010
,  // measure 18
0100
0000
0100
0000
0010
0000
0001
0010
1000
0000
0100
1000
0100
0010
0000
0001
,  // measure 19
0010
0000
0100
0000
0010
0001
0010
0000
0001
0010
0100
0010
1000
0100
0010
0001
,  // measure 20
0010
0100
0000
1000
0100
0010
0100
0010
0100
0000
0001
0000
0010
1000
0100
1000
,  // measure 21
0100
0000
0010
0000
1000
0100
1000
0000
0100
0010
0001
0010
0100
0000
0010
0000
,  // measure 22
0000
1000
0000
0100
0000
0001
0010
0001
1000
0010
0001
1000
0100
0010
0001
0010
,  // measure 23
1000
0000
0100
0000
0010
0100
0010
0000
0001
1000
0001
0000
0100
0010
0100
0000
,  // measure 24
0000
0010
0000
0100
0001
1000
0001
0000
0100
0010
0100
0000
0110
0000
0000
0000
,  // measure 25
0100
0010
0100
0010
0100
0010
0000
0001
1000
0000
0000
0000
0100
0000
0000
0001
,  // measure 26
0010
1000
0000
0100
0000
0000
0010
0000
0000
0000
0100
0000
0010
0000
0000
0000
,  // measure 27
1000
0001
0000
0100
0000
0000
0010
1000
0100
0010
0100
0001
0010
0001
0010
0001
,  // measure 28
1000
0000
0000
0000
0100
0000
0000
0000
0010
0000
0000
0000
0001
0000
0000
0010
0000
0000
1000
0000
0000
0100
0000
0000
0001
0000
0000
0000
0000
0000
0010
0000
0000
1000
0000
0000
0100
0000
0000
0010
0000
0000
0100
0000
0000
0010
0000
0000
,  // measure 29
0100
0010
0001
0010
0000
0000
0000
0100
0010
0100
0010
0000
1000
0001
0000
0010
,  // measure 30
1000
0100
1000
0100
1000
0100
1000
0000
0100
0000
0010
0000
0100
0000
0001
0000
0010
0000
0001
0000
0010
0000
0100
0000
1000
0000
0100
0000
0000
0000
0000
0000
,  // measure 31
0010
0000
0000
0100
0000
0000
0010
0100
0010
0001
0010
0100
1000
0100
0010
0001
,  // measure 32
0100
0010
1000
0100
0010
0000
1001
0000
0000
0110
0000
0000
,  // measure 33
0100
0000
0010
0000
0100
0010
0100
0001
1000
0100
0010
0001
0010
0100
1000
0100
,  // measure 34
0010
0001
0010
0100
1000
0100
0010
0001
0010
0100
1000
0100
0010
0001
0010
0100
,  // measure 35
1000
0100
0010
0001
0010
0100
1000
0100
0010
0001
0010
0100
1000
0100
0010
0001
,  // measure 36
1000
0000
0000
0000
0000
0000
0000
0000
0000
0000
0000
0000
0100
0000
0000
0000
0000
0000
0000
0000
0000
0000
0000
0000
1000
0000
0000
0000
0000
0000
0000
0000
0000
0000
0000
0000
0001
0000
0000
0000
0000
0000
0000
0000
0000
0000
0000
0000
0010
0000
0000
0000
0000
0000
0000
0000
0000
0000
0000
0000
0001
0000
0000
0000
0000
0000
0000
0000
0000
0000
0000
0000
0100
0000
0000
0000
0000
0000
0000
0000
0000
0000
0000
0000
1000
0000
0000
0000
0000
0000
0000
0000
0000
0000
0000
0000
0100
0000
0000
0000
0000
0000
0000
0000
0000
0000
0000
0000
0010
0000
0000
0000
0000
0000
0000
0000
0000
0000
0000
0000
0001
0000
0000
0000
0000
0000
0000
0000
0000
0000
0000
0000
0010
0000
0000
0000
0000
0000
0000
0000
0000
0000
0000
0000
1001
0100
0000
0000
0000
0000
0000
0000
0000
0000
0000
0000
0000
0000
0000
0000
0000
0000
0000
0000
0000
0000
0000
0000
0000
0000
0000
0000
0000
0000
0000
0000
0000
0000
0000
0000
0001
0000
0000
0000
0000
0000
0000
0000
0000
0000
0000
0000
,  // measure 37
0000
0000
1000
0000
0000
0000
0100
0000
0010
0000
0001
0000
1000
0000
0000
0100
,  // measure 38
0000
0000
1000
0000
0100
0000
0000
0010
0000
0000
0100
0000
0010
0000
1000
0000
,  // measure 39
0100
0020
0000
0030
0100
0010
0100
0010
,  // measure 40
1000
0100
0020
0030
0002
0003
2010
0100
,  // measure 41
0010
0000
0001
0000
3100
0000
0100
0000
0010
0000
1000
0000
0100
0000
0000
1000
,  // measure 42
0000
0000
0100
0000
0001
0000
0000
0100
0000
0000
0010
0000
0100
0000
1000
0000
,  // measure 43
0100
0020
0000
0030
0100
0010
0002
0003
,  // measure 44
2000
0000
3000
0000
0100
0000
2000
0000
0000
0000
3000
0000
0100
0000
0000
0010
,  // measure 45
0000
0000
0200
0000
0300
0000
0010
0000
0001
0000
1000
0000
0100
0000
0000
1000
,  // measure 46
0000
0000
0100
0000
0010
0000
0000
0001
0000
0000
0100
0000
0010
0000
1000
0000
,  // measure 47
0100
2000
0000
3000
0100
0010
0002
0003
,  // measure 48
0020
0000
0030
0000
0100
0000
2000
0000
0000
0000
3000
0000
0100
0000
0000
0001
,  // measure 49
0000
0000
0200
0000
0300
0000
0010
0000
0100
0000
1000
0000
0100
0010
0001
0010
,  // measure 50
0001
0000
0100
0000
1000
0000
0000
0100
0000
0000
0010
0000
0001
0000
0100
0000
,  // measure 51
0010
0000
0000
0002
0000
0000
0000
0000
0000
0003
0000
0000
0100
0000
0000
0010
0000
0000
0100
0000
0010
0000
1000
0000
,  // measure 52
0200
0000
0300
0000
0020
0000
0030
0000
0220
0000
0330
0000
0100
0000
0000
0010
,  // measure 53
0000
0000
1000
0000
0010
0001
0100
0000
1000
0000
0100
0000
0010
0000
0000
0100
,  // measure 54
0000
0000
0010
0000
1000
0010
0001
0000
0100
0000
0010
0000
1000
0000
0000
0100
,  // measure 55
0000
0000
1000
0000
0001
0010
0100
0000
0010
0000
0100
0000
1000
0000
0000
0100
,  // measure 56
0000
0000
0010
0000
0001
1000
0000
0100
0000
0000
0010
0000
1000
0000
0000
0100
,  // measure 57
0000
0000
0010
0000
0001
0010
0100
0000
0010
0000
0001
0000
0100
0000
0000
1000
,  // measure 58
0000
0000
0100
0010
0100
0000
0010
0000
0100
0000
0010
0000
0001
0000
0000
0100
,  // measure 59
0000
0000
1000
0001
0010
0000
0100
0000
1000
0000
0100
0000
0010
0000
0000
0001
,  // measure 60
0000
0000
0100
0000
0010
0001
0000
1000
0000
0000
0001
0000
1000
0000
0100
0000
,  // measure 61
1000
0000
0100
0000
0001
0000
0010
0001
0010
0100
1000
0100
1000
0000
0001
0010
,  // measure 62
0001
0000
0010
0100
0010
0000
0100
0010
0100
1000
0100
1000
0010
0100
0010
0001
,  // measure 63
0010
0001
0010
0100
1000
0100
1000
0100
0010
0001
0010
0001
0010
0100
0010
0100
,  // measure 64
1000
0100
1000
0100
0010
0100
0010
0001
0010
0100
0010
0100
0010
0000
1000
0000
,  // measure 65
0000
0000
0001
0000
0100
0010
0100
0000
0010
0100
0010
0000
0000
0001
1000
0001
,  // measure 66
1000
0000
0100
0010
0100
0000
0010
0001
0010
0100
1000
0100
0010
0001
0010
0100
,  // measure 67
1000
0100
0010
0100
0010
0001
0010
0100
0010
0100
0010
0100
0010
0001
1000
0001
,  // measure 68
1000
1000
1000
1000
1000
0100
0100
0010
0010
0001
0001
0010
0010
0100
0100
1000
,  // measure 69
1000
0001
1000
0001
1000
0001
1000
0001
1000
0001
1000
0001
1000
0001
1000
0001
,  // measure 70
1000
0001
1000
0001
1000
0001
1000
0001
1000
0001
1000
0001
0100
0010
0100
0010
,  // measure 71
0100
0010
0100
0010
0100
0010
0100
0010
0100
0010
0100
0010
0100
0010
0100
0010
,  // measure 72
0100
0001
1000
0001
0100
0010
0100
0001
0010
1000
0010
0100
1000
0010
0100
1000
,  // measure 73
0010
0100
0001
0010
0100
0010
0100
0010
0001
1000
1000
0100
1000
0000
0010
0000
,  // measure 74
0010
0100
0010
0000
0000
0000
0000
0000
;
