#VERSION:0.83;
#TITLE:겨울동화;
#SUBTITLE:;
#ARTIST:라붐;
#TITLETRANSLIT:Winter Story;
#SUBTITLETRANSLIT:;
#ARTISTTRANSLIT:LABOUM;
#GENRE:K-Pop;
#ORIGIN:;
#CREDIT:;
#BANNER:Winter Story.png;
#BACKGROUND:Winter Story-bg.png;
#PREVIEWVID:;
#JACKET:Winter Story-jacket.png;
#CDIMAGE:;
#DISCIMAGE:Winter Story (trasnparent).png;
#LYRICSPATH:;
#CDTITLE:Wrland.png;
#MUSIC:Winter Story.ogg;
#OFFSET:-0.064000;
#SAMPLESTART:100.064003;
#SAMPLELENGTH:12.000000;
#SELECTABLE:YES;
#BPMS:0.000=63.000,
20.000=126.000,
156.000=63.000,
164.000=126.000;
#STOPS:;
#DELAYS:;
#WARPS:;
#TIMESIGNATURES:0.000=4=4;
#TICKCOUNTS:0.000=4;
#COMBOS:0.000=1;
#SPEEDS:0.000=1.000=0.000=0;
#SCROLLS:0.000=1.000;
#FAKES:;
#LABELS:0.000=Song Start;
#BGCHANGES:0.000=Winter Story.avi=1.000=0=0=0=StretchNoLoop====,
99999=-nosongbg-=1.000=0=0=0 // don't automatically add -songbackground-
;
#KEYSOUNDS:;
#ATTACKS:
;

//---------------dance-single - ----------------
#NOTEDATA:;
#CHARTNAME:;
#STEPSTYPE:dance-single;
#DESCRIPTION:;
#CHARTSTYLE:;
#DIFFICULTY:Beginner;
#METER:1;
#RADARVALUES:0.036470,0.094261,0.019638,0.013092,0.000000,39.000000,36.000000,3.000000,2.000000,0.000000,0.000000,0.000000,0.000000,0.000000,0.036470,0.094261,0.019638,0.013092,0.000000,39.000000,36.000000,3.000000,2.000000,0.000000,0.000000,0.000000,0.000000,0.000000;
#CREDIT:;
#NOTES:
0000
0000
0000
0000
,
0000
0000
0000
0000
,
0000
0000
0000
0000
,
0000
0000
0000
0000
,
0000
0000
0000
0000
,
1000
0000
0000
0000
,
0000
0000
0000
0000
,
0001
0000
0000
0000
,
0000
0000
0000
0000
,
1000
0000
0000
0000
,
0000
0000
0000
0000
,
0001
0000
0000
0000
,
0000
0000
0000
0000
,
0100
0000
0000
0000
,
0000
0000
0000
0000
,
0010
0000
0000
0000
,
0000
0000
0000
0000
,
0100
0000
0000
0000
,
0000
0000
0000
0000
,
0010
0000
0000
0000
,
0000
0000
0000
0000
,
1000
0000
0000
0000
,
0000
0000
0000
0000
,
0001
0000
0000
0000
,
0000
0000
0000
0000
,
1000
0000
0000
0000
,
0000
0000
0000
0000
,
0001
0000
0000
0000
,
0000
0000
0000
0000
,
1000
0000
0000
0000
,
0000
0000
0000
0000
,
0100
0000
0000
0000
,
0000
0000
0000
0000
,
0010
0000
0000
0000
,
0000
0000
0000
0000
,
0100
0000
0000
0000
,
0000
0000
0000
0000
,
0010
0000
0000
0000
,
0000
0000
0000
0000
,
1000
0000
0000
0000
,
0100
0000
0000
0000
,
0010
0000
0000
0000
,
0000
0000
0000
0000
,
0001
0000
0000
0000
,
0000
0000
0000
0000
,
0100
0000
0000
0000
,
0000
0110
0000
0000
,
0000
0000
0000
0000
,
1000
0000
0000
0000
,
0000
0000
0000
0000
,
0100
0000
0000
0000
,
0000
0000
0000
0000
,
0100
0000
0000
0000
,
0000
0000
0000
0000
,
0000
0001
0000
0000
,
0000
0000
0000
0000
,
0010
0000
0000
0000
,
0000
0000
0000
0000
,
0100
0000
0000
0000
,
0000
0000
0000
0000
,
1000
0000
0000
0000
,
0000
0000
0000
0000
,
0010
0000
0000
0000
,
0000
0000
0000
0000
,
0010
0000
0000
0000
,
0000
0000
0000
0000
,
0100
0000
0000
0000
,
0000
0000
0000
0000
,
0100
0000
0000
0000
,
0000
0000
0000
0000
,
2002
0000
0000
0000
,
3003
0000
0000
0000
,
1001
0000
0000
0000
;

//---------------dance-single - ----------------
#NOTEDATA:;
#CHARTNAME:;
#STEPSTYPE:dance-single;
#DESCRIPTION:;
#CHARTSTYLE:;
#DIFFICULTY:Easy;
#METER:3;
#RADARVALUES:0.070135,0.117826,0.039275,0.013092,0.000000,75.000000,69.000000,6.000000,2.000000,0.000000,0.000000,0.000000,0.000000,0.000000,0.070135,0.117826,0.039275,0.013092,0.000000,75.000000,69.000000,6.000000,2.000000,0.000000,0.000000,0.000000,0.000000,0.000000;
#CREDIT:;
#NOTES:
0000
0000
0000
0000
,
0000
0000
0000
0000
,
0000
0000
0000
0000
,
0000
0000
0000
0000
,
0000
0000
0000
0000
,
1000
0000
0000
0000
,
1000
0000
0000
0000
,
0010
0000
0000
0000
,
0010
0000
0000
0000
,
0100
0000
0000
0000
,
0100
0000
0000
0000
,
0001
0000
0000
0000
,
0001
0000
0000
0000
,
1000
0000
0000
0000
,
1000
0000
0000
0000
,
0001
0000
0000
0000
,
0001
0000
0000
0000
,
1000
0000
0000
0000
,
1000
0000
0000
0000
,
0100
0000
0000
0000
,
0100
0000
0000
0000
,
0010
0000
0000
0000
,
0010
0000
0000
0000
,
0100
0000
0000
0000
,
0100
0000
0000
0000
,
0001
0000
0000
0000
,
0001
0000
0000
0000
,
1000
0000
0000
0000
,
1000
0000
0000
0000
,
0001
0000
0000
0000
,
0001
0000
0000
0000
,
0100
0000
0000
0000
,
0010
0000
0000
0000
,
0100
0000
0000
0000
,
1000
0000
0000
0000
,
0100
0000
0000
0000
,
1000
0000
0000
0000
,
0010
0000
0000
0000
,
0100
0000
0000
0000
,
0010
0000
0100
0000
,
0001
0000
1000
0000
,
1000
0000
0000
0000
,
0001
0000
0000
0000
,
1000
0000
0000
0000
,
0001
0000
0000
0000
,
1001
0000
0000
0000
,
0000
0110
0000
0000
,
0100
0000
0000
0000
,
0010
0000
0000
0000
,
1000
0000
0000
0000
,
0001
0000
0000
0000
,
1000
0000
0000
0000
,
0100
0000
0000
0000
,
1000
0000
0000
0000
,
0100
0000
0000
0000
,
0110
0000
0000
0000
,
1001
0000
0000
0000
,
0010
0000
0000
0000
,
0100
0000
0000
0000
,
1000
0000
0000
0000
,
0100
0000
0000
0000
,
1000
0000
0000
0000
,
0010
0000
0000
0000
,
0100
0000
0000
0000
,
0010
0000
0000
0000
,
0100
0000
0000
0000
,
0001
0000
0000
0000
,
0100
0000
0000
0000
,
1000
0000
0000
0000
,
0010
0000
0000
0000
,
2002
0000
0000
0000
,
3003
0000
0000
0000
,
1001
0000
0000
0000
;

//---------------dance-single - ----------------
#NOTEDATA:;
#CHARTNAME:;
#STEPSTYPE:dance-single;
#DESCRIPTION:;
#CHARTSTYLE:;
#DIFFICULTY:Medium;
#METER:6;
#RADARVALUES:0.287085,0.329914,0.039275,0.013092,0.039275,307.000000,301.000000,6.000000,2.000000,0.000000,0.000000,0.000000,0.000000,0.000000,0.287085,0.329914,0.039275,0.013092,0.039275,307.000000,301.000000,6.000000,2.000000,0.000000,0.000000,0.000000,0.000000,0.000000;
#CREDIT:;
#NOTES:
0000
0000
0000
0000
,
0000
0000
0000
0000
,
0000
0000
0000
0000
,
0000
0000
0000
0000
,
0000
0000
0000
0000
,
1000
0000
0001
0000
,
1000
0000
0001
0000
,
1000
0000
0001
0000
,
1000
0000
0001
0000
,
0100
0000
0010
0000
,
0100
0000
0010
0000
,
0100
0000
0010
0000
,
0100
0000
0010
0000
,
0100
0000
0010
0000
0100
0010
1000
0100
,
0000
0010
0000
0100
0000
1000
0100
0000
,
0100
0000
0010
0000
0001
1000
0001
0000
,
1000
0000
0000
0100
0000
0000
1000
0000
0000
0000
0100
0000
0010
0000
0100
0000
,
0010
0000
0100
0010
0000
0100
0000
0100
,
0000
0010
0100
0010
0000
0000
1000
0100
,
1000
0100
1000
0100
0000
0100
1000
0100
,
0000
0000
0010
0000
0000
0100
0010
0100
,
0010
0000
1001
0000
,
0110
0000
0000
0000
,
1000
0000
0100
0000
0010
0100
0010
0000
,
0100
0010
0100
0010
,
0001
0000
1000
0000
0001
1000
0001
0000
,
1000
0100
1000
0100
,
0010
0000
0100
0000
0010
0100
0010
0000
,
0100
1000
0100
1000
,
0100
0000
0100
0000
0010
0100
0010
0000
,
0001
0010
0001
0010
,
1000
0000
0100
0000
1000
0100
1000
0000
,
0100
0000
0010
0100
0010
0000
0100
0000
,
0010
0000
0001
0000
0010
0001
0010
0000
,
0010
0100
1000
0100
,
1000
0000
0100
0000
1000
0100
1000
0000
,
0100
0000
0010
0100
0010
0000
0001
0000
,
0100
0000
0010
0000
0100
1000
0100
1000
,
0100
0000
0000
0000
0000
0000
0100
0010
0100
0000
0000
0000
0010
0000
0000
0000
,
0100
0001
1000
0100
,
0010
0100
0010
0100
,
1000
1000
0001
0001
,
0100
0100
0010
0010
,
0100
1000
0100
1000
,
0010
0100
0010
0100
,
1001
0000
0000
0000
0000
0100
0010
0100
,
0010
0000
1001
0000
0100
1000
0100
1000
,
0000
0100
0000
0010
0000
0100
0010
0001
,
0100
0000
0100
0000
0010
0100
1000
0100
,
0100
0000
0000
0010
0000
0000
0100
0000
0000
0000
0100
0000
0010
0000
0001
0000
,
1000
0000
0100
0010
0000
0100
0000
0010
,
0000
0001
0100
0010
0000
0000
1000
0100
,
1000
0100
1000
0100
0000
0100
0010
0100
,
0000
0000
0010
0100
0010
0001
0100
0001
,
0100
0000
0010
0000
0100
0010
0100
0000
,
1000
0000
0000
0100
0000
0000
1000
0000
0000
0000
0000
0000
0000
0000
0000
0000
,
0100
0000
0010
0000
0100
0010
0100
0000
,
0001
0000
0000
0100
0000
0000
0010
0000
0000
0000
0100
0000
0010
0000
0100
0000
,
0010
0000
0100
0010
0000
0001
0000
0100
,
0000
0010
0100
0010
0000
0000
1000
0100
,
1000
0100
1000
0100
0000
0100
0010
0100
,
0010
0000
0010
0000
0001
0100
0001
0000
,
0100
0000
0000
0010
0000
0000
0100
0000
0000
0000
0000
0000
0010
0000
0100
0000
,
0001
0000
0000
0100
0000
0000
0010
0000
0000
0000
0000
0000
1000
0000
0100
0000
,
1000
0000
0000
0100
0000
0000
1000
0000
0000
0000
0000
0000
0100
0000
0000
0000
,
0010
0000
0000
0100
0000
0000
1000
0000
0000
0000
0000
0000
0100
0000
1000
0000
,
0100
0000
0000
1000
0000
0000
0100
0000
0000
0000
0000
0000
0100
0000
0010
0000
,
0100
0000
0000
0010
0000
0000
0001
0000
0000
0000
0000
0000
0100
0000
1000
0000
,
0100
0000
0000
0100
0000
0000
0010
0000
0000
0000
0000
0000
0100
0000
0010
0000
,
1000
0000
0100
0000
0010
0100
0010
0100
,
2002
0000
0000
3003
,
0100
1000
0100
0010
0001
0100
0010
0000
,
1001
0000
0000
0000
;

//---------------dance-single - ----------------
#NOTEDATA:;
#CHARTNAME:;
#STEPSTYPE:dance-single;
#DESCRIPTION:;
#CHARTSTYLE:;
#DIFFICULTY:Hard;
#METER:9;
#RADARVALUES:0.385274,0.518437,0.065459,0.235653,0.144010,412.000000,402.000000,10.000000,36.000000,0.000000,0.000000,0.000000,0.000000,0.000000,0.385274,0.518437,0.065459,0.235653,0.144010,412.000000,402.000000,10.000000,36.000000,0.000000,0.000000,0.000000,0.000000,0.000000;
#CREDIT:;
#NOTES:
// measure 0
0000
0000
0000
0000
,  // measure 1
0000
0000
0000
0000
,  // measure 2
0000
0000
0000
0000
,  // measure 3
0000
0000
0000
0000
,  // measure 4
0000
0000
0000
0000
,  // measure 5
0100
0000
0000
0010
0000
0000
0200
0000
0000
0000
0300
0000
1000
0000
0100
0000
,  // measure 6
0001
0000
0000
0100
0000
0000
0020
0000
0000
0000
0030
0000
0100
0000
0010
0000
,  // measure 7
0100
0000
0000
1000
0000
0000
0200
0000
0000
0000
0300
0000
1000
0000
0100
0000
,  // measure 8
0010
0000
0000
0100
0000
0000
0010
0000
0100
0000
0010
0000
1000
0000
0100
0000
,  // measure 9
1000
0000
0000
0100
0000
0000
2000
0000
0000
0000
3000
0000
0100
0000
0010
0000
,  // measure 10
0001
0000
0000
0100
0000
0000
0002
0000
0000
0000
0003
0000
0100
0000
0010
0000
,  // measure 11
0100
0000
0000
1000
0000
0000
0200
0000
0000
0000
0300
0000
0010
0000
0100
0000
,  // measure 12
0010
0100
0010
0100
0010
0100
0010
0100
0010
0000
0100
0000
0010
0000
1000
0000
,  // measure 13
0100
0000
0010
0000
0100
0010
0100
0010
,  // measure 14
0000
0001
0000
1000
0100
1000
0100
0000
,  // measure 15
0010
0000
0100
0000
0010
0100
0010
0001
,  // measure 16
0100
0000
0000
0010
0000
0000
0100
0000
0000
0000
0100
0000
0010
0000
1000
0000
,  // measure 17
0100
0000
0100
1000
0000
0100
0000
0100
,  // measure 18
0000
0010
0100
0020
0000
0030
0100
0010
,  // measure 19
0100
0010
0100
0010
0000
0001
0010
0001
,  // measure 20
0010
1000
0100
1000
0100
0010
0100
0010
,  // measure 21
0100
0000
0000
0000
0010
0000
0001
1000
0002
0000
0000
0000
0003
0000
0000
0000
,  // measure 22
2002
3003
0200
0300
0020
0030
0200
0300
,  // measure 23
1001
0000
0100
0000
0010
0100
0010
0100
,  // measure 24
0010
0000
0000
0100
0010
0000
0001
1000
,  // measure 25
0100
0000
0100
0000
1000
0100
1000
0100
,  // measure 26
0010
0000
0001
0010
0001
0000
0100
0010
,  // measure 27
0000
0000
0100
0010
1000
0100
1000
0100
,  // measure 28
0010
0000
0100
0010
0100
0000
0010
0100
,  // measure 29
0010
0000
0001
0010
0001
0010
0001
0010
,  // measure 30
0100
0000
0000
0000
0000
0000
1000
0001
0100
0000
0000
0000
0100
0000
0010
0000
,  // measure 31
0100
0000
0010
0001
0010
0001
0010
0100
,  // measure 32
1000
0000
0000
0100
0010
0000
0100
0010
,  // measure 33
0010
0000
0001
0100
0001
0100
0001
0100
,  // measure 34
1000
0000
0000
1000
0100
0000
0100
0010
,  // measure 35
0100
0000
0010
0100
0010
0100
1000
0100
,  // measure 36
0200
0000
0300
1000
0100
0000
0100
0010
,  // measure 37
0100
0000
0010
0100
0010
0001
0100
0001
,  // measure 38
0200
0000
0000
0000
0300
0000
0010
0100
0010
0000
0001
0000
0100
0000
1000
0000
,  // measure 39
0000
0100
0010
0100
0000
0010
0100
0010
0000
0001
1000
0001
0000
0100
0010
0100
,  // measure 40
0000
0000
0000
0000
0000
0000
0100
0000
0000
1000
0000
0000
0000
0000
0000
0100
0000
0000
0000
0000
0000
0010
0000
0000
0000
0000
0000
0001
0000
0000
0100
0000
0000
0010
0000
0000
0000
0000
0000
0001
0000
0000
0100
0000
0000
0000
0001
0000
,  // measure 41
0000
0000
1000
0000
0100
1000
0100
0010
,  // measure 42
0000
0100
0010
0100
0000
1000
0100
0010
,  // measure 43
0000
0000
0000
0100
0000
0000
0010
0000
0000
0100
0000
0000
0000
0000
0000
0001
0000
0000
0010
0000
0000
0000
0200
0000
,  // measure 44
0000
0000
0000
0300
,  // measure 45
0020
0000
0000
0000
0030
1000
0100
0010
,  // measure 46
0100
0000
1001
0000
0100
1000
0100
1000
,  // measure 47
0000
0100
0000
0010
0100
0010
0001
0100
,  // measure 48
0020
0030
1000
0000
0100
1000
0100
1000
,  // measure 49
0100
0000
0000
0100
0000
0000
0020
0000
0030
0000
0100
0000
0010
0000
0100
0000
,  // measure 50
0010
0000
0001
1000
0000
0100
0000
1000
,  // measure 51
0000
0100
1000
0200
0300
0000
0100
0010
,  // measure 52
0100
0010
0100
0010
0000
0100
0010
0001
,  // measure 53
0010
0100
1000
0100
1000
0100
0010
0100
,  // measure 54
0010
0000
1001
0000
0100
0010
0100
0010
,  // measure 55
0110
0000
0000
1001
0000
0000
0110
0000
0000
0000
0010
0000
0100
0000
0010
0000
,  // measure 56
0200
0300
0020
0030
0001
1000
0001
0000
,  // measure 57
0100
0000
0000
1000
0000
0000
0200
0000
0300
0000
0010
0000
0100
0000
0010
0000
,  // measure 58
0100
0000
0001
0200
0300
0020
0030
0200
,  // measure 59
0300
1000
0100
1000
0000
0000
0100
1000
,  // measure 60
0100
0001
0010
0100
0000
0010
0100
0010
,  // measure 61
0100
0000
0010
0000
0001
0010
0001
0010
,  // measure 62
0100
0000
0000
0010
0000
0000
2000
0000
0000
0000
3000
0000
0100
0000
0010
0000
,  // measure 63
0100
0000
0000
0010
0000
0000
0002
0000
0000
0000
0003
0000
1000
0000
0100
0000
,  // measure 64
1000
0000
0000
0100
0000
0000
0020
0000
0000
0000
0030
0000
0100
0000
0010
0000
,  // measure 65
0100
0010
0001
0100
1000
0100
0010
0001
,  // measure 66
0100
0000
0000
1000
0000
0000
0200
0000
0000
0000
0300
0000
1000
0000
0010
0000
,  // measure 67
0100
0000
0000
0010
0000
0000
0002
0000
0000
0000
0003
0000
0100
0000
0010
0000
,  // measure 68
0100
0000
0000
0010
0000
0000
0200
0000
0000
0000
0300
0000
1000
0000
0100
0000
,  // measure 69
0010
0100
0010
0100
0010
0100
0010
0100
0010
0000
0001
0000
0010
0000
0100
0000
,  // measure 70
0220
0000
0000
0330
2002
0000
0000
3003
,  // measure 71
0100
0010
0100
1000
0100
0010
0001
0000
,  // measure 72
1001
0000
0000
0000
;
