#TITLE:WE LIKE;
#SUBTITLE:;
#ARTIST:프리스틴;
#TITLETRANSLIT:;
#SUBTITLETRANSLIT:;
#ARTISTTRANSLIT:PRISTIN;
#GENRE:K-Pop;
#CREDIT:;
#MUSIC:WE LIKE.ogg;
#BANNER:WE LIKE.png;
#BACKGROUND:WE LIKE-bg.png;
#CDTITLE:Wrland.png;
#SAMPLESTART:96.816;
#SAMPLELENGTH:12.000;
#SELECTABLE:YES;
#OFFSET:-0.020;
#BPMS:0.000=119.013
,192.000=59.507
,208.000=119.013
;
#STOPS:;
#DISPLAYBPM:59.000:119.000;
#JACKET:WE LIKE-jacket.png;
#BGCHANGES:;
#FGCHANGES:;

//--------------- dance-single - ----------------
#NOTES:
     dance-single:
     :
     Beginner:
     1:
     0,0,0,0,0:
0000
0000
0000
0000
,
0000
0000
0000
0000
,
0000
0000
0000
0000
,
0000
0000
0000
0000
,
0000
0000
0000
0000
,
0000
0000
0000
0000
,
0000
0000
0000
0000
,
0000
0000
0000
0000
,
1000
0000
0000
0000
,
0100
0000
0000
0000
,
0010
0000
0000
0000
,
0002
0000
0003
0000
,
0100
0000
0000
0000
,
0010
0000
0000
0000
,
0100
0000
0000
0000
,
0002
0000
0003
0000
,
1001
0000
0000
0000
,
0100
0000
0000
0000
,
0010
0000
0000
0000
,
1000
0000
0000
0000
,
0001
0000
0000
0000
,
0100
0000
0000
0000
,
0110
0000
0000
0000
,
1001
0000
0000
0000
,
0100
0000
0000
0000
,
0010
0000
0000
0000
,
1000
0000
0000
0000
,
0010
0000
0000
0000
,
0001
0000
0000
0000
,
0100
0000
0000
0000
,
1000
0000
0000
0000
,
0100
0000
0000
0000
,
0110
0000
0000
0000
,
0001
0000
0000
0000
,
1000
0000
0000
0000
,
0001
0000
0000
0000
,
1000
0000
0000
0000
,
0100
0000
0000
0000
,
0010
0000
0000
0000
,
0100
0000
0000
0000
,
0001
0000
0000
0000
,
1000
0000
0000
0000
,
0100
0000
0000
0000
,
0010
0000
0000
0000
,
0100
0000
0000
0000
,
1000
0000
0000
0000
,
0100
0000
0000
0000
,
0010
0000
0000
0000
,
0110
0000
0000
0000
,
0001
0000
0000
0000
,
1000
0000
0000
0000
,
0100
0000
0000
0000
,
0110
0000
0000
0000
,
0001
0000
0000
0000
,
1000
0000
0000
0000
,
0200
0000
0300
0000
,
0010
0000
0000
0000
,
0001
0000
0000
0000
,
1000
0000
0000
0000
,
0200
0000
0300
0000
,
0110
0000
0000
0000
,
0010
0000
0000
0000
,
0001
0000
0000
0000
,
1000
0000
0000
0000
,
0100
0000
0000
0000
,
0010
0000
0000
0000
,
0100
0000
0000
0000
,
0001
0000
0000
0000
,
1001
0000
0000
0000
;

//--------------- dance-single - ----------------
#NOTES:
     dance-single:
     :
     Easy:
     3:
     0,0,0,0,0:
0000
0000
0000
0000
,
0000
0000
0000
0000
,
0000
0000
0000
0000
,
0000
0000
0000
0000
,
1000
0000
0001
0000
,
0100
0000
0000
0000
,
0010
0000
0100
0000
,
0010
0000
0000
0000
,
1000
0000
1000
0000
,
0100
0000
0100
0000
,
0010
0000
0100
0000
,
0010
0000
0001
0000
,
1000
0000
0100
0000
,
0010
0000
0100
0000
,
0010
0000
1000
0000
,
0110
0000
0000
0000
,
1000
0000
1000
0000
,
0001
0000
0100
0000
,
0010
0000
0100
0000
,
0010
0000
0001
0000
,
1000
0000
0100
0000
,
0010
0000
0100
0000
,
0010
0000
0010
0000
,
0100
0000
0100
0000
,
0100
0000
1000
0000
,
0100
0000
0010
0000
,
0100
0000
0001
0000
,
1000
0000
0100
0000
,
0001
0000
1000
0000
,
0100
0000
0010
0000
,
0100
0000
0010
0000
,
0100
0000
0000
0000
,
0110
0000
1000
0000
,
1000
0000
0001
0000
,
0100
0000
0010
0000
,
0100
0010
0100
0000
,
1000
0000
0001
0000
,
0100
0000
0010
0000
,
0100
0000
1000
0000
,
0100
0010
0001
0000
,
1001
0000
0000
0000
,
0110
0000
0000
0000
,
1000
0000
0100
0000
,
0010
0000
0100
0000
,
0010
0000
0100
0000
,
0010
0000
0100
0000
,
0001
0000
1000
0000
,
0001
0000
0100
0000
,
0110
0000
1000
0000
,
0100
0000
0010
0000
,
0001
0000
1000
0000
,
0100
0000
0010
0000
,
0110
0000
1000
0000
,
0010
0000
0001
0000
,
0100
0000
0010
0000
,
1000
0000
0100
0000
,
0100
0000
0010
0000
,
1000
0000
0100
0000
,
0010
0000
0100
0000
,
0010
0000
0100
0000
,
1000
0000
1000
0001
,
1000
0000
0100
0010
,
0100
0000
0001
1000
,
0001
0100
0010
0100
,
0100
0000
1000
0001
,
1000
0000
0100
0010
,
0100
0000
0001
1000
,
0001
1000
0100
0010
,
0110
0000
0000
0000
;

//--------------- dance-single - ----------------
#NOTES:
     dance-single:
     :
     Medium:
     6:
     0,0,0,0,0:
0000
0000
0000
0000
,
0000
0000
0000
0000
,
0000
0000
0000
0000
,
0000
0000
0000
0000
,
1000
0100
0000
0100
0010
0100
0010
0000
,
1000
0001
0000
0100
0010
0100
0010
0000
,
1000
0001
0000
0100
0010
0100
0010
0000
,
0110
0000
0000
1000
0000
0000
0001
0000
1000
0000
0000
0010
0000
0000
0100
0000
,
0110
0001
0000
0100
1000
0000
0100
0010
0000
0000
0010
0000
0100
0000
0000
0000
,
0001
0010
0000
1000
0001
0000
0000
0010
0100
0000
0010
0000
0220
0000
0330
0000
,
1000
0001
0000
0100
0010
0000
1000
0100
0000
0000
0100
0000
0010
0000
0100
0000
,
1001
0000
0000
0000
,
0100
0010
0000
1000
0100
0000
0100
0010
0000
0100
0010
0000
0110
0000
0000
0000
,
1000
0100
0000
0010
0100
0000
0010
0001
0000
0000
1000
0000
0110
0000
0000
0000
,
1000
0100
0000
0010
0100
0000
1000
0010
0000
0000
0100
0000
0100
0000
0010
0000
,
1001
0000
0000
0000
,
0100
0000
0000
0000
0010
0000
1000
0010
0000
0000
0000
0000
0100
0000
0010
0000
,
0000
0000
0100
0000
0010
0000
0100
0010
0000
1000
0000
0000
0010
0000
0100
0000
,
0000
0000
0001
0000
1000
0000
0010
0001
0100
0000
0000
0000
0100
0000
1000
0100
,
0000
1000
0100
0010
0100
0010
0001
1000
,
0001
0000
1000
0000
0100
0000
0000
0100
0010
0000
0000
0000
1000
0000
0100
0000
,
0010
0000
0100
0000
0010
0000
0000
0100
0010
0000
1000
0000
0001
0000
0100
0000
,
0010
0000
0000
0000
0100
0000
0000
0000
1000
0000
0100
0010
0000
0000
1000
0000
,
0001
0100
0010
0100
0000
0110
1000
0000
,
0100
0010
1000
0100
0110
0000
0001
0000
,
1000
0001
0100
0010
0100
0000
0110
0000
,
0010
1000
0100
0010
0001
0000
0100
0010
,
0100
1000
0100
0010
0001
0000
0100
0000
,
0010
0100
1000
0100
0010
0000
0110
0000
,
0001
1000
0001
0001
0100
0000
0010
0000
,
1000
0001
1000
0001
0100
0000
0010
0100
,
0010
0110
1001
0110
,
1000
0100
0000
0100
0010
0100
1000
0000
,
0100
0010
0000
0001
1000
0100
0010
0000
,
0100
0010
0000
0001
1000
0100
0010
0000
,
0110
0000
0000
1000
0000
0000
0110
0000
1000
0000
0000
0100
0000
0000
0010
0000
,
0110
0100
0000
1000
0001
1000
0010
0000
,
0100
0010
0000
1000
0100
0010
0001
0000
,
0100
0010
0000
0100
0010
1000
0100
0000
,
0110
0000
0000
1000
0000
0000
1000
0000
0001
0000
0000
0100
0000
0000
0010
0000
,
0110
1000
0000
0100
0010
0100
0010
0000
,
0001
1000
0000
0100
0010
0100
0010
0000
,
0100
0010
1000
0100
0000
0100
0010
0100
,
0010
0000
1001
0000
0100
0010
0100
0010
,
0000
0100
0010
0000
1000
0100
0010
0001
,
0000
1000
0001
0000
0100
0010
0100
0010
,
1000
0100
0010
1000
0100
0010
0001
0000
,
0100
0010
0100
1000
0100
0010
0100
0000
,
0220
0330
0010
1000
0010
0200
0000
0300
,
0100
0010
1000
0100
0010
0100
0010
0100
,
0220
0330
1000
0001
2020
3030
0100
0010
,
0220
0330
1000
0100
0010
0100
0020
0030
,
0100
0001
0000
0100
1000
0000
0100
0010
0000
0000
1000
0000
0100
0000
0000
0000
,
0100
0010
0000
1000
0100
0000
0010
1000
0000
0000
0100
0000
1000
0000
0000
0000
,
0100
0010
0000
0100
1000
0000
0100
0001
0000
0000
1000
0000
0100
0000
0010
0000
,
0110
0000
0000
0000
,
1000
0100
0000
0010
0100
0000
1000
0100
0000
0000
0100
0000
0010
0000
0000
0000
,
0100
0010
0000
1000
0100
0000
0010
0001
0000
0000
0100
0000
0010
0000
0000
0000
,
0100
1000
0000
0100
0010
0000
0100
0010
0000
0000
0100
0000
1000
0000
0001
0000
,
0110
0000
0000
0000
,
1000
0000
0001
0000
0100
0000
0010
0100
,
1000
0000
0100
0000
0010
0000
0100
0010
,
1000
0100
0010
0100
,
0010
1000
0100
0010
0100
0010
0000
0000
,
0100
0000
0010
0000
0001
0000
1000
0001
,
0100
0000
0010
0000
0100
0000
0010
0100
,
0010
0000
1000
0000
0100
0010
0100
0010
,
1000
0001
0010
1000
0100
0010
1000
0110
,
1001
0000
0000
0000
;

//--------------- dance-single - ----------------
#NOTES:
     dance-single:
     :
     Hard:
     11:
     0,0,0,0,0:
0000
0000
0000
0000
,
0000
0000
0000
0000
,
0000
0000
0000
0000
,
0000
0000
0000
0000
,
0001
0000
2000
0000
3000
0000
0100
0010
0100
0010
0100
0000
0220
0000
0330
0000
,
1000
0000
0002
0000
0003
0000
0100
0010
0100
0010
1000
0000
0002
0000
0000
0003
,
0100
0000
2000
0000
0000
3000
0100
1000
0100
0010
0001
0000
2002
0000
0000
3003
,
0110
0000
0000
1000
0000
0000
0100
0000
0010
0001
1000
0100
0010
0000
0100
0000
,
0010
0001
0000
0100
1000
0000
0100
0010
0000
0100
1000
0000
0220
0000
0330
0000
,
0100
0010
0000
1000
0100
0000
0100
0010
0000
0100
0001
0000
2020
0000
3030
0000
,
0100
0010
0000
1000
0100
0000
0010
0001
0000
0100
0010
1000
0010
0100
0010
0001
,
1000
0100
0020
0000
0000
0000
0000
0000
0030
0000
0100
0000
0220
0000
0330
0000
,
1000
0100
0000
0010
0001
0000
0100
0010
0000
1000
0100
0000
0220
0000
0330
0000
,
0100
0010
0000
1000
0100
0000
0010
0001
0000
0100
0010
0000
2020
0000
3030
0000
,
0100
0010
0000
0100
0010
0000
1000
0100
0000
0010
0100
0000
0010
1000
0100
0010
,
0100
1000
0010
0200
0000
0000
0000
0000
0300
0000
0010
0000
0220
0000
0330
0000
,
2000
0000
3000
0000
0100
0000
1000
0002
0000
0003
0000
0000
0100
0000
0020
0000
,
0030
0000
1000
0000
0100
0000
0001
1000
0000
0100
0010
0000
0100
0000
0010
0000
,
0000
0000
0100
0001
1000
0000
0100
1000
0000
0001
0100
0010
0200
0300
1000
0001
,
0100
0000
0010
0100
1000
0100
0010
0100
0010
0001
1000
0000
0101
0000
1010
0000
,
0100
0000
0020
0030
0200
0000
0300
1000
0100
0010
0001
0100
1000
0000
0110
0000
,
1000
0000
0001
0000
2000
0000
3000
0100
0010
0100
0010
0100
1000
0001
0100
0000
,
0220
0000
0330
0000
2002
0000
3003
0000
0100
0000
0010
2000
0000
3000
0100
0001
,
0010
0000
1000
0000
0100
0000
0010
0000
0100
0010
0100
1000
0200
0000
0300
0000
,
0010
1000
0001
0100
0010
0000
1000
0010
0200
0000
0000
0300
0020
0000
0000
0030
,
0100
0010
1000
0100
0010
0001
1000
0010
0200
0000
0300
0000
0220
0000
0000
0330
,
1000
0000
0001
0000
1000
0000
0100
0000
0020
0000
0000
0030
0100
0000
0010
0000
,
0100
0000
1000
0000
0100
0000
0010
0000
0200
0000
0000
0300
0020
0000
0000
0030
,
0100
1000
0100
0010
1000
0100
0010
0000
2000
0000
0000
3000
0002
0000
0000
0003
,
0100
0010
0100
0001
1000
0100
0010
1000
0200
0000
0300
0000
0220
0000
0000
0330
,
1000
0000
0100
0000
0010
0000
0100
0000
0020
0000
0000
0030
0001
0000
1000
0000
,
0200
0000
0300
0000
0220
0000
0330
0000
2002
0000
0000
3003
0220
0000
0330
0000
,
0100
0000
2000
0000
0000
3000
0010
0001
0100
0010
1000
0000
2100
0000
0000
3000
,
0100
0000
0020
0000
0030
0000
0100
0010
0100
0010
0100
0000
0201
0000
0000
0300
,
0010
0000
2000
0000
0000
3000
0010
0100
0010
0100
0010
0000
2010
0000
0000
3000
,
0002
0000
0003
0200
0000
0300
0020
0030
0200
0000
0300
0020
0000
0030
1000
0000
,
0100
0000
0020
0000
0030
0000
0010
0100
0010
0100
0001
0000
1002
0000
0000
0003
,
0100
0000
0020
0000
0000
0030
1000
0001
1000
0001
1000
0000
2001
0000
0000
3000
,
0100
0000
0020
0000
0030
0000
0010
0100
0010
0100
0010
0000
0120
0000
0030
0000
,
2020
0000
3030
2002
0000
3003
0220
0330
2020
0000
3030
0220
0000
0330
0202
0303
,
1001
0000
0220
0000
0000
0330
0001
0010
0100
1000
0010
0000
0220
0000
0000
0330
,
1000
0000
0200
0000
0000
0300
0010
0100
0010
0100
0010
0000
2002
0000
0000
3003
,
0100
0000
0010
1000
0100
0000
0020
0000
0000
0030
1000
0100
0010
0000
0020
0000
,
0000
0030
0100
0010
0100
0001
0010
0000
1000
0000
0100
0010
0100
0000
0010
0000
,
0110
0000
0001
0000
2000
0000
0000
3000
0100
0010
0100
0010
0100
0000
2002
0000
,
0000
3003
0110
0000
2000
0000
0000
3000
0100
0010
0100
0010
1000
0000
0100
0000
,
0010
0100
0010
0000
1000
0100
1000
0000
0001
0010
0100
0000
0010
0000
1000
0100
,
0010
0000
0101
0010
1000
0100
0010
0001
1000
0100
0010
0100
0220
0000
0000
0330
,
2002
0000
0000
0000
0000
0000
3003
0000
0100
0000
0010
0000
0100
0000
1000
0000
0100
0000
0001
0010
1000
0000
0000
0100
0000
0000
0010
0000
1000
0000
0000
0000
,
0100
0000
0001
0010
1000
0000
0000
0000
0100
0000
0010
0000
0010
0000
1000
0010
0100
0000
0000
0100
0010
0000
0000
1000
0100
0010
0100
0010
0002
0000
0003
0000
,
0110
0000
1000
0000
0100
0000
0010
0100
0010
0100
0010
0000
0020
0000
0030
0000
0110
0000
1000
0000
0001
0000
0100
0010
0100
1000
0001
0000
0020
0000
0030
0000
,
0110
0000
1000
0000
0100
0000
0010
0100
1000
0100
0010
0000
0002
0000
0003
0000
0220
0000
0330
1000
0000
0000
0100
0000
0010
0000
0100
0000
0010
0000
0100
0000
,
1001
0100
0000
0010
0100
0000
1000
0100
0000
0010
0001
0000
0220
0000
0330
0000
,
1000
0100
0000
0010
0001
0000
0100
0010
0000
1000
0100
0000
0220
0000
0330
0000
,
0100
0010
0000
1000
0001
0000
0100
0010
0000
0000
0100
0000
1000
0001
0100
1000
,
0001
0100
0020
0000
0000
0000
0030
0000
0110
0000
1001
0000
0220
0000
0000
0330
,
0100
0010
0000
1000
0100
0000
0010
0100
0000
1000
0010
0000
2002
0000
0000
3003
,
0100
0010
0000
1000
0100
0000
0001
0010
0000
0000
0110
0000
2002
0000
0000
3003
,
0100
0010
0000
0100
1000
0000
0001
0100
0000
0010
0100
0000
0010
0001
1000
0100
,
0010
0100
0010
0002
0000
0000
0003
0000
1001
0000
0110
0000
0220
0000
0000
0330
,
1000
0000
0100
0000
0010
0000
0100
0010
0000
1000
0001
0000
0100
0000
1000
0000
,
0100
0000
0000
0010
0100
0000
0100
0000
0010
0000
0000
1000
0100
0000
0010
0000
,
0100
0000
0110
0000
1001
0000
0110
0000
0100
0001
0010
0000
0100
0000
0010
0000
,
0100
0010
0000
0100
0010
0000
1000
0100
0000
0010
0002
0000
0000
0000
0000
0003
,
1000
0000
0100
0000
0010
0000
0100
0010
0000
0001
1000
0000
0100
0000
0010
0000
,
0200
0000
0300
0010
0100
0001
1000
0000
0100
0000
0010
1000
0001
0000
0100
0000
,
0010
0000
0110
0000
1001
0000
0110
0000
0100
0001
1000
0000
0100
0000
0010
0000
,
0100
0010
0000
0100
0010
0000
1000
0001
0000
0100
0010
0000
0100
0000
0001
1000
;

//--------------- dance-double - ----------------
#NOTES:
     dance-double:
     :
     Hard:
     13:
     0,0,0,0,0:
00000000
00000000
00000000
00000000
,
00000000
00000000
00000000
00000000
,
00000000
00000000
00000000
00000000
,
00000000
00000000
00000000
00000000
,
10100000
00000000
02000000
00000000
03000000
00000000
01000000
00100000
00010000
00100000
01000000
00000000
20000000
00000000
00000000
30000000
,
01000000
00000000
00200000
00000000
00000000
00300000
01000000
10000000
00100000
01000000
00100000
00000000
20020000
00000000
00000000
30030000
,
01100000
00000000
20000000
00000000
30000000
00000000
00100000
00010000
00001000
00000100
00000010
00000000
00000202
00000000
00000000
00000303
,
00001000
00000000
00000000
00000220
00000000
00000330
00001000
00000000
00000200
00000000
00000300
00000020
00000000
00000030
00000001
00000000
,
00001000
00000100
00000000
00000100
00000010
00000000
00001000
00000010
00000000
00000100
00000001
00000000
00000220
00000000
00000000
00000330
,
00001000
00000100
00000000
00000010
00000001
00000000
00000100
00001000
00000000
00000100
00000010
00000000
00000220
00000000
00000000
00000330
,
00001000
00000100
00000000
00000010
00000100
00000000
00000001
00002000
00000000
00003000
00000010
00000000
00000010
00000001
00000100
00001000
,
00000010
00000100
00001000
00022000
00000000
00000000
00033000
00000000
00110000
00000000
01000000
00000000
20200000
00000000
00000000
30300000
,
01000000
00100000
00000000
01000000
10000000
00000000
01000000
00100000
00000000
01000000
10000000
00000000
02200000
00000000
03300000
00000000
,
01000000
00100000
00000000
10000000
01000000
00000000
00100000
01000000
00000000
00000000
10100000
00000000
02200000
00000000
00000000
03300000
,
01000000
00100000
00000000
00100000
00010000
00000000
00010000
00001000
00000000
00000010
00000100
00000000
00001000
00000100
00000001
00000010
,
00001000
00000001
00000220
00000000
00000000
00000000
00000330
00000000
00001100
00000000
00000011
00000000
00000110
00000000
00000000
00000000
,
00002200
00000000
00003300
00000000
00001000
00000000
00010000
00200000
00000000
00000000
00300000
00000000
10100000
00000000
02000000
00000000
,
00000000
03000000
10000000
00000000
00100000
00000000
10000000
01000000
00100000
00000000
01000000
00000000
01000000
00000000
20000000
00000000
,
00000000
30000000
00100000
01000000
10000000
00000000
01000000
00100000
10000000
00010000
01000000
00100000
10000000
00000000
01000000
00100000
,
00000000
00000000
00100000
00010000
00100000
00010000
00100000
00010000
00001000
00000100
00001000
00000000
00000101
00000000
00001010
00000000
,
00000110
00000000
00001001
00000000
00000200
00000000
00000300
00000010
00000100
00000010
00001000
00000100
00000010
00000000
00000100
00000000
,
00000010
00000000
00001000
00000000
00000200
00000000
00000300
00000010
00000001
00001000
00000100
00000010
00000100
00000001
00000010
00000000
,
00000220
00000000
00000330
00000000
00002002
00000000
00000000
00003003
00000100
00000000
00000010
00000100
00000000
00000000
00000100
00001000
,
00000010
00000100
00000010
00002000
00003000
00001001
00000220
00000330
,
00000100
00000010
00001000
00000100
00000010
00000001
00000010
00000100
00002002
00000000
00000000
00003003
00000220
00000000
00000330
00000000
,
00000100
00000010
00000100
00000010
00000100
00000001
00001000
00000001
00000220
00000000
00000000
00000330
00002002
00000000
00000000
00003003
,
00000100
00000010
00001000
00000100
00000020
00000030
00000001
00000100
,
00000010
00000000
00001000
00000000
00000100
00000000
00000010
00000000
00000200
00000000
00000000
00000300
00000020
00000000
00000000
00000030
,
00000100
00001000
00010000
00001000
00010000
00100000
01000000
10000000
02200000
00000000
03300000
00000000
02020000
00000000
00000000
03030000
,
10000000
01000000
00100000
01000000
00100000
01000000
00100000
10000000
02200000
00000000
00000000
03300000
02200000
00000000
00000000
03300000
,
10000000
01000000
00100000
01000000
00200000
00300000
01100000
10010000
,
02200000
00000000
00000000
03300000
20020000
00000000
30030000
00000000
02200000
00000000
03300000
00000000
02200000
00000000
00000000
03300000
,
10000000
00000000
02000000
00000000
00000000
03000000
00100000
01000000
00100000
01000000
00100000
00000000
02000000
00000000
00000000
03000000
,
00100000
00000000
20000000
00000000
00000000
30000000
00100000
01000000
00100000
01000000
00100000
00000000
00200000
00000000
00000000
00300000
,
10000000
00000000
00020000
00000000
00000000
00030000
01000000
00100000
01000000
00100000
01000000
00000000
20020000
00000000
00000000
30030000
,
02200000
00000000
03300000
20000000
00000000
30000000
01000000
00000000
00200000
00000000
00300000
02000000
00000000
03000000
00100000
00000000
,
01000000
00000000
00200000
00000000
00000000
00300000
01000000
10000000
01000000
10000000
01000000
00000000
00200000
00000000
00300000
00000000
,
11000000
00000000
00200000
00000000
00300000
00000000
01000000
00100000
01000000
00100000
01000000
00000000
02200000
00000000
00000000
03300000
,
11000000
00000000
02000000
00000000
00000000
03000000
00100000
01000000
00100000
01000000
00100000
00000000
20020000
00000000
30030000
00000000
,
02200000
00000000
03300000
01100000
00000000
00000000
10010000
00000000
20000000
00000000
30000000
01100000
00000000
00000000
01100000
00000000
,
00110000
00000000
00012000
00000000
00000000
00003000
00000010
00000100
00000010
00000100
00000010
00000000
00002002
00000000
00003003
00000000
,
00000100
00000000
00000220
00000000
00000330
00000000
00000100
00000010
00001000
00000100
00000010
00000000
00002002
00000000
00003003
00000000
,
00000100
00000000
00000010
00000100
00000010
00000000
00002000
00000000
00000000
00003000
00000010
00000100
00000010
00000000
00000200
00000000
,
00000300
00000000
00000100
00000001
00001000
00000001
00000100
00000000
00000010
00000000
00000100
00000010
00000100
00000000
00000020
00000000
,
00000000
00000030
00001001
00000000
00000220
00000000
00000330
00000000
00000100
00000010
00000100
00000010
00000100
00000000
00000220
00000000
,
00000330
00000000
00001000
00000000
00000220
00000000
00000330
00000000
00000100
00001000
00000010
00000000
00000100
00000000
00000001
00000000
,
00000100
00001000
00000100
00000000
00000010
00000000
00000100
00000010
00000100
00000001
00000010
00000100
00000010
00000000
00000100
00000010
,
00000100
00000000
00000100
00000010
00000100
00000000
00000100
00000001
00000010
00000100
00001000
00000100
00000220
00000000
00000330
00000000
,
00002002
00000000
00000000
00000000
00000000
00000000
00003003
00000000
00000100
00000000
00000010
00000000
00000100
00000000
00001000
00000000
00000100
00000000
00000010
00001000
00000001
00000000
00000000
00000100
00000000
00000000
00002000
00000000
00000000
00000000
00003000
00000000
,
00000100
00000000
00000000
00000010
00000200
00000000
00000000
00000300
00001000
00000000
00000100
00000000
00000100
00000000
00000010
00000100
00000010
00000000
00000100
00000010
00000100
00000000
00000001
00001000
00000100
00000010
00000100
00000010
00002002
00000000
00003003
00000000
,
00000100
00000000
00002000
00000000
00003000
00000000
00010000
00100000
01000000
00100000
01000000
00000000
00200000
00000000
00300000
00000000
10010000
00000000
02000000
00000000
03000000
00000000
01000000
00010000
01000000
00100000
01000000
00000000
02200000
00000000
00000000
03300000
,
10010000
00000000
01000000
00000000
00100000
00000000
01000000
00100000
01000000
00100000
01000000
00000000
20200000
00000000
30300000
00000000
01100000
00000000
00000000
10010000
00000000
00000000
01000000
00000000
00100000
00000000
10000000
00000000
01000000
00000000
00100000
00000000
,
01000000
00000000
10000000
00000000
00000000
00000000
01000000
00000000
00100000
00000000
00000000
00000000
01000000
00000000
00100000
00000000
00000000
00000000
01000000
00000000
10000000
00000000
00000000
00000000
02200000
00000000
00000000
00000000
00000000
03300000
00000000
00000000
,
01000000
00100000
00000000
01000000
10000000
00000000
01000000
00100000
00000000
10000000
01000000
00000000
02200000
00000000
03300000
00000000
,
01000000
00100000
00000000
01000000
10000000
00000000
01000000
00100000
00000000
00000000
01000000
00000000
00100000
01000000
00100000
01000000
,
00100000
01000000
00200000
00000000
00000000
00000000
00000000
00000000
00300000
00000000
10100000
00000000
01010000
00000000
00000000
00000000
,
01000000
00100000
00000000
01000000
00100000
00000000
01000000
00100000
00000000
00000000
00100000
00000000
00020000
00000000
00030000
00000000
,
00010000
00001000
00000000
00000100
00000010
00000000
00000100
00000010
00000000
00000001
00000010
00000000
00002200
00000000
00003300
00000000
,
00000100
00000010
00000000
00001000
00000100
00000000
00000010
00000001
00000000
00001000
00000100
00000000
00000100
00000010
00000100
00000010
,
00001000
00000100
00000010
00000100
00000020
00000000
00000000
00000030
00001000
00000000
00001001
00000000
00000220
00000000
00000330
00000000
,
00000110
00000000
00001000
00000000
00000100
00000000
00000100
00000010
00000000
00000100
00000010
00000000
00000001
00000000
00001000
00000000
,
00000200
00000000
00000300
00000010
00000100
00000000
00000010
00000000
00000100
00000000
00000010
00000100
00000000
00000100
00000001
00000000
,
00001000
00000000
00000110
00000000
00001001
00000000
00000100
00000010
00000100
00000000
00000100
00000000
00000010
00000000
00001000
00000000
,
00000100
00000010
00000000
00001000
00000100
00000000
00000100
00000010
00000000
00000001
00000100
00000000
00001100
00000001
00000100
00000010
,
00001000
00000000
00000100
00000000
00001000
00000000
00010000
00100000
00000000
10000000
01000000
00000000
00100000
00000000
01000000
00000000
,
00200000
00000000
00300000
01000000
00100000
10000000
01000000
00010000
10000000
00000000
01000000
00100000
01000000
00000000
10100000
00000000
,
01100000
00000000
01000000
00000000
00100000
00000000
01000000
00100000
10010000
00000000
00100000
00000000
01000000
00000000
00100000
00000000
,
01000000
00100000
00000000
00100000
01000000
00000000
10000000
01000000
00000000
00100000
01000000
00000000
00100000
00000000
01000000
00100000
;
