#VERSION:0.83;
#TITLE:Tragedy;
#SUBTITLE:;
#ARTIST:Marc Anthony;
#TITLETRANSLIT:;
#SUBTITLETRANSLIT:;
#ARTISTTRANSLIT:;
#GENRE:Latin;
#CREDIT:;
#MUSIC:Tragedy.ogg;
#BANNER:Tragedy.png;
#BACKGROUND:Tragedy-bg.png;
#CDTITLE:Wrland.png;
#SAMPLESTART:50.994;
#SAMPLELENGTH:12.000;
#SELECTABLE:YES;
#OFFSET:-0.907;
#BPMS:0.000=115.000;
#STOPS:;
#JACKET:Tragedy-jacket.png;
#BGCHANGES:;
#FGCHANGES:;

//--------------- dance-single - ----------------
#NOTEDATA:;
#STEPSTYPE:dance-single;
#DESCRIPTION:;
#DIFFICULTY:Beginner;
#METER:1;
#RADARVALUES:0,0,0,0,0;
#NOTES:
0000
0000
0000
0000
,
0000
0000
0000
0000
,
0000
0000
0000
0000
,
0000
0000
0000
0000
,
0000
0000
0000
0000
,
0000
0000
0000
0000
,
0000
0000
0000
0000
,
0000
0000
0000
0000
,
1000
0000
0000
0000
,
0000
0000
0000
0000
,
0100
0000
0000
0000
,
0000
0000
0000
0000
,
1000
0000
0000
0000
,
0000
0000
0000
0000
,
0100
0000
0000
0000
,
0000
0000
0000
0000
,
0010
0000
0000
0000
,
0000
0000
0000
0000
,
0001
0000
0000
0000
,
0000
0000
0000
0000
,
0010
0000
0000
0000
,
0000
0000
0000
0000
,
0100
0000
0000
0000
,
0000
0000
0000
0000
,
1001
0000
0000
0000
,
0000
0000
0000
0000
,
0110
0000
0000
0000
,
0000
0000
0000
0000
,
1010
0000
0000
0000
,
0000
0000
0000
0000
,
0101
0000
0000
0000
,
0000
0000
0000
0000
,
1001
0000
0000
0000
,
0000
0000
0000
0000
,
1000
0000
0000
0000
,
0000
0000
0000
0000
,
0101
0000
0000
0000
,
0000
0000
0000
0000
,
0100
0000
0000
0000
,
0000
0000
0000
0000
,
0010
0000
0000
0000
,
0000
0000
0000
0000
,
0100
0000
0000
0000
,
0000
0000
0000
0000
,
0010
0000
0000
0000
,
0000
0000
0000
0000
,
0001
0000
0000
0000
,
0000
0000
0000
0000
,
1000
0000
0000
0000
,
0000
0000
0000
0000
,
0100
0000
0000
0000
,
0000
0000
0000
0000
,
1001
0000
0000
0000
;

//--------------- dance-single - ----------------
#NOTEDATA:;
#STEPSTYPE:dance-single;
#DESCRIPTION:;
#DIFFICULTY:Easy;
#METER:3;
#RADARVALUES:0,0,0,0,0;
#NOTES:
0000
0000
0000
0000
,
0000
0000
0000
0000
,
0000
0000
0000
0000
,
0000
0000
0000
0000
,
0000
0000
0000
0000
,
0000
0000
0000
0000
,
0000
0000
0000
0000
,
0000
0000
0000
0000
,
1000
0000
0000
0000
,
1000
0000
0000
0000
,
0001
0000
0000
0000
,
0001
0000
0000
0000
,
0100
0000
0000
0000
,
0001
0000
0000
0000
,
0100
0000
0000
0000
,
0001
0000
0000
0000
,
0010
0000
0000
0000
,
1000
0000
0000
0000
,
0010
0000
0000
0000
,
0100
0000
0000
0000
,
0001
0000
0000
0000
,
0100
0000
0000
0000
,
0010
0000
0000
0000
0000
0000
0000
1001
,
0000
0000
0000
0000
,
0100
0000
0000
0000
,
0010
0000
0000
0000
,
0100
0000
0000
0000
,
0110
0000
0000
0000
,
1000
0000
0000
0000
,
0100
0000
0000
0000
,
1000
0000
0000
0000
,
1100
0000
0000
0000
,
0100
0000
0000
0000
,
0001
0000
0000
0000
,
0100
0000
0000
0000
,
0101
0000
0000
0000
,
0010
0000
0000
0000
,
0001
0000
0000
0000
,
0010
0000
0000
0000
,
0011
0000
0000
0000
,
0100
0000
0000
0000
,
0001
0000
0000
0000
,
1000
0000
0000
0000
,
1010
0000
0000
0000
,
0100
0000
0000
0000
,
0001
0000
0000
0000
,
0100
0000
0000
0000
,
0110
0000
0000
0000
,
1001
0000
0000
0000
,
1100
0000
0000
0000
,
0110
0000
0000
0000
,
0101
0000
0000
0000
,
1001
0000
0000
0000
;

//--------------- dance-single - ----------------
#NOTEDATA:;
#STEPSTYPE:dance-single;
#DESCRIPTION:;
#DIFFICULTY:Medium;
#METER:5;
#RADARVALUES:0,0,0,0,0;
#NOTES:
0000
0000
0000
0000
,
0000
0000
0000
0000
,
0000
0000
0000
0000
,
0000
0000
0000
0000
,
0000
0000
0000
0000
,
0000
0000
0000
0000
,
0000
0000
0000
0000
,
0000
0000
0000
0000
,
1000
0000
0100
0010
,
0100
0000
0000
0100
,
0010
0100
0010
0100
,
0001
0000
0000
0000
,
1000
0000
1000
0100
,
1000
0000
0010
0100
,
0010
0100
0001
0010
,
0100
0000
0000
0000
,
1001
0000
0100
0000
,
0010
0000
0100
0000
,
1000
0000
0100
0000
,
1000
0000
0100
0000
,
0101
0000
0010
0000
,
0100
0000
0010
0000
,
0100
0000
0000
0000
0010
0000
0000
1001
,
0000
0110
1001
0000
0100
0010
0100
0000
,
0010
0000
0100
0010
,
0100
0010
0000
1000
0000
0100
0010
0100
,
0000
0010
0100
0010
0000
0000
0100
0010
,
0001
1000
0100
0000
0000
1000
0100
1000
,
0100
0000
0010
0100
0010
0000
0100
0000
,
0010
0000
0100
0010
0001
0000
0100
0010
,
0100
0000
1000
0100
0010
0100
0010
0010
,
0100
1000
0100
0000
0000
0100
0010
0001
,
1001
0000
0000
0100
0010
0100
0010
0000
,
0000
0000
0100
0010
0001
1000
0100
0000
,
0000
0100
0010
0100
0010
0001
0100
0010
,
1000
0100
0010
0000
0000
0100
0010
1000
,
1001
0010
0100
1000
0010
0000
0100
0010
,
0001
1000
0001
0100
1000
0000
0100
0010
,
0100
1000
0100
0010
0100
1000
0100
1000
,
0100
0010
0100
0000
0000
0100
0010
0001
,
0100
1000
0100
0010
0001
0000
0100
0010
,
0100
0010
0000
0100
1000
0100
0010
0001
,
0100
0010
0100
1000
0100
0000
0010
0100
,
0010
0001
0100
0000
0000
0100
0010
0100
,
1000
0100
0010
0001
0100
0000
0010
1000
,
0100
0000
1000
0100
0010
0000
0100
0010
,
0001
0100
0010
0100
1000
0100
0010
0001
,
0100
0010
0100
1000
0100
0010
0001
0100
,
0010
0000
0000
1000
0100
0010
0001
0000
,
0000
0000
0010
0100
1000
0100
0010
0000
,
0000
0100
0010
0100
1000
0100
0010
0001
,
0100
0010
0100
0000
0000
0100
0010
0100
,
1001
0000
0000
0000
;

//--------------- dance-single - ----------------
#NOTEDATA:;
#STEPSTYPE:dance-single;
#DESCRIPTION:;
#DIFFICULTY:Hard;
#METER:9;
#RADARVALUES:0,0,0,0,0;
#NOTES:
0000
0000
0000
0000
,
0000
0000
0000
0000
,
0000
0000
0000
0000
,
0000
0000
0000
0000
,
0000
0000
0000
0000
,
0000
0000
0000
0000
,
0000
0000
0000
0000
,
0000
0000
0000
0000
,
0100
0000
0000
0000
0000
0000
0000
0000
0000
0000
0000
0000
0010
0000
0000
0000
0001
0000
0000
0000
0000
0010
0000
0000
,
0200
0000
0300
0000
0010
0100
0010
0001
,
0000
1000
0100
0010
0100
0010
0100
0010
,
0002
0003
1000
0100
1000
0100
0010
0000
,
0100
0000
0010
0100
0010
0000
0100
0010
,
0002
0003
1000
0000
0100
1000
0100
0010
,
0000
0100
0010
0001
0100
0010
0000
0100
,
0010
0000
0100
0010
0001
1000
0100
0000
,
1000
0100
0010
0200
0000
0300
0010
0200
,
0000
0300
0001
0200
0000
0300
1000
0200
,
0000
0300
0010
0100
0010
0002
0003
0200
,
0300
0020
0030
0200
0300
2000
3000
0100
,
0010
0000
0100
0020
0000
0030
0100
0020
,
0000
0030
0001
0200
0000
0300
1000
0200
,
0000
0300
0100
0010
0010
1000
0000
0110
,
0000
1001
0100
0010
0000
2002
0000
3003
,
0100
0010
0100
0010
0002
0003
1000
0000
,
0100
0020
0030
0200
0300
0001
0100
0020
,
0030
1000
0001
1000
0002
0003
0100
0010
,
0100
0010
0200
0000
0300
0001
0100
0001
,
0010
1000
0100
0010
0002
0003
0100
0000
,
1000
0000
0000
0001
0000
0000
1000
0000
0200
0000
0000
0000
0000
0000
0300
0000
,
0100
0010
0100
0010
0001
0100
0010
0100
,
0010
0001
2000
0000
3000
0100
0010
0100
,
0010
0000
0100
0020
0000
0030
0100
0020
,
0000
0030
1000
0002
0000
0003
0100
0010
,
0000
0100
0010
0100
0100
0010
1000
0100
,
0010
0001
0200
0000
0300
1000
0100
0010
,
1001
0100
0010
0100
0010
0000
0100
0000
,
0010
0000
0000
0100
0000
0000
0010
0000
0001
0000
0000
0000
0100
0000
0010
0000
,
1000
0100
0010
0100
0010
0001
0100
0010
,
0100
0000
0010
0000
0002
0000
0003
0000
1000
0000
0001
1000
0001
1000
0001
1000
,
0110
0100
0010
0100
2000
3000
0100
0010
,
0100
0020
0030
0200
0300
0010
0100
0010
,
0001
0100
0010
1000
0100
0000
0100
0010
,
0100
0010
0200
0300
0000
0100
0010
1000
,
0100
0010
0001
0100
0020
0030
0100
0000
,
0100
0000
0000
0010
0000
0000
1000
0000
0200
0000
0300
0000
0010
0000
0100
0000
,
0010
0100
0001
1000
0100
1000
0100
1000
,
0100
0010
0200
0300
0000
0100
0010
0100
,
0010
0000
0100
0020
0000
0030
1000
0002
,
0000
0003
0100
0020
0000
0030
0100
0020
,
0030
1000
0001
1000
0100
1000
0100
1000
,
0100
0010
0002
0000
0003
0100
0001
0100
,
1001
0000
0000
0000
;
