#VERSION:0.83;
#TITLE:Teenage Solution;
#SUBTITLE:;
#ARTIST:モーニング娘。'21;
#TITLETRANSLIT:;
#SUBTITLETRANSLIT:;
#ARTISTTRANSLIT:Morning Musume. '21;
#GENRE:J-Pop;
#ORIGIN:;
#CREDIT:;
#BANNER:Teenage Solution.png;
#BACKGROUND:Teenage Solution-bg.png;
#PREVIEWVID:;
#JACKET:Teenage Solution-jacket.png;
#CDIMAGE:;
#DISCIMAGE:Teenage Solution (transparent).png;
#LYRICSPATH:;
#CDTITLE:Wrland.png;
#MUSIC:Teenage Solution.ogg;
#OFFSET:-0.001000;
#SAMPLESTART:79.130997;
#SAMPLELENGTH:12.000000;
#SELECTABLE:YES;
#BPMS:0.000=138.000;
#STOPS:176.500=0.435,
177.000=0.435;
#DELAYS:;
#WARPS:;
#TIMESIGNATURES:0.000=4=4;
#TICKCOUNTS:0.000=4;
#COMBOS:0.000=1;
#SPEEDS:0.000=1.000=0.000=0;
#SCROLLS:0.000=1.000;
#FAKES:;
#LABELS:0.000=Song Start;
#BGCHANGES:0.000=Teenage Solution.avi=1.000=0=0=0=StretchNoLoop====,
99999=-nosongbg-=1.000=0=0=0 // don't automatically add -songbackground-
;
#KEYSOUNDS:;
#ATTACKS:
;

//---------------dance-single - ----------------
#NOTEDATA:;
#CHARTNAME:;
#STEPSTYPE:dance-single;
#DESCRIPTION:;
#CHARTSTYLE:;
#DIFFICULTY:Beginner;
#METER:1;
#RADARVALUES:0.079657,0.142521,0.041612,0.000000,0.000000,67.000000,62.000000,5.000000,0.000000,0.000000,0.000000,0.000000,0.000000,0.000000,0.079657,0.142521,0.041612,0.000000,0.000000,67.000000,62.000000,5.000000,0.000000,0.000000,0.000000,0.000000,0.000000,0.000000;
#CREDIT:;
#NOTES:
0000
0000
0000
0000
,
0000
0000
0000
0000
,
0000
0000
0000
0000
,
0000
0000
0000
0000
,
1000
0000
0000
0000
,
1000
0000
0000
0000
,
1000
0000
0000
0000
,
1000
0000
0000
0000
,
0001
0000
0000
0000
,
0001
0000
0000
0000
,
0001
0000
0000
0000
,
0001
0000
0000
0000
,
0000
0000
0000
0000
,
0000
0000
0000
0000
,
0100
0000
0000
0000
,
0010
0000
0000
0000
,
0100
0000
0000
0000
,
0010
0000
0000
0000
,
0100
0000
0000
0000
,
1000
0000
0000
0000
,
0100
0000
0000
0000
,
0010
0000
0000
0000
,
1000
0000
0000
0000
,
0001
0000
0000
0000
,
1000
0000
0000
0000
,
0100
0000
0000
0000
,
1000
0000
0000
0000
,
0010
0000
0000
0000
,
0100
0000
0000
0000
,
0010
0000
0000
0000
,
1000
0000
0000
0000
,
0100
0000
0000
0000
,
0010
0000
0000
0000
,
0100
0000
0000
0000
,
0010
0000
0000
0000
,
0100
0000
0000
0000
,
0010
0000
0000
0000
,
1000
0000
0000
0000
,
0001
0000
0000
0000
,
1000
0000
0000
0000
,
0100
0000
0000
0000
,
1000
0000
0000
0000
,
0010
0000
0000
0000
,
0001
0000
0000
0000
,
1001
0000
0110
0000
,
0000
0000
1000
0000
,
0000
0000
0001
0000
,
0000
0000
0100
0000
,
0000
0000
0100
0000
,
0000
0000
0010
0000
,
0000
0000
0010
0000
,
0000
0000
0100
0000
,
0000
0000
0100
0000
,
0000
0000
0010
0000
,
0000
0000
0100
0000
,
0000
0000
0110
0000
,
0000
0000
1001
0000
,
0000
0000
0000
0000
,
0000
0000
0100
0000
,
0000
0000
0010
0000
,
0000
0000
0100
0000
,
0000
0000
0010
0000
,
0000
0000
1000
0000
,
0000
0000
0100
0000
,
0000
0000
0010
0000
,
0000
0000
0100
0000
,
0000
0000
0010
0000
,
0000
0000
0000
0000
,
0000
0000
1001
0000
;

//---------------dance-single - ----------------
#NOTEDATA:;
#CHARTNAME:;
#STEPSTYPE:dance-single;
#DESCRIPTION:;
#CHARTSTYLE:;
#DIFFICULTY:Easy;
#METER:3;
#RADARVALUES:0.141480,0.199529,0.049934,0.016645,0.000000,119.000000,113.000000,6.000000,2.000000,0.000000,0.000000,0.000000,0.000000,0.000000,0.141480,0.199529,0.049934,0.016645,0.000000,119.000000,113.000000,6.000000,2.000000,0.000000,0.000000,0.000000,0.000000,0.000000;
#CREDIT:;
#NOTES:
0000
0000
0000
0000
,
0000
0000
0000
0000
,
0000
0000
0000
0000
,
0000
0000
0000
0000
,
1000
0000
0100
0000
,
1000
0000
0100
0000
,
0010
0000
0100
0000
,
0010
0000
0100
0000
,
0001
0000
0001
0000
,
1000
0000
1000
0000
,
0100
0000
0100
0000
,
0010
0000
0010
0000
,
0110
0000
0000
0000
,
0000
0000
0000
0000
,
1000
0000
1000
0000
,
0001
0000
0001
0000
,
0100
0000
0100
0000
,
0010
0000
0010
0000
,
0100
0000
0100
0000
,
1000
0000
1000
0000
,
0001
0000
0001
0000
,
0100
0000
0100
0000
,
0010
0000
0001
0000
,
1000
0000
0100
0000
,
1000
0000
0100
0000
,
1000
0000
0010
0000
,
0100
0000
0010
0000
,
0100
0000
0010
0000
,
0001
0000
0100
0000
,
0010
0000
0100
0000
,
0110
0000
0000
0000
,
1000
0000
0000
0000
,
0100
0000
0000
0000
,
0001
0000
0000
0000
,
0010
0000
0000
0000
,
0100
0000
0000
0000
,
0001
0000
0000
0000
,
0100
0000
0000
0000
,
0010
0000
0100
0000
,
1000
0000
0100
0000
,
0010
0000
0100
0000
,
0010
0000
0001
0000
,
0001
0000
0010
0000
,
0001
0000
0010
0000
,
0101
0000
1001
0000
,
0000
0000
0100
0000
,
0100
0000
0010
0000
,
0010
0000
0100
0000
,
0100
0000
1000
0000
,
1000
0000
0001
0000
,
0001
0000
0100
0000
,
0100
0000
0010
0000
,
0010
0000
0100
0000
,
0001
0000
0100
0000
,
1000
0000
0100
0000
,
0010
0000
0100
0000
,
0100
0000
0020
0000
,
0030
0000
0200
0000
,
0300
0000
0010
0000
,
0100
0000
0010
0000
,
0100
0000
0010
0000
,
0100
0000
0010
0000
,
0100
0000
0001
0000
,
1000
0000
0001
0000
,
1000
0000
0001
0000
,
1000
0000
0001
0000
,
1000
0000
0110
0000
,
0000
0000
0000
0000
,
0000
0000
1001
0000
;

//---------------dance-single - ----------------
#NOTEDATA:;
#CHARTNAME:;
#STEPSTYPE:dance-single;
#DESCRIPTION:;
#CHARTSTYLE:;
#DIFFICULTY:Medium;
#METER:5;
#RADARVALUES:0.329328,0.456066,0.091546,0.091546,0.128997,277.000000,266.000000,11.000000,11.000000,0.000000,0.000000,0.000000,0.000000,0.000000,0.329328,0.456066,0.091546,0.091546,0.128997,277.000000,266.000000,11.000000,11.000000,0.000000,0.000000,0.000000,0.000000,0.000000;
#CREDIT:;
#NOTES:
0000
0000
0000
0000
,
0000
0000
0000
0000
,
0000
0000
0000
0000
,
0000
0000
0000
0000
,
1000
0001
1000
0000
,
0100
0100
0010
0000
,
0100
0001
0100
0000
,
1000
0010
1000
0000
,
0100
1000
0100
0000
,
0010
0001
0010
0000
,
0100
0010
0100
0000
,
0001
0010
0001
0000
,
1001
0000
0000
0000
,
0110
0000
0000
0000
,
1000
0000
0100
0010
0000
0100
0000
0010
,
0001
0010
1000
0100
,
0010
0000
0100
0001
0000
0001
0100
0000
,
0010
0000
0000
0001
0000
1000
0010
1000
,
0100
0010
0100
0010
,
0001
1000
0001
1000
,
0001
0000
0100
0000
,
0010
0100
0010
0100
,
0010
0000
0001
1000
0000
0000
0100
0000
0010
0000
0001
0100
0000
0000
0100
0000
,
0010
0000
0000
0100
0000
0000
0010
0000
0000
0000
0100
0000
0010
0000
0100
0000
,
1000
0000
0001
1000
0000
0000
0100
0000
0010
0000
1000
0001
0000
0000
0100
0000
,
0010
0000
0100
0010
,
0100
0010
0100
0010
,
0001
1000
0001
1000
,
0001
0100
0000
0000
,
0010
0000
0000
0100
0000
0010
1000
0100
,
0010
0000
0000
0100
0000
0000
0010
0000
0100
0000
0000
0010
0000
0000
0100
0000
,
1000
0000
0000
0000
0010
0000
0000
0000
0100
0000
0000
0000
0000
0000
0000
0100
,
0000
0000
0000
0010
0000
0000
0001
0000
0100
0000
0000
0010
0000
0000
0100
0000
,
0010
0000
0000
0000
0000
0000
0000
0000
0100
0000
0000
0010
0000
0000
1000
0000
,
0100
0000
0000
0010
0100
0010
0100
0000
,
1010
0000
0000
0000
0000
0000
1000
0100
1000
0000
0000
0001
0000
0000
1000
0000
,
0100
0000
0000
0010
0000
0000
0100
0000
0010
0000
0000
0100
0000
0000
0010
0000
,
0100
0000
0000
0000
0000
0000
0000
0000
0110
0000
0000
0000
0000
0000
0100
0010
,
1000
0000
0000
0100
0000
0000
0010
0000
0000
0000
0100
0000
0010
0000
0100
0000
,
0010
0000
0000
0001
0100
0010
1000
0000
,
1000
0000
0000
0100
0000
0000
0010
0000
0000
0000
0000
0000
0100
0000
0000
0000
,
0020
0030
1000
0001
,
1000
0001
1000
0001
1000
0001
1000
0000
,
0100
0000
0010
0000
0100
0010
0100
0000
,
0010
0000
0000
0000
0000
0000
0000
0000
0000
0000
0000
0000
0000
0000
0000
0000
0000
0000
0000
0000
0000
0000
0000
0000
0100
0010
0000
0000
0000
0000
0000
0000
0000
0000
0000
0000
0000
0000
0000
0000
0000
0000
0000
0000
0000
0000
0000
0000
0100
0110
0000
0000
0000
0000
0000
0000
0000
0000
0000
0000
0000
0000
0000
0000
0000
0000
0000
0000
0000
0000
0000
0000
0000
0000
0000
0000
0000
0000
0000
0000
0000
0000
0000
0000
0000
0000
0000
0000
0000
0000
0000
0000
0000
0000
0000
0000
0220
0000
0000
0000
0000
0000
0000
0000
0000
0000
0000
0000
0000
0000
0000
0000
0000
0000
0000
0000
0000
0000
0000
0000
0000
0000
0000
0000
0000
0000
0000
0000
0000
0000
0000
0000
0000
0000
0000
0000
0000
0000
0000
0000
0000
0000
0000
0000
0330
0000
0000
0000
0000
0000
0000
0000
0000
0000
0000
0000
0000
0000
0000
0000
0000
0000
0000
0000
0000
0000
0000
0000
0000
0000
0000
0000
0000
0000
0000
0000
0000
0000
0000
0000
0000
0000
0000
0000
0000
0000
0000
0000
0000
0000
0000
0000
,
0000
1000
0000
0100
0000
0010
0000
0100
,
0010
0000
0000
0100
0000
0000
0010
0000
0001
0000
0000
1000
0000
0000
0000
0000
,
0000
0100
0000
0010
0000
0100
0010
1000
,
0100
0000
0000
0100
0000
0000
1000
0000
0200
0000
0000
0000
0000
0000
0300
0000
,
0000
0100
0000
0010
0000
0001
0000
0100
,
0001
0000
0000
0100
0000
0000
0010
0000
1000
0000
0000
0100
0000
0000
2000
0000
,
0000
0000
0000
0000
3000
0000
0000
0000
1000
0000
0000
0100
0000
0000
1000
0000
,
0100
0000
0000
0010
0000
0000
0100
0000
0020
0000
0000
0000
0000
0000
0030
0000
,
0000
0000
0100
0000
0000
0000
0000
0000
0010
0000
0000
0100
0000
0000
0010
0000
,
0001
0000
0000
1000
0000
0000
0001
0000
2000
0000
0000
0000
3000
0000
0000
0000
,
2002
0000
0000
0000
3003
0000
0000
0000
0100
0000
0000
0010
0000
0000
0100
0000
,
0010
0000
0000
0100
0000
0000
0010
0000
0220
0000
0000
0000
0330
0000
0000
0000
,
0100
1000
0100
0010
,
0001
0101
0100
1000
,
0100
0010
0100
0010
,
0100
0001
0100
0001
,
0100
1000
0100
1000
,
0100
0010
0100
1000
,
0100
1000
0100
0100
,
0010
0100
0010
0001
,
0100
0001
0100
0010
,
0100
0010
0110
0000
,
0000
0000
0000
0000
,
0000
0000
1001
0000
;

//---------------dance-single - ----------------
#NOTEDATA:;
#CHARTNAME:;
#STEPSTYPE:dance-single;
#DESCRIPTION:;
#CHARTSTYLE:;
#DIFFICULTY:Hard;
#METER:9;
#RADARVALUES:0.438708,0.826620,0.074901,0.257994,0.228865,369.000000,360.000000,9.000000,31.000000,0.000000,0.000000,0.000000,0.000000,0.000000,0.438708,0.826620,0.074901,0.257994,0.228865,369.000000,360.000000,9.000000,31.000000,0.000000,0.000000,0.000000,0.000000,0.000000;
#CREDIT:;
#NOTES:
// measure 0
0000
0000
0000
0000
,  // measure 1
0000
0000
0000
0000
,  // measure 2
0000
0000
0000
0000
,  // measure 3
0000
0000
0000
0000
,  // measure 4
1000
0100
0010
0100
0020
0000
0030
0000
,  // measure 5
0100
0010
0100
0010
0002
0000
0000
0003
,  // measure 6
0100
0010
0100
1000
0200
0000
0300
0000
,  // measure 7
0100
0010
0100
0010
0001
0010
0100
1000
,  // measure 8
0100
0010
0100
1000
0200
0000
0300
0000
,  // measure 9
0100
0010
0100
0010
0002
0000
0003
0000
,  // measure 10
0100
0001
0100
0001
0200
0000
0300
0000
,  // measure 11
1000
0100
1000
0100
1000
0100
1000
0100
,  // measure 12
0020
0000
0000
0030
,  // measure 13
0200
0000
0300
0010
0000
0100
0010
1000
,  // measure 14
0100
0000
0000
0010
0000
0000
0100
0000
0000
0000
0010
0000
0100
0000
0010
0000
,  // measure 15
0001
0000
0000
1000
0000
0000
0001
0000
0000
0000
0100
0000
0010
0000
0100
0000
,  // measure 16
1000
0000
0000
0100
0000
0000
0010
0000
0000
0000
0100
0000
0010
0000
0001
0000
,  // measure 17
0100
0000
0000
0100
0000
1000
0100
0010
,  // measure 18
0100
0000
0000
0010
0000
0000
0100
0000
0010
0000
0000
0100
0000
0000
0010
0000
,  // measure 19
1000
0000
0000
0100
0000
0000
0010
0000
0001
0000
0000
0100
0000
0000
0001
0000
,  // measure 20
0100
0010
0100
1000
,  // measure 21
0100
0000
1000
0100
1000
0100
0010
0100
,  // measure 22
0010
0000
0001
0100
0000
0000
1000
0000
0100
0000
1000
0100
0000
0000
1000
0000
,  // measure 23
0100
0000
0000
0001
0000
0000
0100
0000
0000
0000
0010
0000
0100
0000
0010
0000
,  // measure 24
0100
0000
0001
1000
0000
0000
0100
0000
0001
0000
1000
0001
0000
0000
0001
0000
,  // measure 25
1000
0000
0100
0010
0100
0010
1000
0100
,  // measure 26
0010
0000
0000
0100
0000
0000
0010
0000
0100
0000
0000
0010
0000
0000
1000
0000
,  // measure 27
0100
0000
0000
0000
0100
0000
0010
0100
0010
0000
0000
0001
0000
0000
0100
0000
,  // measure 28
0010
0000
0100
0000
0010
0100
0010
0100
,  // measure 29
0010
0000
0100
0000
1000
0001
1000
0001
1000
0001
0100
0010
0100
0010
0100
0000
,  // measure 30
0010
0000
0000
0100
0000
0000
0010
0000
0100
0000
0000
0010
0000
0000
1000
0000
,  // measure 31
0000
0000
0100
0000
0010
0100
0010
0001
,  // measure 32
1000
0000
0000
0100
0000
0000
0010
0000
0100
0000
0000
0010
0000
0000
1000
0000
,  // measure 33
0200
0300
0100
0010
,  // measure 34
0100
0000
0010
0100
1000
0100
1000
0000
,  // measure 35
0100
0000
0000
0000
0010
0000
0100
0010
0100
0000
0000
0100
0000
0000
0010
0000
,  // measure 36
0100
0000
0000
1000
0000
0000
0100
0000
0010
0000
0000
0100
0000
0000
0010
0000
,  // measure 37
0002
0000
0000
0000
0003
0000
0100
0010
0100
0000
0000
0000
0100
0000
0010
0100
,  // measure 38
0010
0000
0000
0100
0000
0000
2000
0000
0000
0000
3000
0000
0100
0000
0000
0000
,  // measure 39
0010
0000
0100
0010
0100
0001
0100
0001
,  // measure 40
1000
0000
0000
0100
0000
0000
0020
0000
0000
0000
0030
0000
0100
0000
0000
0000
,  // measure 41
0020
0030
1000
0000
0100
1000
0100
0010
,  // measure 42
0001
0100
0010
0100
0010
0100
1000
0000
,  // measure 43
0100
0000
0010
0100
0010
0100
0010
0000
,  // measure 44
0110
0000
0000
0000
0000
0000
0000
0000
0000
0000
0000
0000
0000
0000
0000
0000
0000
0000
0000
0000
0000
0000
0000
0000
1001
1001
0000
0000
0000
0000
0000
0000
0000
0000
0000
0000
0000
0000
0000
0000
0000
0000
0000
0000
0000
0000
0000
0000
0110
1001
0000
0000
0000
0000
0000
0000
0000
0000
0000
0000
0000
0000
0000
0000
0000
0000
0000
0000
0000
0000
0000
0000
0000
0000
0000
0000
0000
0000
0000
0000
0000
0000
0000
0000
0000
0000
0000
0000
0000
0000
0000
0000
0000
0000
0000
0000
0100
0000
0000
0000
0000
0000
0000
0000
0000
0000
0000
0000
0010
0000
0000
0000
0000
0000
0000
0000
0000
0000
0000
0000
0100
0000
0000
0000
0000
0000
0000
0000
0000
0000
0000
0000
0010
0000
0000
0000
0000
0000
0000
0000
0000
0000
0000
0000
0100
0000
0000
0000
0000
0000
0000
0000
0000
0000
0000
0000
0010
0000
0000
0000
0000
0000
0000
0000
0000
0000
0000
0000
0100
0000
0000
0000
0000
0000
0000
0000
0000
0000
0000
0000
0010
0000
0000
0000
0000
0000
0000
0000
0000
0000
0000
0000
,  // measure 45
0100
0010
0100
0010
0100
0010
0100
0000
0000
0000
0001
0000
0000
0000
1000
0000
,  // measure 46
0100
0000
0000
0010
0000
0000
0001
0000
0100
0000
0000
0020
0000
0000
0000
0000
,  // measure 47
0030
1000
0000
0100
0000
1000
0000
0100
,  // measure 48
0100
0000
0000
0010
0000
0000
0100
0000
0020
0000
0000
0000
0000
0000
0000
0000
,  // measure 49
0030
0100
0000
0001
0000
1000
0000
0100
,  // measure 50
1000
0000
0000
0100
0000
0000
0010
0000
0100
0000
0000
0010
0000
0000
0200
0000
,  // measure 51
0000
0000
0000
0000
0000
0000
0300
0000
1000
0000
0000
0100
0000
0000
1000
0000
,  // measure 52
0100
0000
0000
0010
0000
0000
0001
0000
0200
0000
0000
0000
0000
0000
0300
0000
,  // measure 53
0000
0000
0110
0000
0000
0000
0000
0000
1000
0000
0000
0100
0000
0000
0100
0000
,  // measure 54
0010
0000
0000
0001
0000
0000
0100
0000
0020
0000
0000
0000
0000
0000
0030
0000
,  // measure 55
1000
0001
0000
1000
0000
0000
0000
0000
0100
0000
0000
0010
0000
0000
0100
0000
,  // measure 56
0001
0000
0000
0100
0000
0000
0010
0000
0200
0000
0000
0000
0000
0000
0000
0000
,  // measure 57
0000
0300
2002
0000
,  // measure 58
0000
0000
3003
0000
0100
0010
0100
0010
,  // measure 59
0002
0000
0000
0003
0100
0010
0100
0010
,  // measure 60
2000
0000
3000
0000
1000
0100
1000
0100
,  // measure 61
2000
0000
0000
3000
0100
0010
0100
0010
,  // measure 62
0001
0100
0001
0100
0010
0100
0010
0100
,  // measure 63
0020
0000
0000
0030
1000
0100
1000
0100
,  // measure 64
2000
0000
0000
3000
0100
0010
0100
0010
,  // measure 65
0002
0000
0000
0003
0100
0010
0100
0010
,  // measure 66
0100
0010
1000
0100
0020
0000
0000
0030
,  // measure 67
0200
0000
0000
0300
2002
0000
0000
0000
,  // measure 68
0000
3003
0110
0000
;
