#TITLE:好きだ。;
#SUBTITLE:;
#ARTIST:リトル グリー モンスター;
#TITLETRANSLIT:Sukida.;
#SUBTITLETRANSLIT:;
#ARTISTTRANSLIT:Little Glee Monster;
#GENRE:J-Pop;
#CREDIT:;
#MUSIC:Sukida..ogg;
#BANNER:Sukida..png;
#BACKGROUND:Sukida.-bg.png;
#CDTITLE:;
#SAMPLESTART:68.953;
#SAMPLELENGTH:12.000;
#SELECTABLE:YES;
#OFFSET:-0.027;
#BPMS:0.000=151.467;
#STOPS:;
#DISPLAYBPM:151.000;
#BGCHANGES:;
#FGCHANGES:;

//--------------- dance-single - ----------------
#NOTES:
     dance-single:
     :
     Beginner:
     1:
     0,0,0,0,0:
0000
0000
0000
0000
,
0000
0000
0000
0000
,
0000
0000
0000
0000
,
0000
0000
0000
0000
,
0000
0000
0000
0000
,
0000
0000
0000
0000
,
0000
0000
0000
0000
,
0000
0000
0000
0000
,
1000
0000
0000
0000
,
0100
0000
0000
0000
,
0010
0000
0000
0000
,
0010
0000
0000
0000
,
0001
0000
0000
0000
,
1000
0000
0000
0000
,
0100
0000
0000
0000
,
0010
0000
0000
0000
,
0110
0000
0000
0000
,
1000
0000
0000
0000
,
1001
0000
0000
0000
,
0100
0000
0000
0000
,
0010
0000
0000
0000
,
0100
0000
0000
0000
,
0010
0000
0000
0000
,
0100
0000
0000
0000
,
0010
0000
0000
0000
,
0100
0000
0000
0000
,
0001
0000
0000
0000
,
1000
0000
0000
0000
,
0100
0000
0000
0000
,
0010
0000
0000
0000
,
0100
0000
0000
0000
,
0010
0000
0000
0000
,
0100
0000
0000
0000
,
0010
0000
0000
0000
,
1000
0000
0000
0000
,
0001
0000
0000
0000
,
0100
0000
0000
0000
,
0100
0000
0000
0000
,
0010
0000
0000
0000
,
0010
0000
0000
0000
,
0100
0000
0000
0000
,
0100
0000
0000
0000
,
0110
0000
0000
0000
,
0000
0000
0000
0000
,
1000
0000
0000
0000
,
0001
0000
0000
0000
,
0100
0000
0000
0000
,
0010
0000
0000
0000
,
0100
0000
0000
0000
,
1000
0000
0000
0000
,
0010
0000
0000
0000
,
0100
0000
0000
0000
,
0110
0000
0000
0000
,
1001
0000
0000
0000
,
1000
0000
0000
0000
,
0001
0000
0000
0000
,
0100
0000
0000
0000
,
0010
0000
0000
0000
,
0100
0000
0000
0000
,
0010
0000
0000
0000
,
1000
0000
0000
0000
,
0001
0000
0000
0000
,
0110
0000
0000
0000
,
1000
0000
0000
0000
,
1100
0000
0000
0000
,
0011
0000
0000
0000
,
0110
0000
0000
0000
,
1000
0000
0000
0000
,
0001
0000
0000
0000
,
0100
0000
0000
0000
,
0010
0000
0000
0000
,
0110
0000
0000
0000
;

//--------------- dance-single - ----------------
#NOTES:
     dance-single:
     :
     Easy:
     2:
     0,0,0,0,0:
0000
0000
0000
0000
,
0000
0000
0000
0000
,
0000
0000
0000
0000
,
0000
0000
0000
0000
,
0000
0000
0000
0000
,
0000
0000
0000
0000
,
0000
0000
0000
0000
,
0000
0000
0000
0000
,
1000
0000
0010
0000
,
0100
0000
0010
0000
,
0100
0000
0001
0000
,
1000
0000
0001
0000
,
0100
0000
0100
0000
,
0010
0000
0010
0000
,
0110
0000
1000
0000
,
0001
0000
0100
0000
,
0010
0000
0010
0000
,
0100
0000
0100
0000
,
0110
0000
0001
0000
,
1000
0000
0100
0000
,
0010
0000
0010
0000
,
0100
0000
0100
0000
,
0110
0000
0001
0000
,
1000
0000
0001
0000
,
0100
0000
0010
0000
,
0100
0000
0010
0000
,
0110
0000
0001
0000
,
1000
0000
0100
0000
,
0010
0000
0001
0000
,
0100
0000
0010
0000
,
1000
0000
0100
0000
,
0010
0000
0100
0000
,
0010
0000
0001
0000
,
1000
0000
0100
0000
,
0220
0000
0000
0000
,
0000
0000
0000
0000
0000
0330
0000
0000
,
2002
0000
0000
0000
,
0000
0000
0000
3003
,
0110
0000
0000
0000
,
1000
0000
0000
0000
,
1001
0000
0000
0000
,
0110
0000
0000
0000
,
0220
0000
0000
0000
,
0000
0000
0000
0330
,
1000
0000
1000
0000
,
0001
0000
0001
0000
,
0100
0000
0100
0000
,
0010
0000
0010
0000
,
0110
0000
1000
0000
,
1000
0000
0100
0000
,
0010
0000
0010
0000
,
0001
0000
0001
0000
,
0110
0000
0001
0000
,
1000
0000
0100
0000
,
0010
0000
0100
0001
,
0100
0000
0010
0000
,
1000
0000
1000
0000
,
0100
0000
0010
0000
,
0100
0000
0010
0000
,
0001
0000
1000
0000
,
0220
0000
0000
0000
0000
0330
0000
2002
,
0000
0000
0000
0000
0000
0000
0000
3003
,
0110
0000
1000
0000
,
0100
0000
0010
0000
,
0001
0000
0100
0000
,
0010
0000
0100
0000
,
0010
0000
1000
0000
,
0100
0000
0010
0000
,
0100
0000
0010
0000
,
0110
0000
0100
0000
,
0010
0000
0100
0000
,
0220
0000
0000
0000
,
0000
0000
0000
0000
,
0330
0000
0000
0000
;

//--------------- dance-single - ----------------
#NOTES:
     dance-single:
     :
     Medium:
     4:
     0,0,0,0,0:
0000
0000
0000
0000
,
0000
0000
0000
0000
,
0000
0000
0000
0000
,
0000
0000
0000
0000
,
0000
0000
0000
0000
,
0000
0000
0000
0000
,
0000
0000
0000
0000
,
0000
0000
0000
0000
,
1001
0000
0100
0010
,
0100
0000
1000
0100
,
0020
0000
0000
0030
0100
0000
0010
0200
,
0000
0300
1000
0000
0001
0000
0100
0000
,
0010
0100
1000
0100
,
0001
0100
1000
0100
,
0020
0000
0000
0030
0100
0000
0010
0000
,
0100
0010
0100
1000
,
2002
0000
0000
0000
0000
3003
0000
0000
0200
0000
0000
0000
0000
0000
0300
0000
,
0020
0000
0000
0000
0000
0030
0000
0000
0100
0000
0000
0000
0010
0000
0000
0000
,
0110
0100
0100
0010
,
0100
1000
0100
0010
,
0100
0000
0010
0200
0000
0300
0001
2000
,
0000
3000
0100
0010
0000
0100
0020
0000
,
0030
0100
0010
1000
,
0100
0010
0001
0100
,
0010
0000
0000
0000
0100
0000
0020
0000
0000
0000
0000
0030
1000
0000
0100
0000
,
0000
0010
0001
0000
1000
0000
0100
0020
,
0000
0030
0000
0000
0010
0000
0000
0000
0100
0000
0000
0000
0010
0000
0000
0000
,
1000
0100
0010
0100
,
0010
0100
0001
1000
,
0001
0000
0100
0010
0000
0100
1000
0100
,
0000
0010
0100
0010
,
1000
0000
0100
0000
0010
0000
0100
0001
,
0010
0000
0000
0000
2000
0000
0000
0000
0000
3000
0000
0000
0001
0000
0100
0000
,
0000
2002
0000
0000
3003
0100
0010
1000
,
0100
0100
0010
1000
,
0010
0100
0001
0100
,
0010
0100
0010
1000
,
0100
0000
0010
0000
0100
0000
0010
0001
,
0220
0330
0001
0000
0001
0000
0100
0000
,
0010
0000
0100
0000
0010
0000
0100
0010
,
0100
0010
1000
0100
,
0010
0100
0010
0100
,
0220
0000
0000
0000
0000
0330
0000
0000
2002
0000
0000
0000
0000
0000
0000
0000
,
0000
3003
0100
0001
0010
1000
0100
0010
,
0110
0000
0100
0010
1000
0100
0010
0200
,
0000
0300
0010
0000
0000
0000
0100
0000
0010
0000
0100
0000
0001
0000
2000
0000
,
0000
3000
0100
0000
0010
0100
0010
0200
,
0000
0300
0001
0000
1000
0000
0100
0000
0000
0000
0010
0000
0100
0000
0020
0000
,
0000
0000
0000
0030
0100
0000
0000
0000
0010
0000
0000
0000
1000
0000
0000
0000
,
0100
0010
0100
0020
0000
0000
0030
0001
,
0000
1000
0100
0010
0100
0000
0010
0100
,
0000
0010
0100
1000
0100
0000
0010
0002
,
0003
0100
0000
0010
0100
0010
0100
0200
,
0000
0300
1000
0000
0010
0001
0100
0020
,
0000
0030
0100
0000
0001
1000
0100
0010
,
0000
0001
1000
0100
0000
0010
0100
0020
,
0000
0000
0030
0000
0100
0000
0000
0000
0020
0000
0000
0030
1000
0000
0000
0000
,
0100
0000
0010
0000
0100
0000
0010
2000
,
0000
3000
0100
0000
0001
0000
0100
0000
,
0010
0100
0010
0100
,
0100
0000
0010
0000
1001
0000
0020
0000
0000
0000
0000
0030
0000
0000
0110
0000
,
0000
1000
0110
0000
0000
0100
0000
0010
,
0100
0010
1000
0100
,
0010
0100
0010
0100
,
0010
0001
1000
0001
,
0100
0010
0100
0010
,
0100
0010
0001
1000
,
0001
0100
0010
0100
,
0010
0100
0010
0001
,
0200
0000
0000
0000
0000
0000
0300
0000
0020
0000
0000
0000
0000
0030
0000
0000
,
0220
0000
0000
0000
0000
0000
0000
0000
0000
0000
0000
0000
0000
0330
0000
0000
,
2002
0000
0000
0000
,
0000
0000
0000
3003
0000
0000
0000
0000
0000
0000
0000
0000
0000
0000
0000
0000
;

//--------------- dance-single - ----------------
#NOTES:
     dance-single:
     :
     Hard:
     9:
     0,0,0,0,0:
0000
0000
0000
0000
,
0000
0000
0000
0000
,
0000
0000
0000
0000
,
0000
0000
0000
0000
,
0000
0000
0000
0000
,
0000
0000
0000
0000
,
0000
0000
0000
0000
,
0000
0000
0000
0000
,
2002
0000
0000
3003
0000
0100
0010
1000
,
0200
0000
0000
0300
0010
0001
0100
1000
,
0220
0000
0000
0330
1001
0000
0100
0020
,
0000
0030
0100
0001
1000
0100
0010
1000
,
0100
0000
0010
0000
0100
0000
1000
0002
,
0000
0003
1000
0000
0200
0300
0001
0000
,
0110
0100
1000
0100
,
0010
0000
0100
0000
0010
0000
1000
0100
,
0020
0000
0000
0000
0000
0000
0030
0000
1000
0000
0000
0000
0100
0000
1000
0010
,
0001
0000
0220
0000
0330
1001
0000
0220
,
0000
0330
0100
0010
0100
1000
0000
0100
,
0000
1000
0010
0000
0010
1000
0001
0000
,
0100
0000
0010
0200
0000
0300
1000
0200
,
0000
0300
0010
0200
0000
0301
0220
0000
,
0330
0000
1001
0000
0100
0010
0100
1000
,
0000
0010
0100
0010
0000
0100
0001
0010
,
1000
0000
0100
0010
0000
0000
1001
0100
,
0000
0000
0010
1000
0100
0001
1000
0200
,
0000
0300
0101
0010
2020
3030
1000
0200
,
0300
0010
1000
0020
0030
0100
0010
2000
,
3000
0100
0010
0100
0001
1000
0001
0200
,
0300
0010
0000
0100
0000
0010
1000
0100
,
0020
0030
0100
0010
1000
0100
0010
0200
,
0300
0020
0030
0100
0001
1000
0001
0020
,
0030
0200
0300
0020
0030
1000
0001
2000
,
3000
0220
0000
0000
0330
1001
0100
0010
,
0200
0300
0010
1000
0100
0001
1000
0200
,
0000
0300
0020
0000
0030
0001
1000
0020
,
0000
0030
0100
0010
0100
0010
0001
0200
,
0000
0300
2000
0000
0000
3000
0001
0010
,
0110
0000
0100
0010
1000
0100
0010
0100
,
0010
1000
0100
0020
0030
0100
0010
0100
,
0110
0000
1000
0100
0010
0001
0100
1000
,
0010
0000
0000
0100
0000
0000
0010
0000
0000
0000
0100
0000
0010
0000
0100
0000
,
0220
0000
0330
2002
0000
3003
0200
0000
,
0310
0000
0000
0000
0100
1000
0100
0000
0100
0001
0010
0000
1000
0001
0100
0000
,
0110
0000
0100
1000
0100
0010
0100
0020
,
0030
0100
0000
0100
1000
0100
0010
0002
,
0000
0003
0200
0300
0010
1000
0100
0020
,
0030
0100
0010
0200
0300
1000
0100
0020
,
0000
0030
0220
0330
0001
1000
0002
0003
,
0100
0010
0100
0020
0000
0030
0100
0010
,
0000
0100
0010
1000
0100
0000
0010
0200
,
0300
0010
0100
0010
0100
0000
0220
0000
,
0330
2000
3000
0100
0010
0100
0010
0002
,
0000
0003
0100
0000
0010
1000
0100
0020
,
0000
0000
0030
0000
0100
0000
1000
0000
0100
0000
0000
0001
0000
0000
0100
0000
,
0010
1000
0100
0010
0000
0100
0010
0200
,
0000
0300
0020
0030
1000
0000
0100
0002
,
0003
0200
0300
0020
0030
0200
0300
0020
,
0000
0030
0200
0300
0020
0030
1000
0200
,
0300
0020
0030
0200
0300
0010
0100
0002
,
0003
1000
0100
2002
0000
0000
3003
0110
,
0000
0100
0020
0000
0030
0100
0000
0010
,
0220
0330
1000
0200
0300
0010
0100
0020
,
0000
0030
0100
0020
0030
1000
0100
0020
,
0000
0030
0100
0020
0030
0100
0010
2000
,
0000
3000
0100
0002
0003
1000
0100
0020
,
0000
0030
0100
0020
0030
0001
1000
0020
,
0000
0030
0100
0020
0030
0100
0010
2000
,
0000
3000
0100
0020
0030
0100
0010
2000
,
0001
0001
0001
3001
,
0200
0300
0020
0030
0200
0300
0020
0030
,
0220
0000
0330
2002
0000
3003
0110
0000
;
