#TITLE:Snapping;
#SUBTITLE:;
#ARTIST:청하;
#TITLETRANSLIT:;
#SUBTITLETRANSLIT:;
#ARTISTTRANSLIT:Chung Ha;
#GENRE:K-Pop;
#CREDIT:;
#MUSIC:Snapping.ogg;
#BANNER:Snapping.png;
#BACKGROUND:Snapping-bg.png;
#JACKET:Snapping-jacket.png;
#CDTITLE:;
#SAMPLESTART:45.164;
#SAMPLELENGTH:12.000;
#SELECTABLE:YES;
#OFFSET:-6.883;
#BPMS:0.000=105.014;
#STOPS:;
#DISPLAYBPM:105.000;
#BGCHANGES:;
#FGCHANGES:;

//--------------- dance-single - ----------------
#NOTES:
     dance-single:
     :
     Beginner:
     1:
     0,0,0,0,0:
0000
0000
0000
0000
,
1000
0000
0000
0000
,
0100
0000
0000
0000
,
0010
0000
0000
0000
,
0100
0000
0000
0000
,
0001
0000
0000
0000
,
1000
0000
0000
0000
,
0100
0000
0000
0000
,
0010
0000
0000
0000
,
0001
0000
0000
0000
,
1000
0000
0000
0000
,
0100
0000
0000
0000
,
0010
0000
0000
0000
,
0001
0000
0000
0000
,
0100
0000
0000
0000
,
1000
0000
0000
0000
,
0100
0000
0000
0000
,
0010
0000
0000
0000
,
0001
0000
0000
0000
,
1000
0000
0000
0000
,
0100
0000
0000
0000
,
0010
0000
0000
0000
,
0001
0000
0000
0000
,
1000
0000
0000
0000
,
1000
0000
0000
0000
,
0100
0000
0000
0000
,
0010
0000
0000
0000
,
1000
0000
0000
0000
,
0100
0000
0000
0000
,
0010
0000
0000
0000
,
0100
0000
0000
0000
,
0010
0000
0000
0000
,
0001
0000
0000
0000
,
1001
0000
0000
0000
;

//--------------- dance-single - ----------------
#NOTES:
     dance-single:
     :
     Easy:
     3:
     0,0,0,0,0:
0000
0000
0000
0000
,
1000
0000
0100
0000
,
0010
0000
0100
0000
,
0010
0000
1000
0000
,
1000
0000
0100
0000
,
0010
0000
0001
0000
,
0100
0000
0100
0000
,
0010
0000
1000
0000
,
0100
0000
0010
0000
,
0001
0000
1000
0000
,
0001
0000
0100
0000
,
0010
0000
0100
0000
,
0001
0000
1000
0000
,
1000
0000
1000
0000
,
0100
0000
0100
0000
,
0010
0000
0100
0000
,
0010
0000
0001
0000
,
1001
0000
0100
0000
,
0100
0010
0100
0000
,
1000
0000
1000
0000
,
1000
0001
1000
0000
,
0100
0000
0010
0000
,
0001
1000
0100
0000
,
1001
0000
0100
0000
,
0010
0100
0010
1000
,
1000
0000
1000
0001
,
0100
0000
0100
0010
,
0001
0000
0100
0001
,
0100
0000
2000
3000
,
0001
0000
0100
0000
,
0010
0000
0100
0010
,
1000
0000
0100
0000
,
0010
0100
0010
0000
,
1001
0000
0000
0000
;

//--------------- dance-single - ----------------
#NOTES:
     dance-single:
     :
     Medium:
     6:
     0,0,0,0,0:
0000
0000
0000
0000
,
1000
0000
0100
0000
0100
0010
0100
0000
,
0100
0000
0010
0000
0001
1000
0100
0000
,
0010
0000
1000
0000
0100
0001
0010
0000
,
0100
0000
0010
0000
0100
1000
0010
0000
,
0001
0000
0001
0000
1000
0001
1000
0000
,
0100
0000
0010
0000
0100
1000
0100
0000
,
0100
0000
0010
0000
0001
0100
1000
0000
,
1000
0000
0100
0000
0010
0100
0010
0000
,
0001
1000
0001
0100
,
0010
0000
0100
0000
1000
0000
1000
1000
,
0100
0010
0100
0010
,
0001
0000
0100
0000
0001
0100
0001
0000
,
0100
0000
0000
0000
0010
0000
0000
0000
1000
0000
0000
0001
0000
0000
0100
0000
,
0000
0000
0010
0000
0000
0000
0000
0000
0100
0000
0000
0001
0000
0000
0010
0000
,
1000
0100
0010
0100
,
0010
0001
0100
0000
,
0001
1000
0001
0100
,
0010
0000
0000
0100
0000
0000
0010
0000
,
1000
0000
1000
0000
0100
0000
0010
0100
,
0002
0000
0000
0003
0000
0000
1000
0000
0000
0000
0000
0000
0100
0000
0000
0000
,
0010
0000
1000
0000
1000
0100
1000
0000
,
0100
0000
0010
0000
0001
0100
0001
0000
,
0100
0010
1000
0100
,
0001
0000
0000
0000
0100
0000
0002
0000
0000
0000
0000
0000
0000
0003
0000
0000
,
1000
0000
0010
0000
0100
1000
0100
0000
,
0010
0000
0100
0000
0010
1000
0100
0000
,
0010
0000
0100
1000
0000
0000
0100
0000
,
0010
0000
0100
0010
0100
0010
0000
0001
,
1000
0000
0100
0000
0010
0000
0100
0010
,
0100
0000
1000
0000
0100
0010
0001
0000
,
0100
0000
0000
0000
0010
0000
2000
0000
0000
3000
0000
0000
0001
0000
2000
0000
,
0000
3000
0000
0000
0100
0000
0010
0000
0100
0000
0010
0000
0000
0000
0001
0000
,
1001
0000
0000
0000
;

//--------------- dance-single - ----------------
#NOTES:
     dance-single:
     :
     Hard:
     10:
     0,0,0,0,0:
0000
0000
0000
0000
0000
0000
0000
0000
0000
0000
0000
0000
1000
0000
0100
0010
,
0100
0000
0000
2000
0000
3000
0000
0000
0100
0000
0000
0000
0010
0000
0000
0000
,
0100
0000
0010
0000
1000
0000
0100
0000
0010
0000
0001
0000
0100
0000
0010
1000
,
0100
0000
0000
0200
0000
0000
0300
0000
0010
0000
0000
0000
0100
0000
0000
0000
,
0010
0000
1000
0000
0100
0000
0020
0000
0030
0000
0001
0000
0100
0000
0010
1000
,
0100
0000
0010
0000
0001
0000
1000
0000
0100
0000
0000
0010
0000
0000
2000
0000
,
3000
0000
0100
0000
0001
0000
1000
0000
0100
0000
0000
0010
0000
0000
2000
0000
,
0000
3000
0010
0000
0100
0000
0010
0000
1000
0000
0100
0000
0010
0000
0001
1000
,
0100
0000
0000
0001
0010
0000
0000
1000
0100
0000
0000
0100
0010
0000
0000
0000
,
0100
0001
0000
0000
0100
1000
0000
0000
0100
0010
0000
0000
0100
0010
0000
0000
,
1000
0100
0000
0000
0010
0000
0000
0000
0100
0000
0010
0000
1000
0000
0100
0000
,
0010
0100
0000
0000
1000
0100
0000
0000
0010
0001
0000
0000
0100
1000
0000
0000
,
0100
0010
0001
0100
0100
0010
0100
1000
,
0100
0000
0010
0000
0100
0000
0010
0000
1000
0000
0000
0010
0000
0000
0200
0000
,
0300
0000
0001
0000
0100
0000
1000
0000
0100
0000
0000
0100
0000
0000
0001
0000
,
0100
0000
0010
0000
1000
0000
0100
0000
1000
0000
0100
0010
1000
0000
0100
0010
,
0002
0000
0000
0003
2000
0000
0000
3000
0000
0000
0000
0000
0100
0000
0010
0000
,
0001
2000
3000
0100
0010
1000
0100
0010
,
0200
0000
0300
0000
0001
0000
0100
0000
0010
0000
1000
0000
0100
0000
1000
0100
,
1000
0100
0010
0001
0100
0010
0100
1000
,
0020
0000
0030
0000
0100
0000
0020
0000
0000
0030
0000
0000
0100
0000
0010
0000
,
1000
0000
0100
0000
0100
0000
0010
1000
0200
0000
0300
0000
1000
0000
0100
0000
,
0010
0000
0001
0000
0100
0000
0001
0100
2000
0000
3000
0000
0200
0000
0300
0000
,
0010
0100
1000
0100
0010
0001
0100
0001
,
0002
0003
0100
2000
0000
0000
3001
0000
,
1001
0010
0100
0010
0200
0000
0310
0000
,
0010
0100
1000
0100
0020
0000
0130
0000
,
0100
0010
1000
0200
0000
0300
1001
0000
,
0100
0010
0100
0010
0100
1000
0000
1000
,
1001
0001
0100
0010
0200
0300
1000
0000
,
0100
0010
0001
0100
0020
0030
1000
0100
,
0001
0100
0010
2000
3000
0000
1001
0000
,
0100
0010
0100
0010
0001
0100
0000
0100
,
1001
0000
0000
0000
;
