#TITLE:青春Night;
#SUBTITLE:;
#ARTIST:モーニング娘。'19;
#TITLETRANSLIT:Seishun Night;
#SUBTITLETRANSLIT:;
#ARTISTTRANSLIT:Morning Musume '19;
#GENRE:Hello! Project;
#CREDIT:;
#MUSIC:Seishun Night.ogg;
#BANNER:Seishun Night.png;
#BACKGROUND:Seishun Night-bg.png;
#CDTITLE:Wrland.png;
#SAMPLESTART:60.489;
#SAMPLELENGTH:12.000;
#SELECTABLE:YES;
#OFFSET:-8.462;
#BPMS:0.000=128.011;
#STOPS:;
#DISPLAYBPM:128.000;
#BGCHANGES:;
#FGCHANGES:;

//--------------- dance-single - ----------------
#NOTES:
     dance-single:
     :
     Beginner:
     1:
     0,0,0,0,0:
0000
0000
0000
0000
,
0000
0000
0000
0000
,
0000
0000
0000
0000
,
0000
0000
0000
0000
,
0010
0000
0000
0000
,
1000
0100
0010
0000
,
0100
0000
0000
0000
,
0001
0000
0000
0000
,
1001
0000
0000
0000
,
0100
0000
0000
0000
,
0010
0000
0000
0000
,
0100
0000
0000
0000
,
0010
0000
0000
0000
,
1000
0000
0000
0000
,
0001
0000
0000
0000
,
0100
0000
0000
0000
,
0010
0000
0000
0000
,
0100
0000
0000
0000
,
1001
0000
0100
0001
,
1000
0000
0000
0000
,
0110
0000
0001
1000
,
0010
0000
0000
0000
,
0010
0000
1000
0100
,
0010
0000
0000
0000
,
1000
0100
0010
0000
,
0000
0000
1001
0000
,
0100
0000
0010
0000
,
0100
0000
0000
0000
,
1001
0000
0000
0010
,
0100
0100
0000
0000
,
0001
0000
0000
0000
,
0100
1000
0100
0000
,
1000
0000
0000
0000
,
0100
0010
0100
0000
,
0001
0000
0100
0000
,
1000
0100
0010
0000
,
1001
0000
0100
0000
,
0010
0000
0100
0000
,
1000
0000
0010
0000
,
1001
0000
0100
0000
,
0100
0000
0010
0000
,
0100
0000
1000
0000
,
1000
0100
0100
0000
,
0010
0000
0100
0000
,
1000
0100
0001
0000
,
0010
0000
0100
0000
,
1000
0100
0010
0000
;

//--------------- dance-single - ----------------
#NOTES:
     dance-single:
     :
     Easy:
     4:
     0,0,0,0,0:
0000
0000
0000
0000
,
0000
0000
0000
0000
,
0000
0000
0000
0000
,
0000
0000
0000
0000
,
1001
0000
0100
0000
,
0010
0100
0010
1000
,
1001
0000
0100
0000
,
0010
1000
0001
0100
,
1001
0000
0100
0000
,
0010
0100
0010
1000
,
0001
0000
0100
0000
,
0010
1000
0001
0100
,
1010
0000
0100
0001
,
0100
0010
1000
1010
,
0100
0000
0001
0100
,
0010
1000
1010
0000
,
0100
0001
0100
0010
,
1000
0001
0100
1001
,
2000
3000
0001
0000
,
0200
0300
0010
0000
,
0020
0030
0001
0000
,
1000
0010
0100
0000
,
0020
0030
0100
0001
,
1000
0000
1000
0100
,
0001
0000
0100
0010
,
1000
0000
1001
0000
,
0100
0000
0010
0000
,
2000
0000
3000
0001
,
1000
0000
0100
0000
0000
0010
0000
0100
,
0000
1000
0000
0100
0000
0010
0000
0000
,
0100
0010
0100
0010
,
0001
1000
0100
0010
,
1001
0000
0100
0100
,
1000
0100
0010
0000
,
1000
0000
0100
0010
,
0100
0000
0110
0010
,
1000
0100
0010
0001
,
1000
0100
0100
0010
,
1000
0000
0000
0000
,
1001
0000
0100
0010
,
0100
0100
1000
0100
,
1001
0000
0100
0010
,
0100
0010
0001
0000
,
0100
0000
0010
1000
,
0100
0010
0100
0000
,
0001
0000
0100
1000
,
0100
0010
0002
0003
;

//--------------- dance-single - ----------------
#NOTES:
     dance-single:
     :
     Medium:
     10:
     0,0,0,0,0:
1001
0000
0100
0000
0010
0000
0100
1000
,
0100
0010
1000
0001
0100
0010
0000
0000
,
1001
0000
0100
0010
0000
0100
0010
1000
,
0001
0100
0010
1000
1010
0000
0100
0000
,
0010
0000
0100
0010
1000
0000
0010
0100
,
0001
0100
0001
0001
1000
0010
0000
0000
,
0110
0000
1000
0001
0000
0100
0010
1000
,
0010
0000
0010
0000
1000
0010
0100
0001
,
1001
0100
0010
0100
,
0001
1000
0010
0100
,
0001
1000
0010
0000
0100
0000
0010
0000
,
1010
0000
0100
0001
0100
0000
0010
0000
,
1000
0010
0100
0000
0001
0000
0100
0000
,
0010
0100
0010
1010
,
0100
0001
0100
0010
1000
0010
0100
0001
,
0001
0100
0010
1000
,
1000
0000
0001
0000
0100
0010
1000
0010
,
0100
0001
0100
0010
,
1010
1000
0100
0001
,
1000
0001
0100
0010
,
1010
0100
0001
0100
,
0010
0100
0001
1000
,
2000
0000
0000
3000
0001
0000
0001
0100
,
0020
0030
0100
0000
0010
1000
0100
0001
,
0100
0100
0010
1000
,
0100
0010
0001
1001
,
0100
0000
0100
0010
,
2000
0000
0000
0000
0000
0000
0000
3001
0000
0000
0000
0000
0100
0000
1000
0000
,
0010
0000
2000
0000
3000
0010
0000
0100
,
0000
0010
0000
1000
0000
0001
0000
0000
,
1001
0100
0110
0000
1000
0010
0100
0001
,
0100
0010
1000
0010
1010
0000
0100
0001
,
1000
0000
0001
0000
0100
0010
1000
1010
,
0000
0200
0301
0100
0000
2000
0000
3000
,
0101
0000
1000
0010
0100
0001
0100
0010
,
2020
0000
3030
0000
0100
0010
0100
0010
,
1010
0000
0100
0001
0100
0010
1000
0000
,
0010
0000
0100
0000
0001
1000
0010
0100
,
0010
1000
0001
0100
0000
0010
1000
0001
,
0100
0000
1000
0000
0010
0100
0010
0100
,
0010
0100
0001
0100
0010
1000
0010
0000
,
0101
0000
0010
0100
0010
0100
0001
1000
,
0010
0100
0010
1000
0001
0000
0100
0000
,
0010
0000
1000
0000
0001
0100
0010
1000
,
0100
0010
0001
1000
0100
0020
0000
0030
,
0100
0000
1001
0010
0100
0000
0010
0000
,
0100
0010
1000
0001
0000
0100
2002
0000
,
3003
0000
0000
0000
;

//--------------- dance-single - ----------------
#NOTES:
     dance-single:
     :
     Hard:
     12:
     0,0,0,0,0:
1001
0000
0000
0000
0100
0010
0000
1000
0000
0000
0010
0000
0100
0000
0010
0000
,
0100
0000
1000
0000
0100
0000
0010
0100
0000
0000
2000
0000
0000
0000
0000
3000
,
0100
0000
0000
0000
0100
1000
0000
0001
0000
0000
0100
0000
0010
0000
1000
0000
,
0001
0000
0100
0000
0010
0000
1000
0002
0000
0000
0000
0003
0100
0000
0000
0000
,
1010
0000
0000
0000
0101
1000
0000
0001
0000
0000
0010
0000
1000
0000
0010
0000
,
0100
0000
0001
0000
1000
0000
0100
0010
0000
0000
2000
0000
0000
0000
0000
3000
,
0100
0000
0100
0000
0010
1000
0000
0100
0000
0000
0100
0000
0010
0000
1000
0000
,
0100
0000
0010
0000
0100
0000
0010
0100
0000
0000
1000
0000
0100
0000
0000
0000
,
1000
0100
0010
0000
0000
1000
0000
0010
,
0000
0100
1000
0001
1000
0000
0100
0000
,
0010
0100
1000
0000
0000
0100
0000
1000
,
0000
0010
0100
0010
2000
0000
3001
0000
,
0100
0100
1000
0000
0000
0100
0000
0010
,
0000
1000
0001
0100
0010
0000
1010
0000
,
0220
0330
2000
3000
0100
0001
0010
0200
,
0300
0001
0010
1000
0100
0010
0001
0100
1000
0000
0010
0000
2002
0000
3003
0000
,
0100
0000
0010
0000
1000
0010
0100
0010
,
0000
0100
1000
0100
0010
1000
0001
0100
0010
0000
1000
0000
2000
0000
3000
0000
,
0220
0000
0000
0000
0330
0000
0000
0000
1000
0000
0000
0100
0000
0000
0010
0000
,
0100
0000
0000
0000
1000
0000
0000
0000
0100
0000
0000
0010
0000
0000
1000
0000
,
2000
0000
0000
3000
0010
0000
0000
0000
0100
0000
0000
0000
0001
0000
0000
0000
,
2002
0000
0000
3003
0010
0000
0100
0000
,
0002
0003
0100
0010
,
1000
0000
0000
0000
0100
0000
0000
0000
0010
0000
0000
0100
0000
0000
1000
0000
,
0100
0000
0000
0000
0100
0000
0000
0000
0010
0000
0000
1000
0000
0000
0100
0000
,
0010
0100
1000
0100
,
0001
1000
0010
1000
0100
0000
0110
0000
,
1000
0001
0100
0010
0000
0100
0000
2002
0000
0000
3003
0000
1001
0000
0100
0000
,
0010
0000
2000
0000
3001
0020
0030
0200
,
0300
2000
3000
0200
0300
0020
0000
0030
,
1001
0000
0000
0100
0010
0000
0000
0000
1000
0000
0100
0000
0010
0000
0000
0000
,
0100
1000
0010
0100
0002
0000
0000
0003
1000
0000
0100
0000
0010
1000
0010
0000
,
1000
0000
0000
0000
0020
0000
0030
0000
0000
0000
2000
0000
0000
3000
0200
0000
,
0000
0300
0002
0000
0000
0003
0100
0000
0010
0000
1000
0000
0000
0000
0000
0000
,
1010
0000
0000
0100
0001
0000
0000
0000
0100
0000
0000
0000
0010
0000
0000
0000
,
2020
0000
3030
0000
1000
0010
1000
0100
,
0010
0000
0000
0100
0010
0000
0000
0000
2000
0000
0000
3000
0002
0000
0000
0003
,
0200
0000
0000
0300
0020
0000
0000
0030
2000
0000
0000
3000
0200
0000
0000
0300
,
1000
0100
0010
0100
0000
1000
0000
0010
0000
0000
1000
0000
0100
0000
0010
0000
,
0002
0000
0000
0000
1003
0100
0000
0010
0000
0000
1000
0000
0010
0000
0100
0000
,
1000
0000
0010
0000
0100
0000
0010
0100
0000
0000
1000
0000
0100
0000
0010
0000
,
0202
0000
0303
0000
1000
0100
0000
0010
0000
0000
0010
0000
1000
0000
0001
0000
,
0100
0000
0010
0000
1000
0000
0100
0010
1000
0000
0100
0000
0020
0000
0000
0030
,
1001
0000
0000
0000
0010
0100
0000
1000
0000
0000
0100
0000
0010
0000
0001
0000
,
1000
0000
0100
0000
0010
0000
1000
0010
0000
0000
1000
0000
0100
0000
0100
0000
,
0010
0000
1000
0000
0100
0010
0000
0100
0000
0000
0100
0000
1000
0000
0100
0000
,
0010
0000
0001
0000
1000
0000
0100
0020
0000
0030
1000
0000
2002
0000
0000
0000
,
3003
0000
0000
0000
;
