#TITLE:Poison;
#SUBTITLE:;
#ARTIST:다혜;
#TITLETRANSLIT:;
#SUBTITLETRANSLIT:;
#ARTISTTRANSLIT:DaHye;
#GENRE:Latin/K-Pop;
#CREDIT:;
#MUSIC:Poison.ogg;
#BANNER:Poison.png;
#BACKGROUND:Poison-bg.png;
#CDTITLE:Wrland.png;
#SAMPLESTART:75.862;
#SAMPLELENGTH:12.000;
#SELECTABLE:YES;
#OFFSET:-8.662;
#BPMS:0.000=125.000;
#STOPS:;
#DISPLAYBPM:125.000;
#JACKET:Poison-jacket.png;
#BGCHANGES:;
#FGCHANGES:;

//--------------- dance-single - ----------------
#NOTES:
     dance-single:
     :
     Beginner:
     1:
     0,0,0,0,0:
0000
0000
0000
0000
,
0000
0000
0000
0000
,
0000
0000
0000
0000
,
0000
0000
0000
0000
,
1000
0000
0000
0000
,
0100
0000
0000
0000
,
0010
0000
0000
0000
,
0100
0000
0000
0000
,
1000
0000
0000
0000
,
1000
0000
0000
0000
,
0001
0000
0000
0000
,
0100
0000
0000
0000
,
1001
0000
0000
0000
,
0100
0000
0000
0000
,
0010
0000
0000
0000
,
0100
0000
0000
0000
,
1000
0000
0000
0000
,
1000
0000
0000
0000
,
0100
0000
0000
0000
,
0100
0000
0000
0000
,
0010
0000
0000
0000
,
0010
0000
0000
0000
,
1000
0000
0000
0000
,
0100
0000
0000
0000
,
0010
0000
0000
0000
,
0001
0000
0000
0000
,
0001
0000
0000
0000
,
1000
0000
0000
0000
,
1001
0000
0000
0000
,
0100
0000
0000
0000
,
0010
0000
0000
0000
,
0001
0000
0000
0000
,
1000
0000
0000
0000
,
1000
0000
0000
0000
,
0100
0000
0000
0000
,
0002
0003
0000
0000
,
0000
1001
0000
0000
,
0100
0000
0000
0000
,
0010
0000
0000
0000
,
0100
0000
0000
0000
,
0010
0000
0000
0000
,
1000
0000
0000
0000
,
0001
0000
0000
0000
,
0100
0000
0000
0000
,
0010
0000
0000
0000
,
1000
0000
0000
0000
,
0100
0000
0000
0000
,
0010
0000
0000
0000
,
0001
0000
0000
0000
,
1000
0000
0000
0000
,
0100
0000
0000
0000
,
0010
0000
0000
0000
,
1001
0000
0000
0000
,
0100
0000
0000
0000
,
0001
0000
0000
0000
,
1000
0000
0000
0000
,
0100
0000
0000
0000
,
0010
0000
0000
0000
,
0100
0000
0000
0000
,
0010
0000
0000
0000
,
1000
0000
0000
1001
;

//--------------- dance-single - ----------------
#NOTES:
     dance-single:
     :
     Easy:
     4:
     0,0,0,0,0:
0000
0000
0000
0000
,
0000
0000
0000
0000
,
0000
0000
0000
0000
,
0000
0000
0000
0000
,
1000
0000
1000
0000
,
0100
0000
0100
0000
,
0001
0000
0001
0000
,
1000
0000
1000
0000
,
1001
0000
0100
0000
,
0100
0000
0010
0000
,
0001
0000
1000
0000
,
0110
0000
1000
0000
,
1001
0000
0100
0000
,
0100
0000
0010
0000
,
0010
0000
1000
0000
,
1000
0000
0100
0000
,
0001
0000
0010
0000
,
0100
0000
1000
0000
,
1000
0000
1000
0000
,
0100
0000
0100
0000
,
1001
0000
0100
0000
,
0010
0000
0100
0000
,
0010
0000
0001
0000
,
1000
0000
1000
0000
,
0100
0000
0100
0000
,
0010
0000
0010
0000
,
0100
0000
0010
0000
,
1000
0000
1000
0000
,
0100
0000
0010
0000
,
0100
0000
0010
0000
,
0100
0000
0100
0000
,
0001
0000
0100
0000
,
0010
0000
1000
0000
,
0100
0000
0010
0000
,
0010
0000
0100
0000
,
0002
0000
0003
0000
,
0100
0000
0010
0000
,
1000
0000
1000
0000
,
0100
0000
0010
0000
,
0100
0000
1000
0000
,
0100
0000
0010
0000
,
0100
0000
0010
0000
,
1001
0000
0100
0000
,
0010
0000
0100
0000
,
1000
0000
0100
0000
,
0010
0000
0100
0000
,
1000
0000
0100
0000
,
0010
0000
0100
0000
,
0010
0000
1000
0000
,
0100
0000
0010
0000
,
0001
0000
1000
0000
,
1001
0000
0000
0100
,
1001
0000
0100
0010
,
1000
0000
1000
0000
,
0100
0000
0100
0000
,
0010
0000
0010
0000
,
0001
0000
0100
0000
,
0010
0000
1000
0000
,
0100
0000
0010
0000
,
0100
0000
1000
0000
,
0100
0000
0010
1001
;

//--------------- dance-single - ----------------
#NOTES:
     dance-single:
     :
     Medium:
     7:
     0,0,0,0,0:
0000
0000
0000
0000
,
0000
0000
0000
0000
,
0000
0000
0000
0000
,
0000
0000
0000
0000
,
1001
0000
0100
0000
0010
0000
0100
0010
,
0000
1000
0000
0010
0000
0100
0010
1000
,
0010
0000
0100
0000
0001
0000
0100
0001
,
1000
0000
0010
0000
0100
0001
1000
0000
,
0100
0000
0100
0000
0010
0000
1000
0010
,
0000
0100
0010
1000
0010
0000
0100
0001
,
1000
0000
0100
0000
0010
0000
0100
0010
,
1001
0000
0100
0000
0010
1000
1010
0000
,
0100
0000
0001
0000
0100
0010
0000
0000
,
1000
0000
0010
0000
0100
0001
0000
0000
,
0100
0000
0010
0000
1000
0100
0000
0000
,
1000
0000
0100
0000
0001
0100
0010
0000
,
0100
0000
1000
0000
0100
0010
0000
0000
,
0100
0000
1000
0000
0001
0100
0000
0000
,
0100
0010
1000
0100
,
1001
0000
0100
0000
0010
0100
0010
0000
,
0001
0000
1000
0000
0100
1000
0000
0000
,
0100
0000
0010
0000
0100
0010
0000
0000
,
0001
0000
0010
0000
0001
0010
0000
0000
,
0100
0000
1000
0000
0100
1000
0100
0000
,
0100
0000
0010
0000
0100
0010
0000
0000
,
0100
0000
0010
0000
0100
0010
0000
0000
,
0100
0010
0001
1000
,
1001
0000
0100
0000
0010
0100
0010
0000
,
0100
1000
0100
0010
,
0100
1000
0100
0100
,
0010
0000
0010
0000
0100
0000
0010
0100
,
0010
0100
1000
0100
,
1001
0100
0010
0100
,
1000
1000
0100
0010
,
0100
0100
0010
0100
,
2002
3003
0100
0010
,
1000
1100
0100
0010
,
0100
0000
0010
0100
0000
1000
0100
0000
,
0010
0000
0100
0020
0030
0001
0200
0300
,
2000
3000
0010
2000
3000
0100
0010
0000
,
0100
1000
0100
0010
,
0001
0000
0100
0001
0100
0000
0010
0000
,
0100
0000
0100
0000
1000
0010
1000
0101
,
0010
0000
0100
1000
0100
0000
0010
0000
,
0001
0000
0100
0000
1000
0100
0010
0100
,
0100
0000
1000
0100
0000
0001
0100
0000
,
0010
0000
1000
0001
0000
0010
0100
0000
,
1000
0000
0010
0000
0001
1000
0100
0000
,
0100
0000
0001
0000
0100
0010
1000
0100
,
0100
0000
1000
0100
0020
0030
0001
0000
,
0200
0300
0010
0000
0001
1000
0100
0010
,
1000
0000
0100
0010
0001
0000
0100
0000
,
2002
3003
0100
0000
0010
0000
0100
0000
,
1000
0000
0100
0010
0001
0100
1010
0100
,
0000
0100
1000
0001
0100
0000
0010
0100
,
1000
0010
1000
0000
0100
0000
0010
1000
,
1001
0000
0100
0000
0010
0100
0010
1000
,
0100
0000
1000
0000
0100
0000
0010
0001
,
0000
0100
0010
1000
0100
0000
0100
0010
,
0100
0000
1000
0000
0100
0000
0010
0001
,
1001
0000
0100
0000
0010
0100
1001
0000
;

//--------------- dance-single - ----------------
#NOTES:
     dance-single:
     :
     Hard:
     11:
     0,0,0,0,0:
1001
0100
0020
0030
0100
0000
0010
1000
,
0100
0000
0010
0000
0100
1000
0100
0000
,
0001
0100
0010
0000
1000
0100
0010
0000
,
1001
0000
0100
0000
0010
0100
0010
0000
,
1001
0000
0100
0010
1000
0000
1000
0020
,
0030
0100
1000
0010
0100
0010
0001
1000
,
0100
0000
0010
0000
0100
0010
0001
1000
,
0100
0000
0010
0100
1000
0001
1001
0000
,
0100
0000
0010
0000
0100
1000
0100
0010
,
0000
0100
0100
0010
1000
0000
0100
0010
,
0001
0000
0100
0000
0010
0000
1000
0100
,
1001
0000
0100
0000
0010
0100
0010
0000
,
1001
0000
0000
0000
0000
0000
0100
0000
0000
0010
0000
0000
1000
0000
0000
0000
0001
0000
0000
0000
0000
0000
0000
0000
,
0100
0000
0000
0010
0000
0000
1000
0000
0000
0100
0000
0000
0010
0000
0000
0000
0100
0000
0000
0000
0000
0000
0000
0000
,
0100
0010
1000
0100
0010
1000
0100
1000
,
0110
0000
0000
0000
0100
0000
0000
0000
0010
0000
0100
0000
0020
0000
0000
0030
,
0000
0000
0000
0100
0000
0000
0010
0000
0000
0001
0000
0000
0100
0000
0000
0000
0020
0000
0000
0000
0030
0000
0000
0000
,
0100
0000
0000
0010
0000
0000
1000
0000
0000
0100
0000
0000
0010
0000
0000
0000
0200
0000
0000
0000
0300
0000
0000
0000
,
1000
0100
0010
0001
0100
1000
0101
0000
,
0010
0000
1000
0010
0100
1000
0010
0001
1000
0000
0100
0000
0020
0000
0030
0000
,
1000
0000
0000
0100
0000
0000
0010
0000
0000
0001
0000
0000
0010
0000
0000
0000
2000
0000
0000
0000
3000
0000
0000
0000
,
0100
0000
0000
0010
0000
0000
0100
0000
0000
0100
0000
0000
0010
0000
0000
0000
0020
0000
0000
0000
0030
0000
0000
0000
,
0100
0000
0000
0010
0000
0000
1000
0000
0000
0001
0000
0000
0200
0000
0000
0300
0000
0000
0020
0000
0000
0000
0030
0000
,
2000
0000
3000
0000
0020
0000
0030
0000
0000
0100
0000
0000
2000
0000
0000
0000
0000
0000
3010
0000
0000
0000
0000
0000
,
1000
0000
0000
0100
0000
0000
0100
0000
0000
1000
0000
0000
0100
0000
0000
0000
0020
0000
0000
0000
0030
0000
0000
0000
,
0100
0000
0000
0010
0000
0000
1000
0000
0000
0100
0000
0000
0010
0000
0000
0000
0200
0000
0000
0000
0300
0000
0000
0000
,
0001
1000
0100
0010
1000
0000
0100
0000
,
0010
0100
0010
1000
0100
0001
0100
0000
,
2002
0000
0000
0000
3003
0000
0000
0000
0100
0000
0000
1000
0000
0000
0010
0000
,
0200
0000
0000
0000
0300
0000
1000
0000
0000
0000
0000
0000
0100
0000
0000
0010
0000
0000
1000
0000
0000
0000
0000
0000
,
1001
0000
0000
0000
0000
0000
0100
0000
0000
0010
0000
0000
0100
0000
0000
0000
0020
0000
0030
0000
0000
1000
0000
0000
,
0002
0003
0100
1000
0020
0030
1000
0000
,
2002
0000
3003
0000
0100
0000
0010
0000
0100
0000
0000
1000
0000
0000
0010
0000
,
2000
0000
3000
0010
0001
1000
0001
0100
,
2002
0000
3003
0000
0200
0000
0300
0000
0010
1000
0100
0001
0010
0100
1000
0010
,
1001
0000
0000
1010
0000
0000
0110
0000
2020
0000
3030
0000
0100
0000
0020
0000
,
0030
0100
1001
0010
0100
0010
0100
1000
,
0020
0000
0030
0000
0100
0000
2000
0000
3010
0001
0100
1000
0010
0000
0001
0000
,
2000
0000
3000
0000
0010
0000
0002
0000
0103
1000
0010
0100
0010
0000
0100
0000
,
0020
0000
0000
0030
0100
0000
0010
0000
1000
0001
0100
1000
0010
0000
1000
0000
,
0002
0000
0100
0003
1000
0000
0100
0000
0010
0000
1000
0000
0100
0000
0010
0000
,
1001
0000
0000
0100
0000
0000
0010
0000
1000
0000
0000
0000
0100
0000
0010
0000
,
1000
0000
1001
0000
0100
0001
1000
0100
,
1010
0000
0000
0101
0000
0000
1001
0000
0100
0000
0002
0003
0100
0000
0020
0000
,
0030
1001
0010
0100
1000
0010
0100
0010
,
1000
0000
0000
0000
0010
0000
0002
0000
1003
0010
0100
1000
0101
0000
1000
0000
,
0200
0000
0300
0000
0010
0000
0100
0000
1000
0100
0010
0100
0010
0000
1000
0000
,
0002
0000
0003
0000
1000
0000
0200
0000
0301
1000
0010
0001
0100
0000
0010
0000
,
2000
3100
0010
0001
1000
0100
0010
1000
,
1100
0000
0000
0020
0000
0030
1000
0000
0002
0000
0003
0000
1001
0000
0000
0000
,
0110
0000
0000
0000
0010
0000
0100
0000
1000
0000
0000
1000
0000
0000
0001
0000
,
1001
0000
0100
0010
0220
0330
2002
3003
,
0020
0000
0030
0000
0200
0000
0300
0000
0010
0100
1000
0001
0100
0000
0010
0000
,
0001
0000
1001
0000
0100
0010
1000
0100
,
0000
0010
0100
0010
1000
0100
0010
0001
,
1001
0000
0100
0010
1000
0100
1000
2000
,
3000
0010
0100
0001
1000
0010
0100
0010
,
0100
0000
0010
0000
1000
1000
0100
0010
,
0000
0010
0100
0010
0001
1000
0010
0100
,
1000
0000
0100
0000
0010
0100
1000
0001
,
1001
0000
0100
0000
0010
0100
2002
0000
,
0000
3003
0000
0000
;
