#VERSION:0.83;
#TITLE:피아노 협주곡 1번;
#SUBTITLE:;
#ARTIST:Tchaikovsky & WavFactory;
#TITLETRANSLIT:Piano Concerto No.1;
#SUBTITLETRANSLIT:;
#ARTISTTRANSLIT:;
#GENRE:Classical Remix;
#CREDIT:;
#MUSIC:Piano Concerto No.1.ogg;
#BANNER:Piano Concerto No.1.png;
#BACKGROUND:Piano Concerto No.1-bg.png;
#JACKET:Piano Concerto No.1-jacket.png;
#CDTITLE:Wrland.png;
#SAMPLESTART:16.924;
#SAMPLELENGTH:12.000;
#SELECTABLE:YES;
#OFFSET:-0.001;
#BPMS:0.000=156.000;
#STOPS:;
#DISPLAYBPM:156.000;
#BGCHANGES:;
#FGCHANGES:;

//--------------- dance-single - ----------------
#NOTEDATA:;
#STEPSTYPE:dance-single;
#DESCRIPTION:;
#DIFFICULTY:Beginner;
#METER:1;
#RADARVALUES:0,0,0,0,0;
#NOTES:
0000
0000
0000
0000
,
0000
0000
0000
0000
,
0000
0000
0000
0000
,
0000
0000
0000
0000
,
0000
0000
0000
0000
,
0000
0000
0000
0000
,
0000
0000
0000
0000
,
0000
0000
1000
0000
,
0000
0000
0000
0000
,
0000
0100
0000
0000
,
0000
0000
0000
0000
,
0110
0000
0000
0000
,
1000
0000
0000
0000
,
0001
0000
0000
0000
,
0100
0000
0000
0000
,
1000
0000
0000
0000
,
0010
0000
0000
0000
,
0100
0000
0000
0000
,
0110
0000
0000
0000
,
0001
0000
0000
0000
,
1000
0000
0000
0000
,
0100
0000
0000
0000
,
0110
0000
0000
0000
,
0010
0000
0000
0000
,
1000
0000
0000
0000
,
0100
0000
0000
0000
,
0001
0000
0000
0000
,
1000
0000
0000
0000
,
0100
0000
0000
0000
,
0010
0000
0000
0000
,
0100
0000
0000
0000
,
0010
0000
0000
0000
,
0100
0000
0000
0000
,
0010
0000
0000
0000
,
0001
0000
0000
0000
,
1000
0000
0000
0000
,
0110
0000
0000
0000
,
0010
0000
0000
0000
,
1000
0000
0000
0000
,
0000
0000
0000
0000
,
0000
0000
0000
0000
,
0000
0000
0000
0000
,
1000
0000
0000
0000
,
0010
0000
0000
0000
,
0100
0000
0000
0000
,
0010
0000
0000
0000
,
2002
0000
3003
0000
,
0110
0000
0000
0000
,
1000
0000
0000
0000
,
0100
0000
0000
0000
,
0010
0000
0000
0000
,
0100
0000
0000
0000
,
0010
0000
0000
0000
,
0001
0000
0000
0000
,
1000
0000
0000
0000
,
0001
0000
0000
0000
,
0100
0000
0000
0000
,
0010
0000
0000
0000
,
0100
0000
0000
0000
,
0010
0000
0000
0000
,
1000
0000
0000
0100
,
0000
0000
0010
0000
,
0000
0000
0100
0000
,
0000
0000
0010
0000
,
0000
0000
0100
0000
,
0000
0000
0010
0000
,
0000
0001
0000
0000
,
1000
0000
0000
0000
,
0110
0000
0000
0000
,
0001
0000
0000
0000
,
1000
0000
0000
0000
,
0100
0000
0000
0000
,
0010
0000
0000
0000
,
0110
0000
0000
0000
,
1001
0000
0110
0000
,
2002
0000
0000
0000
,
3003
0000
0000
0000
;

//--------------- dance-single - ----------------
#NOTEDATA:;
#STEPSTYPE:dance-single;
#DESCRIPTION:;
#DIFFICULTY:Easy;
#METER:3;
#RADARVALUES:0,0,0,0,0;
#NOTES:
0000
0000
0000
0000
,
0000
0000
0000
0000
,
0000
0000
0000
0000
,
0000
0000
0000
0000
,
0000
0000
0000
0000
,
0000
0000
0000
0000
,
0000
0000
0000
0000
,
0000
0000
1000
0000
,
0100
0000
0010
0000
,
0000
0100
0000
0010
,
0000
1000
0000
0000
,
1001
0000
0100
0000
,
0010
0000
0100
0000
,
0010
0000
0100
0000
,
0010
0000
1000
0000
,
0100
0000
0010
0000
,
0100
0000
0010
0000
,
2002
0000
0000
0000
0000
3003
0000
0000
,
0100
0000
0010
0000
,
0100
0000
0010
0000
,
1000
0000
0100
0000
,
0010
0000
0100
0000
,
0010
0000
0000
0000
,
0110
0000
1100
0000
,
0100
0000
0011
0000
,
0100
0000
0110
0000
,
1000
0000
1100
0000
,
0100
0000
0101
0000
,
0010
0000
0110
0000
,
1000
0000
1000
0000
,
0100
0000
0100
0000
,
0010
0000
0010
0000
,
0100
0000
0010
0000
,
0100
0000
0010
0000
,
1000
0000
0000
0000
0100
0000
0000
1000
,
0000
0000
0000
0000
,
0001
0000
0000
0000
,
0000
0100
0000
0000
,
0010
0000
0000
0000
,
0000
1000
0000
0000
0000
0000
0000
0000
,
0001
0000
0000
0000
,
0100
0000
0000
0000
,
0110
0000
0000
0000
,
0001
0000
0000
0000
,
1000
0000
0000
0000
,
0010
0000
0000
0000
,
0000
0000
0000
0000
,
1001
0000
0000
0000
,
0100
0000
0000
0000
,
0010
0000
0000
0000
,
1000
0000
0000
0000
,
0010
0000
0000
0000
,
0100
0000
0000
0000
,
0010
0000
0000
0000
,
0100
0000
0000
0000
,
0001
0000
0000
0000
,
1000
0000
0000
0000
,
0100
0000
0000
0000
,
0110
0000
0001
0000
,
1000
0000
0010
0000
,
0100
0000
1000
0000
,
0110
0000
0001
0000
,
1000
0000
0100
0000
,
0010
0000
0100
0000
,
0010
0000
1000
0000
,
0001
0000
0100
0000
,
0010
0000
0100
0000
,
0010
0000
0100
0000
,
0010
0000
0100
0000
,
1000
0000
0001
0000
,
0010
0000
0100
0000
,
0010
0000
0100
0000
,
0110
0000
0000
0000
,
1001
0000
0000
0000
,
0110
0000
1001
0000
,
2002
0000
0000
0000
,
3003
0000
0000
0000
;

//--------------- dance-single - ----------------
#NOTEDATA:;
#STEPSTYPE:dance-single;
#DESCRIPTION:;
#DIFFICULTY:Medium;
#METER:7;
#RADARVALUES:0,0,0,0,0;
#NOTES:
0000
0000
0000
0000
,
0000
0000
0000
0000
,
0000
0000
0000
0000
,
0000
0000
0000
0000
,
1000
0000
0100
0010
0000
0100
0010
0100
,
1000
0100
0010
0100
0010
0000
0100
0000
,
0100
1000
0000
0100
0010
0000
0100
0010
,
0100
0010
0001
0000
1000
0000
0100
0010
,
0100
0000
0000
0100
0010
0000
1000
0020
,
0000
0030
0100
0010
0100
0000
1000
0100
,
0000
0010
0100
0000
0010
0002
0000
0003
,
1001
0100
0010
0000
0100
0010
0000
0100
,
1000
0000
0100
0100
0000
0010
0010
0000
,
0100
0010
0000
0100
1000
0000
0100
0010
,
0000
0001
0100
0000
0100
0100
0000
1000
,
0100
0000
0010
0010
0000
0100
0010
0000
,
0100
1000
0000
0100
0010
0000
0100
0010
,
0002
0000
0000
0000
0000
0000
0000
0003
,
0100
0010
0100
0000
1000
0100
0000
0010
,
0100
0000
1000
0100
0000
0010
0010
0000
,
0100
0010
0000
0001
0001
0000
1001
0010
,
1000
0100
0010
0100
0010
1000
0100
0010
,
0001
0100
0010
0100
0010
0100
0010
1000
,
0100
0010
1000
0000
0100
0010
0000
0100
,
1000
0000
0100
0010
0000
0100
0010
0000
,
0001
1000
0000
0100
0010
0000
0100
0010
,
0100
1000
0100
0000
0100
0010
0000
0100
,
0100
0000
0001
1001
0000
0100
0010
0000
,
0100
0100
0000
1000
0100
0000
0010
0001
,
0100
0010
1000
0000
0100
0010
0100
0010
,
0002
0003
1000
0001
0100
0010
0200
0300
,
1000
0100
0010
1000
0200
0300
0010
0100
,
0010
1000
0100
0000
0100
0010
1000
0100
,
0020
0030
0001
1000
0100
0010
0200
0300
,
0010
0100
0001
1000
0001
1000
0001
0100
,
0010
0000
0010
0000
1000
0000
0001
0100
,
0010
0000
0100
0000
0010
0100
0000
0010
,
1000
0000
0100
0010
1000
0000
0100
0010
,
2002
0000
3003
0100
0000
0000
2020
0000
,
3030
0100
0000
0000
0101
0000
1001
0000
,
0220
0000
0330
0000
0000
0000
1001
0200
0000
0000
0300
0000
1000
0020
0000
0000
,
0030
0000
0100
0002
0000
0000
0000
0003
1000
0200
0000
0300
1001
0000
0000
0000
,
0110
1000
0100
0010
,
0100
0010
0001
1000
,
0001
0100
0010
0100
,
0020
0000
0000
0030
,
0200
0300
0110
0010
,
0200
0000
0300
0000
0010
0000
0100
1000
,
0010
0000
0001
0000
1000
0000
0100
0001
,
0010
0000
0100
1000
0010
0000
0001
0000
,
1001
0010
0100
0010
,
0200
0000
0000
0300
1000
0000
0100
0001
,
0010
0100
1000
0000
0100
0001
0010
0000
,
0100
0000
0100
0000
0020
0000
0000
0030
,
1000
0010
0100
0000
0100
0010
1000
0000
,
0100
0010
0100
0000
0010
0100
2000
3000
,
0001
0100
0010
0100
,
1000
0100
0010
0100
,
0110
0000
1000
0010
0100
0000
0000
0100
,
1000
0000
0100
0010
0000
0100
0010
0000
,
0100
1000
0000
0100
0010
0000
0100
0010
,
0100
0000
1000
0100
0010
0100
0000
0010
,
0100
0000
0010
1000
0000
0100
0010
0000
,
0100
0010
0000
0100
0001
0000
0100
0010
,
0100
0010
1000
0000
0001
0000
0100
0000
,
0010
0000
0100
0000
0010
1000
0100
0000
,
1000
0000
0100
0000
0010
0000
0100
0001
,
0010
0001
0100
0010
1000
0001
0100
1000
,
0010
0001
0100
1000
0010
0001
0100
0100
,
0010
0100
1000
0100
0010
0001
0100
1000
,
0010
0100
1000
0100
0010
0100
0010
0100
,
0010
0100
0001
0010
0100
1000
0100
0010
,
1001
0000
0010
1000
0100
0001
0010
1000
,
0110
0000
0100
1000
0100
0010
0001
0100
,
0110
0000
1001
0110
,
0220
0000
0000
0000
,
0330
0000
0000
0000
;

//--------------- dance-single - ----------------
#NOTEDATA:;
#STEPSTYPE:dance-single;
#DESCRIPTION:;
#DIFFICULTY:Hard;
#METER:14;
#RADARVALUES:0,0,0,0,0;
#NOTES:
0000
0000
0000
0000
,
0000
0000
0000
0000
,
0000
0000
0000
0000
,
0000
0000
0000
0000
,
1001
0000
0100
0010
0000
0100
0010
0000
,
1000
0000
0100
0000
0000
0000
0220
0000
0000
0330
0000
0000
0100
0000
0000
0000
,
0010
1000
0000
0100
0010
0000
0100
0010
,
0000
0000
0100
0000
0010
0000
0100
0000
1000
0000
0010
0000
0100
0000
1000
0100
,
0010
0000
0100
0000
0001
0000
0010
0100
1000
0000
0100
0000
0010
0000
0001
0000
,
2000
0000
3000
0000
0100
0000
0010
0000
0100
0000
0000
0010
0100
0000
1000
0000
,
0000
0000
0100
0010
0100
0000
1000
0000
0001
0000
0010
0000
0100
0000
1001
0000
,
0100
0000
0010
0000
1000
0000
1000
0100
0010
0000
0200
0000
0300
0000
0100
0010
,
0002
0000
0000
0003
1000
0000
0200
0000
0300
0000
0100
0010
0200
0300
0000
0100
,
0010
0000
1000
0000
0000
0000
0100
0000
0010
0000
0000
1000
0100
0000
0020
0000
,
0000
0030
0100
0000
0010
0000
0001
1000
0001
0000
0200
0000
0300
0000
0100
0010
,
0200
0000
0000
0300
0001
0000
2000
0000
3000
0000
0100
0000
0010
0000
0000
0100
,
0010
0000
0200
0000
0000
0300
0010
0000
2000
0000
3000
0010
0100
0000
0010
0000
,
0100
0001
0010
1000
0010
0001
0100
1000
0010
0001
0010
0100
0010
1000
0010
0001
,
0010
0000
1000
0000
0010
0000
0100
0010
1000
0000
0020
0000
0030
0000
0100
0000
,
0010
0000
0000
0100
0010
0000
2000
0000
3000
0000
0100
0000
0001
0000
0000
0001
,
1000
0000
0200
0000
0300
0000
0001
0000
0010
0000
0000
0100
0001
0000
0010
0000
,
0010
0100
0010
0100
1000
0100
0010
0100
,
1010
0101
1010
0101
1100
0100
0010
0101
,
1010
0000
0100
0000
1000
0000
0010
0100
0010
0000
0020
0000
0030
0000
0100
0000
,
0020
0000
0030
0100
1000
0000
0200
0000
0300
0000
0100
0000
0010
0000
0000
0100
,
0010
0000
0200
0000
0300
0000
1000
0000
0100
0000
0000
0100
0010
0000
0100
0000
,
1001
0000
0100
0000
0010
0000
0000
0100
0010
0000
0200
0000
0300
0000
1000
0000
,
0100
0000
0000
0010
0100
0000
0020
0000
0030
0000
1000
0000
0010
0000
0000
0100
,
0010
0000
0200
0000
0300
0000
0010
0000
1000
0000
0000
0010
0100
0000
0010
0000
,
0110
0000
1000
0000
0200
0000
0000
0300
0010
0000
0100
0000
0010
0000
0100
0000
,
2000
0000
0000
3000
0100
0000
0010
0000
0100
0000
0010
0000
0200
0000
0300
0000
,
0010
0000
1000
0000
0100
0000
0010
0000
0200
0000
0000
0300
0010
0000
0100
0000
,
0010
0000
0100
0000
0002
0000
0000
0003
0010
0000
0100
0000
0001
0000
1000
0000
,
0200
0000
0000
0300
0001
0000
0100
0000
0010
0000
0100
0000
2000
0000
0000
3000
,
0100
0010
0100
0010
0001
1000
0001
0100
,
0001
0000
0010
0000
0100
1000
0001
0100
0010
1000
0010
0100
0010
0000
0001
0000
,
1000
0001
0010
0100
0010
1000
0100
0010
0100
0000
0010
0000
1000
0001
0100
0010
,
0100
0010
1000
0100
0001
0000
0100
0000
0010
0001
0100
1000
0010
0100
0010
0100
,
0010
0100
0010
1000
0100
0010
1001
0010
0100
0010
0100
1000
0011
1000
0100
0010
,
0100
0010
1001
0100
0010
0100
0010
0001
0110
0100
1000
0100
0010
0100
0001
0010
,
1100
0010
0100
0010
0100
1000
0100
0010
0100
0010
0001
0100
0010
0100
0010
0100
,
1010
0100
0010
0001
0100
0010
0100
1000
0100
0010
0001
0100
0010
0100
1000
0100
,
0010
1000
0100
0010
0100
0010
0001
0100
0010
0100
0001
0100
1000
0100
0010
0100
,
0010
0001
0100
1000
0100
0010
0100
0010
0001
1000
0100
0010
0100
0010
0100
0010
,
0001
1000
0100
0010
0100
0010
0100
0010
1000
0001
0100
0010
0100
0001
1000
0010
,
0100
0010
0100
0001
1000
0000
0100
0000
0010
0001
0100
0000
1000
0010
0001
0000
,
0220
0330
2002
3003
0220
0330
2002
3003
,
0220
0000
0000
0000
0000
0330
0000
0000
0100
0000
0000
0000
0010
0000
1000
0000
,
0200
0000
0000
0300
0010
0000
0000
0000
0200
0000
0000
0300
0010
0000
1000
0000
,
0200
0000
0000
0300
0010
0000
0100
0000
0020
0000
0000
0030
1000
0000
0100
0000
,
0020
0000
0000
0030
0001
0000
0100
0000
0010
0000
0100
0000
1000
0000
0100
0000
,
0020
0000
0000
0030
0100
0000
0000
0000
0020
0000
0000
0030
0100
0000
0010
0000
,
0010
1000
0002
0003
0100
1000
0010
0000
,
0110
0000
0000
0000
0110
0000
0000
0000
2002
0000
0000
3003
0100
0000
0010
0000
,
0100
0000
0010
0000
2000
0000
0000
3000
0100
0000
0010
0000
0200
0000
0000
0300
,
0010
0000
0100
0000
0020
0000
0000
0030
1000
0000
0100
0000
0010
0000
0100
0000
,
0010
1000
0100
0001
0010
0100
1000
0100
0010
0001
0010
0100
0010
0001
0010
0100
,
0001
0100
1000
0100
0001
0010
0100
0001
0010
1000
0010
0100
0010
0001
1000
0100
,
0010
0000
0001
0000
0010
0000
1000
0010
0100
0000
0020
0000
0030
0000
0010
0000
,
2000
0000
3000
0010
1000
0000
0200
0000
0000
0300
0010
0000
0200
0000
0300
0010
,
1000
0000
0100
0000
0001
0000
1000
0000
0100
0000
0010
0100
0010
0000
0101
0000
,
1010
0000
0001
0000
0100
0000
1000
0010
0100
0000
0002
0000
0000
0003
0100
0000
,
0010
0000
1000
0010
0100
0000
0020
0000
0000
0030
0100
0000
0020
0000
0030
1000
,
0100
0000
0200
0000
0000
0300
0010
0000
0100
0000
0000
0010
1000
0000
0020
0000
,
0031
1000
0001
1000
0001
1000
0001
1000
0001
0100
0010
0100
0010
0100
0010
0100
,
0010
0001
0010
0001
0010
0001
0010
0001
0110
0001
0010
0100
1000
0100
1000
0100
,
1000
0010
0100
0010
0100
0010
0100
0010
0100
0010
1000
0001
0100
0010
0100
1000
,
0100
0001
0010
0001
0100
1000
0001
0100
0010
0100
0010
0001
1000
0100
0010
0100
,
0010
0001
0100
0010
0100
1000
0100
0010
0100
0010
0100
0010
0001
0100
1000
0100
,
0010
0100
0010
0100
1000
0100
0010
0100
0001
0010
0001
0100
0010
0100
1000
0100
,
0010
0100
0001
0100
1000
0100
0010
0100
0001
0010
0100
0010
0100
1000
0100
0010
,
0001
0100
0010
1000
0100
0010
0100
0001
1000
0100
0010
0100
0010
0100
1000
0100
,
1001
0000
0000
0000
0010
1000
0001
0010
0100
0001
0010
0100
0010
1000
0001
0100
,
0110
0000
1000
0010
0100
0010
0100
0001
0100
0010
0100
1000
0100
0001
0010
0100
,
2002
0000
0000
3003
0010
0000
1001
0000
0220
0000
0330
0000
0220
0000
0000
0330
,
2002
0000
0000
0000
,
0000
0000
3003
0000
;
