#TITLE:Pepas;
#SUBTITLE:;
#ARTIST:Farruko;
#TITLETRANSLIT:;
#SUBTITLETRANSLIT:;
#ARTISTTRANSLIT:;
#GENRE:Latin;
#CREDIT:;
#MUSIC:Pepas.ogg;
#BANNER:Pepas.png;
#BACKGROUND:Pepas-bg.png;
#JACKET:Pepas-jacket.png;
#CDTITLE:Wrland.png;
#SAMPLESTART:59.763;
#SAMPLELENGTH:12.000;
#SELECTABLE:YES;
#OFFSET:-0.686;
#BPMS:0.000=130.000;
#STOPS:;
#BGCHANGES:0.000=Pepas.avi=1.000=0=0=1=====,
99999=-nosongbg-=1.000=0=0=0 // don't automatically add -songbackground-
;
#FGCHANGES:;

//--------------- dance-single - ----------------
#NOTES:
     dance-single:
     :
     Beginner:
     1:
     0,0,0,0,0:
0000
0000
0000
0000
,
0000
0000
0000
0000
,
0000
0000
0000
0000
,
0000
0000
0000
0000
,
0000
0000
0000
0000
,
0000
0000
0000
0000
,
0000
0000
0000
0000
,
0000
0000
0000
0000
,
1000
0000
0000
0000
,
0000
0000
0000
0000
,
0001
0000
0000
0000
,
0000
0000
0000
0000
,
0100
0000
0000
0000
,
0000
0000
0000
0000
,
0010
0000
0000
0000
,
0000
0000
0000
0000
,
1000
0000
0000
0000
,
0000
0000
0000
0000
,
0001
0000
0000
0000
,
0000
0000
0000
0000
,
0100
0000
0000
0000
,
0000
0000
0000
0000
,
0010
0000
0000
0000
,
0000
0000
0000
0000
,
1000
0000
0000
0000
,
0000
0000
0000
0000
,
0001
0000
0000
0000
,
0000
0000
0000
0000
,
0100
0000
0000
0000
,
0000
0000
0000
0000
,
0000
0000
0000
0000
,
0000
0000
0000
0000
,
0010
0000
0000
0000
,
0000
0000
0000
0000
,
1000
0000
0000
0000
,
0000
0000
0000
0000
,
0001
0000
0000
0000
,
0000
0000
0000
0000
,
0100
0000
0000
0000
,
0000
0000
0000
0000
,
0010
0000
0000
0000
,
0000
0000
0000
0000
,
1000
0000
0000
0000
,
0000
0000
0000
0000
,
0001
0000
0000
0000
,
0000
0000
0000
0000
,
0100
0000
0000
0000
,
0000
0000
0000
0000
,
0010
0000
0000
0000
,
0000
0000
0000
0000
,
0001
0000
0000
0000
,
0000
0000
0000
0000
,
1001
0000
0000
0000
,
0000
0000
0000
0000
,
0100
0000
0000
0000
,
0000
0000
0000
0000
,
0010
0000
0000
0000
,
0000
0000
0000
0000
,
1000
0000
0000
0000
;

//--------------- dance-single - ----------------
#NOTES:
     dance-single:
     :
     Easy:
     3:
     0,0,0,0,0:
0000
0000
0000
0000
,
0000
0000
0000
0000
,
0000
0000
0000
0000
,
0000
0000
0000
0000
,
0000
0000
0000
0000
,
0000
0000
0000
0000
,
0000
0000
0000
0000
,
0000
0000
0000
0000
,
1000
0000
0000
0000
,
0010
0000
0000
0000
,
0100
0000
0000
0000
,
0001
0000
0000
0000
,
1000
0000
0000
0000
,
1000
0000
0000
0000
,
0010
0000
0000
0000
,
0100
0000
0000
0000
,
0001
0000
0000
0000
,
1000
0000
0000
0000
,
0100
0000
0000
0000
,
0010
0000
0000
0000
,
0110
0000
0000
0000
,
1001
0000
0000
0000
,
1100
0000
0000
0000
,
0101
0000
0000
0000
,
1100
0000
0000
0000
,
0110
0000
0000
0000
,
0101
0000
0000
0000
,
0110
0000
0000
0000
,
1000
0000
0000
0000
,
0100
0000
0000
0000
,
0001
0000
0000
0000
,
0100
0000
0000
0000
,
1000
0000
0000
0000
,
0100
0000
0000
0000
,
0010
0000
0000
0000
,
0100
0000
0000
0000
,
0010
0000
0000
0000
,
0001
0000
0000
0000
,
1000
0000
0000
0000
,
0100
0000
0000
0000
,
0010
0000
0000
0000
,
0100
0000
0000
0000
,
0001
0000
0000
0000
,
1000
0000
0000
0000
,
0100
0000
0000
0000
,
0001
0000
0000
0000
,
1000
0000
0000
0000
,
0100
0000
0000
0000
,
0010
0000
0000
0000
,
1000
0000
0000
0000
,
0001
0000
0000
0000
,
1000
0000
0000
0000
,
0100
0000
0000
0000
,
0010
0000
0000
0000
,
0100
0000
0000
0000
,
1000
0000
0000
0000
,
1000
0000
0000
0000
,
0001
0000
0000
0000
,
0100
0000
0000
0000
,
0010
0000
0000
0000
;

//--------------- dance-single - ----------------
#NOTES:
     dance-single:
     :
     Medium:
     5:
     0,0,0,0,0:
0000
0000
0000
0000
,
0000
0000
0000
0000
,
0000
0000
0000
0000
,
0000
0000
0000
0000
,
0000
0000
0000
0000
,
0000
0000
0000
0000
,
0000
0000
0000
0000
,
0000
0000
0000
0000
,
1000
0000
0001
0000
,
1000
0000
0001
0000
,
0100
0000
0010
0000
,
0100
0000
0010
0000
,
0110
0000
1000
0000
,
0100
0000
0010
0100
,
0010
0000
0001
0000
,
1000
0000
0100
0010
,
0100
0000
1000
0000
,
0001
0000
0100
0010
,
0110
0000
0001
1000
,
0001
0000
0110
0000
,
1000
0100
0010
0100
,
0010
0010
0100
1000
,
0100
0001
0100
0010
,
0100
0000
0020
0000
0000
0030
1000
0000
,
0100
0010
0100
0010
,
0001
1000
0001
1000
,
0001
0100
0010
0100
,
0010
0200
0000
0300
,
1000
0000
0100
0000
0010
1000
0100
0001
,
0010
0000
0100
0000
0010
0100
0010
1000
,
0100
0000
0010
0000
0100
0010
0100
0001
,
1000
0100
0010
0100
,
0110
0000
1000
0000
0100
0010
0100
0010
,
0001
0000
1000
0000
0100
0010
0100
1000
,
0100
0000
0010
0000
0001
1000
0100
0010
,
0100
0010
0100
0010
,
0001
0000
1000
0000
0001
1000
0001
0100
,
0010
0000
0100
0000
0010
0100
1000
0100
,
0010
0000
0100
0000
0001
1000
0001
0100
,
0010
0100
0010
0100
,
0110
0000
0001
0000
1000
0001
1000
0100
,
0010
0000
0100
0000
0010
1000
0100
0010
,
0100
0000
0010
0000
0100
0010
1000
0100
,
0010
0100
0010
0100
,
0001
0000
1000
0000
0001
1000
0100
0010
,
0100
0000
0010
0000
0100
0010
0100
1000
,
0100
0000
0010
0000
1000
0100
0010
0001
,
1000
0100
0100
0010
,
0100
0000
0010
0000
1000
0100
0010
0001
,
1000
0000
0100
0000
0010
0100
0010
0100
,
1000
0000
0100
0000
0001
1000
0100
0010
,
0100
0000
0010
1000
0000
0000
0020
0000
,
0000
0030
2000
0000
0000
3000
0001
0000
,
1000
0001
0100
0010
,
0020
0000
0000
0030
0200
0000
0000
0300
,
1000
0100
0010
0100
,
0002
0000
0000
0003
0200
0000
0000
0300
,
1000
0100
0010
0100
,
0020
0000
0000
0030
0002
0000
0000
0003
,
1000
0001
0100
0110
;

//--------------- dance-single - ----------------
#NOTES:
     dance-single:
     :
     Hard:
     10:
     0,0,0,0,0:
0000
0000
0000
0000
,
0000
0000
0000
0000
,
0000
0000
0000
0000
,
0000
0000
0000
0000
,
1000
0000
0001
0000
0100
0010
0100
0010
,
1000
0000
0100
0000
0010
0100
0010
0001
,
1000
0000
0100
0000
0010
0100
0010
1000
,
0100
0000
0010
0000
0100
0000
0010
0100
,
0010
0000
1000
0000
0001
1000
0001
1000
,
0100
0000
1000
0000
0100
0010
0001
1000
,
0100
0000
0010
0000
0100
0010
0001
1000
,
0100
0000
0010
0000
0100
0000
0010
1000
,
0002
1000
0100
1000
0100
1003
0100
0010
,
0200
0001
0010
0001
0010
0301
1000
0100
,
0020
0100
0001
0100
0001
0130
0001
0100
,
0020
0100
1000
0100
0100
0001
0100
1030
,
0100
0010
0100
0010
1000
0100
0010
0001
,
0100
0010
1000
0100
0010
0001
0100
0010
,
0100
0000
1000
0000
0100
0000
0001
0000
0100
1000
0010
1000
0100
1000
0100
0010
,
2002
0000
3003
0101
0010
0100
1001
0000
,
0220
0330
0200
0300
1000
0100
0010
0100
,
0020
0030
0002
0003
1000
0001
0100
0010
,
0200
0300
0020
0030
0100
0010
1000
0100
,
0020
0030
0200
0300
0001
1000
0001
0100
,
0020
0030
0200
0300
1000
0100
1000
0100
,
0002
0003
0200
0300
1000
0100
0010
0001
,
0200
0300
0020
0030
1000
0100
1000
0100
,
0200
0300
0020
0030
0101
0000
1010
0000
,
0001
0000
0100
0000
0010
0100
0010
1000
,
0100
0000
0010
0000
0100
0010
0100
0010
,
0100
0000
0110
0000
1000
0001
0100
0010
,
1001
0100
0001
0010
0100
0010
1000
0100
0001
0110
0000
0000
,
1001
0000
1000
0000
0001
1000
0100
0010
,
0100
0000
0010
0000
0100
0010
1000
0100
,
0010
0000
0010
0000
0100
0010
0100
1000
,
0100
0000
0010
0000
0100
0010
0001
0000
,
1001
0000
0000
0100
0000
0000
0100
0010
1000
0100
0010
1000
,
0001
0000
0000
0110
0000
0000
1000
0100
0010
1000
0100
0010
,
0100
0000
0000
0010
0000
0000
0100
0010
1000
0001
0100
0010
,
0100
0000
0000
0000
0000
0000
0010
0000
0000
1000
0000
0000
0010
0000
0000
0100
0000
0000
0010
0000
0100
0000
0010
0000
,
1000
0000
0000
0100
0000
0000
0010
0100
0010
0001
1000
0100
,
0010
0000
0000
0001
0000
0000
1000
0100
1000
0100
1000
0100
,
0001
0000
0000
0100
0000
0000
0010
0100
0010
0100
0001
0100
,
0010
0000
0000
0000
1000
0000
0000
0000
0110
0000
0100
0010
0001
0000
1000
0000
,
0100
0000
0010
0000
1000
0100
0010
0001
,
0100
0000
0010
0000
0100
0010
0100
0010
,
1001
0000
0100
0000
0010
1000
0100
1000
,
1100
0000
0100
0010
0100
0010
0100
0000
,
0100
0000
0010
0000
0001
1000
0001
1000
,
0001
0000
0110
0000
1000
0100
1000
0100
,
1100
0000
0100
0000
0100
0010
0001
0100
,
0110
0000
1001
0100
0000
0010
0100
0000
,
0100
0000
0010
0000
1000
0100
0010
0100
,
0010
0000
0100
0000
0010
1000
0100
0010
,
0100
0000
0001
0000
1000
0001
0100
0010
,
0100
0000
0010
0100
0010
1000
0100
0010
,
0001
0000
0100
0000
0010
0100
0010
1000
,
0100
0000
0010
0000
0100
0010
0100
1000
,
0100
0000
0001
0000
0100
0010
0100
0010
,
0100
0000
0010
0100
0000
0000
0001
1000
;

//--------------- dance-double - ----------------
#NOTES:
     dance-double:
     :
     Easy:
     3:
     0,0,0,0,0:
00000000
00000000
00000000
00000000
,
00000000
00000000
00000000
00000000
,
00000000
00000000
00000000
00000000
,
00000000
00000000
00000000
00000000
,
00000000
00000000
00000000
00000000
,
00000000
00000000
00000000
00000000
,
00000000
00000000
00000000
00000000
,
00000000
00000000
00000000
00000000
,
10000000
00000000
00000000
00000000
,
01000000
00000000
00000000
00000000
,
00100000
00000000
00000000
00000000
,
01000000
00000000
00000000
00000000
,
00100000
00000000
00000000
00000000
,
01000000
00000000
00000000
00000000
,
00100000
00000000
00000000
00000000
,
00010000
00000000
00000000
00000000
,
00001000
00000000
00000000
00000000
,
00000100
00000000
00000000
00000000
,
00000010
00000000
00000000
00000000
,
00000001
00000000
00000000
00000000
,
00000001
00000000
00000000
00000000
,
00001000
00000000
00000000
00000000
,
00000100
00000000
00000000
00000000
,
00000010
00000000
00000000
00000000
,
00000100
00000000
00000000
00000000
,
00000001
00000000
00000000
00000000
,
00000001
00000000
00000000
00000000
,
00000100
00000000
00000000
00000000
,
00000110
00000000
00000000
00000000
,
00001000
00000000
00000000
00000000
,
00000100
00000000
00000000
00000000
,
00000010
00000000
00000000
00000000
,
00000100
00000000
00000000
00000000
,
00001000
00000000
00000000
00000000
,
00010000
00000000
00000000
00000000
,
00100000
00000000
00000000
00000000
,
01000000
00000000
00000000
00000000
,
10000000
00000000
00000000
00000000
,
01000000
00000000
00000000
00000000
,
00100000
00000000
00000000
00000000
,
00001000
00000000
00000000
00000000
,
00000100
00000000
00000000
00000000
,
00001000
00000000
00000000
00000000
,
00000100
00000000
00000000
00000000
,
00100000
00000000
00000000
00000000
,
01100000
00000000
00000000
00000000
,
00100000
00000000
00000000
00000000
,
00010000
00000000
00000000
00000000
,
10000000
00000000
00000000
00000000
,
01000000
00000000
00000000
00000000
,
00010000
00000000
00000000
00000000
,
00001000
00000000
00000000
00000000
,
00000110
00000000
00000000
00000000
,
00000001
00000000
00000000
00000000
,
00000010
00000000
00000000
00000000
,
00000100
00000000
00000000
00000000
,
00000010
00000000
00000000
00000000
,
00000100
00000000
00000000
00000000
,
00000010
00000000
00000000
00000000
,
00001000
00000000
00000000
00000000
;

//--------------- dance-double - ----------------
#NOTES:
     dance-double:
     :
     Medium:
     7:
     0,0,0,0,0:
00000000
00000000
00000000
00000000
,
00000000
00000000
00000000
00000000
,
00000000
00000000
00000000
00000000
,
00000000
00000000
00000000
00000000
,
00000000
00000000
00000000
00000000
,
00000000
00000000
00000000
00000000
,
00000000
00000000
00000000
00000000
,
00000000
00000000
00000000
00000000
,
10000000
00000000
01000000
00000000
,
00100000
00000000
01000000
00000000
,
00100000
00000000
01000000
00000000
,
00010000
00000000
00001000
00000000
,
00000100
00000000
00000010
00000000
,
00000001
00000000
00001000
00000000
,
00000010
00000000
00000100
00000000
,
00000010
00000000
00000100
00000000
,
00000001
00000000
00001000
00000000
,
00000100
00000000
00000010
00000000
,
00000100
00000000
00000010
00000000
,
00001000
00000000
00000100
00000000
,
00020000
00030000
20000000
30000000
,
00200000
00300000
02000000
03000000
,
00200000
00300000
20000000
30000000
,
02000000
03000000
00200000
00300000
,
00020000
00030000
00002000
00003000
,
00000200
00000300
00000020
00000030
,
00000002
00000003
00000200
00000300
,
00002000
00003000
00000200
00000300
,
00000110
00000000
00000100
00000000
00001000
00000010
00000100
00000010
,
00001000
00000000
00010000
00000000
00010000
00100000
01000000
00100000
,
10000000
00000000
01000000
00000000
00100000
01000000
00100000
00010000
,
10000000
01000000
00100000
00010000
,
00001000
00000000
00000100
00000000
00000100
00000001
00000001
00000100
,
00000101
00000000
00001000
00000000
00000010
00001000
00000100
00001000
,
00000100
00000000
00001000
00000000
00010000
00010000
00100000
00100000
,
01000000
00000000
10000000
00000000
01000000
00100000
01000000
00000000
,
00100000
00000000
01000000
00000000
10000000
01000000
00100000
00010000
,
01000000
00000000
00100000
00000000
01000000
00100000
00010000
00100000
,
00001000
00000000
00010000
00000000
00010000
00000010
00001000
00000100
,
00001000
00000000
00000010
00000000
00000010
00000100
00000001
00000000
,
00000100
00000000
00000010
00000000
00000100
00001000
00000100
00000010
,
00000001
00000000
00000100
00000000
00001000
00000100
00000010
00001000
,
00000010
00000000
00000001
00000000
00001000
00000010
00000100
00001000
,
00000100
00000000
00000010
00000000
00001000
00001000
00010000
00000000
,
00100000
00000000
00100000
00000000
00010000
10000000
01000000
01000000
,
00100000
00000000
10000000
00000000
01000000
00010000
00100000
10000000
,
00100000
00000000
01100000
00000000
10000000
00100000
00010000
00100000
,
01000000
00000000
00010000
00000000
00010000
00001000
00001100
00000000
,
00000100
00000000
00000010
00000000
00000010
00000100
00000001
00001000
,
00000001
00000000
00000100
00000000
00000010
00001000
00000010
00000100
,
00000010
00000000
00000100
00000000
00000010
00000100
00000001
00001000
,
00000010
00000000
00000100
00000000
00000010
00000100
00001000
00000000
,
00010000
00100000
01000000
00010000
,
10000000
00100000
01000000
00100000
,
01000000
00100000
00010000
01000000
,
00010000
10000000
00010000
01000000
,
00010000
01000000
00010000
00100000
,
00100000
01000000
00100000
01000000
,
00100000
00010000
00001000
00000100
,
00000010
00000001
00001000
00000110
;

//--------------- dance-double - ----------------
#NOTES:
     dance-double:
     :
     Hard:
     10:
     0,0,0,0,0:
00000000
00000000
00000000
00000000
,
00000000
00000000
00000000
00000000
,
00000000
00000000
00000000
00000000
,
00000000
00000000
00000000
00000000
,
00100000
00000000
01000000
00000000
00100000
10000000
01000000
10000000
,
01000000
00000000
00100000
00000000
00010000
10000000
00100000
01000000
,
00100000
00000000
01000000
00000000
00100000
01000000
00100000
00010000
,
01000000
00100000
00010000
00100000
,
00010000
00000000
00001000
00000000
00000100
00000010
00001000
00000001
,
00000100
00000000
00000010
00000000
00000001
00000100
00000010
00001000
,
00000100
00000000
00000010
00000000
00000001
00000100
00000010
00001000
,
00000001
00000010
00000100
00000010
,
00000100
00000000
00000010
00000000
00000001
00000000
00001000
00000001
,
00000100
00000000
00000010
00000000
00000100
00000000
00000010
00000100
,
00000010
00000000
00000100
00000000
00000010
00000000
00001000
00000100
,
00000010
00000000
00000100
00000000
00000010
00000000
00001000
00000100
,
00000010
00000000
00000010
00000000
00000001
00000000
00000100
00000010
,
00000100
00000000
00001000
00000000
00000100
00000000
00001000
00000100
,
00000010
00000000
00000001
00000000
00000100
00000000
00000010
00000100
,
00001000
00010000
00010000
00100000
,
02000000
03000000
10000000
00000000
01000000
00100000
01000000
00100000
,
00020000
00030000
00001000
00000000
00100000
00010000
01000000
00100000
,
02000000
03000000
10000000
00000000
01000000
00100000
01000000
00100000
,
00020000
00030000
01000000
00000000
01100000
00000000
10010000
00000000
,
00020000
00030000
00001000
00000000
00000100
00000010
00000001
00000100
,
00000002
00000003
00001000
00000000
00000001
00000010
00000001
00000100
,
00000002
00000003
00000100
00000000
00000010
00001000
00000100
00000010
,
00000002
00000003
00000100
00000000
00001001
00000000
00000110
00000000
,
00000100
00000000
00001000
00000000
00010000
00010000
00100000
00100000
,
01000000
00000000
10000000
00000000
01000000
00100000
01000000
00100000
,
00010000
00000000
01000000
00000000
00100000
10000000
01000000
00100000
,
01000000
00100000
01000000
01100000
,
00010000
00000000
01000000
00000000
10000000
01000000
00100000
00010000
,
01000000
00000000
00100000
00000000
01000000
00100000
01000000
00100000
,
00010000
00000000
00100000
00000000
01000000
00100000
00010000
00100000
,
00010000
00000000
01000000
00010000
01000000
10000000
10100000
00000000
,
00100000
00000000
00000000
00010000
00000000
00000000
00001000
00010000
00001000
00010000
00001000
00010000
,
00001100
00000000
00000000
00000010
00000000
00000000
00000010
00000001
00000100
00000010
00001000
00000100
,
00000010
00000000
00000000
00000110
00000000
00000000
00000100
00000010
00001000
00000100
00001000
00000010
,
00000001
00000000
00000000
00000100
00000000
00000000
00000010
00000000
00000000
00000100
00000010
00000100
,
00001001
00000000
00000000
00000100
00000000
00000000
00000100
00000010
00000100
00000001
00000100
00000001
,
00000100
00000000
00000000
00001000
00000000
00000000
00000100
00000010
00000100
00001000
00000100
00001000
,
00000100
00000000
00000000
00000100
00000000
00000000
00000100
00000010
00001000
00000100
00000010
00000100
,
00000010
00000000
00001000
00000000
00000100
00000010
00000100
00001000
,
00011000
00000000
00100000
00000000
01000000
01000000
10000000
01000000
,
00100000
00000000
01000000
00000000
00100000
00010000
01000000
00100000
,
10000000
00000000
01000000
00000000
00100000
10000000
01000000
00010000
,
00100000
00000000
01000000
00000000
00100000
01000000
00100000
10000000
,
01000000
00000000
00100000
00000000
01000000
00100000
00010000
01000000
,
00100000
00000000
10000000
00000000
01000000
00100000
01000000
00100000
,
00010000
00000000
10000000
00000000
01000000
00100000
01000000
00010000
,
01000000
00011000
00000000
00022000
00000000
00033000
00000110
00000000
,
00000100
00000000
00000010
00000000
00000100
00001000
00000100
00000010
,
00001000
00000000
00000100
00000000
00000010
00001000
00000010
00000001
,
00001000
00000000
00000100
00000000
00000100
00000010
00001000
00000100
,
00000010
00000000
00000100
00000000
00000010
00001000
00000100
00000010
,
00000001
00000000
00001000
00000000
00000001
00001000
00000100
00000010
,
00000100
00000000
00000010
00000000
00000100
00000010
00001000
00000100
,
00000010
00000000
00001000
00000000
00000100
00000100
00001000
00001000
,
00010000
00000000
00001000
00010000
00000000
00000000
00001000
00011000
;
