#TITLE:POWER STORM;
#SUBTITLE:;
#ARTIST:KSUKE;
#TITLETRANSLIT:;
#SUBTITLETRANSLIT:;
#ARTISTTRANSLIT:;
#GENRE:EDM;
#CREDIT:;
#MUSIC:POWER STORM.ogg;
#BANNER:POWER STORM.png;
#BACKGROUND:POWER STORM-bg.png;
#JACKET:POWER STORM-jacket.png;
#CDTITLE:Wrland.png;
#SAMPLESTART:44.989;
#SAMPLELENGTH:12.000;
#SELECTABLE:YES;
#OFFSET:-7.489;
#BPMS:0.000=128.000;
#STOPS:;
#BGCHANGES:;
#FGCHANGES:;

//--------------- dance-single - ----------------
#NOTES:
     dance-single:
     :
     Beginner:
     1:
     0,0,0,0,0:
0000
0000
0000
0000
,
0000
0000
0000
0000
,
0000
0000
0000
0000
,
0000
0000
0000
0000
,
1000
0000
0000
0000
,
0000
0000
0000
0000
,
1000
0000
0000
0000
,
0000
0000
0000
0000
,
1000
0000
0000
0000
,
0000
0000
0000
0000
,
1000
0000
0000
0000
,
0000
0000
0000
0000
,
0001
0000
0000
0000
,
0000
0000
0000
0000
,
0001
0000
0000
0000
,
0000
0000
0000
0000
,
0001
0000
0000
0000
,
0000
0000
0000
0000
,
0001
0000
0000
0000
,
0000
0000
0000
0000
,
1001
0000
0000
0000
,
0000
0000
0000
0000
,
0100
0000
0000
0000
,
0000
0000
0000
0000
,
0010
0000
0000
0000
,
0000
0000
0000
0000
,
0100
0000
0000
0000
,
0000
0000
0000
0000
,
0010
0000
0000
0000
,
0000
0000
0000
0000
,
1000
0000
0000
0000
,
0000
0000
0000
0000
,
0001
0000
0000
0000
,
0000
0000
0000
0000
,
0010
0000
0000
0000
,
0000
0000
0000
0000
,
1001
0000
0000
0000
,
0000
0000
0000
0000
,
1000
0000
0000
0000
,
0000
0000
0000
0000
,
0001
0000
0000
0000
,
0000
0000
0000
0000
,
1000
0000
0000
0000
,
0000
0000
0000
0000
,
0010
0000
0000
0000
,
0000
0000
0000
0000
,
0100
0000
0000
0000
,
0000
0000
0000
0000
,
0010
0000
0000
0000
,
0000
0000
0000
0000
,
0100
0000
0000
0000
,
0000
0000
0000
0000
,
2002
0000
0000
0000
,
3003
0000
0000
0000
;

//--------------- dance-single - ----------------
#NOTES:
     dance-single:
     :
     Easy:
     3:
     0,0,0,0,0:
0000
0000
0000
0000
,
0000
0000
0000
0000
,
0000
0000
0000
0000
,
0000
0000
0000
0000
,
1000
0000
0000
0000
,
0001
0000
0000
0000
,
1000
0000
0000
0000
,
0001
0000
0000
0000
,
0100
0000
0000
0000
,
0010
0000
0000
0000
,
0100
0000
0000
0000
,
0010
0000
0000
0000
,
0001
0000
0000
0000
,
1000
0000
0000
0000
,
0001
0000
0000
0000
,
1000
0000
0000
0000
,
0100
0000
0000
0000
,
0010
0000
0000
0000
,
0100
0000
0000
0000
,
0110
0000
0000
0000
,
1001
0000
0000
0000
,
1000
0000
0000
0000
,
0100
0000
0000
0000
,
0010
0000
0000
0000
,
0100
0000
0000
0000
,
0001
0000
0000
0000
,
1000
0000
0000
0000
,
0100
0000
0000
0000
,
0110
0000
0000
0000
,
0001
0000
0000
0000
,
1000
0000
0000
0000
,
0100
0000
0000
0000
,
0010
0000
0000
0000
,
0100
0000
0000
0000
,
0010
0000
0000
0000
,
1000
0000
0000
0000
,
1001
0000
0000
0000
,
0100
0000
0000
0000
,
0001
0000
0000
0000
,
0010
0000
0000
0000
,
0001
0000
0000
0000
,
0100
0000
0000
0000
,
0010
0000
0000
0000
,
1000
0000
0000
0000
,
0100
0000
0000
0000
,
0010
0000
0000
0000
,
0100
0000
0000
0000
,
0010
0000
0000
0000
,
0100
0000
0000
0000
,
0010
0000
0000
0000
,
0001
0000
0000
0000
,
1000
0000
0000
0000
,
2002
0000
0000
0000
,
3003
0000
0000
0000
;

//--------------- dance-single - ----------------
#NOTES:
     dance-single:
     :
     Medium:
     6:
     0,0,0,0,0:
0000
0000
0000
0000
,
0000
0000
0000
0000
,
0000
0000
0000
0000
,
0000
0000
0000
0000
,
1000
0000
0001
0000
,
1000
0000
0100
0010
,
0100
0000
0010
0000
,
0001
0000
1000
0001
,
0100
0000
0010
0000
,
0100
0000
0100
0100
,
0010
0000
0001
0000
,
1000
0000
0100
1000
,
1001
0000
0100
0000
,
0010
0000
0001
1000
,
0100
0000
0010
0000
,
0001
0000
1000
1000
,
1001
0000
0110
0000
,
1010
0000
0101
0000
,
1000
0001
1000
0001
1000
0001
1000
0001
,
2000
3000
0000
1001
,
0110
0100
0010
0100
,
1000
0100
0010
0100
,
0010
0100
0001
1000
,
0100
0010
0100
0100
,
0010
1000
0100
0010
,
0100
0010
0100
0001
,
1000
0100
0010
0100
,
0010
1000
0100
1000
0100
0000
0110
0000
,
1001
1000
0100
0010
,
0100
0010
0100
1000
,
0100
0010
0100
0010
,
0001
0100
0001
1000
,
0100
0010
0100
0010
,
0100
1000
0100
1000
,
0100
0010
0001
0100
,
0010
0001
0010
0001
0010
0000
1010
0000
,
0100
0000
0100
0000
,
0010
0000
0010
0000
,
1000
0000
0001
0000
,
1000
0000
0001
0000
1000
0001
1000
0001
,
0100
0000
0010
0000
,
0100
0000
0010
0000
,
0100
0000
0100
0000
,
0100
0000
0010
1000
0100
1000
0100
0000
,
0100
0000
0010
0000
,
0100
0000
0001
0000
,
1000
0000
0001
0000
,
0100
0000
0010
0100
1000
0100
1000
0000
,
0010
0000
0100
0000
,
0010
0000
0100
0000
,
1000
0100
0010
0100
,
0010
0100
0010
1000
0100
1000
0100
0000
,
2002
0000
0000
0000
,
3003
0000
0000
0000
;

//--------------- dance-single - ----------------
#NOTES:
     dance-single:
     :
     Hard:
     10:
     0,0,0,0,0:
0000
0000
0000
0000
,
0000
0000
0000
0000
,
0000
0000
0000
0000
,
0000
0000
0000
0000
,
0100
0010
0000
1000
0000
0100
0000
0010
,
0100
0010
1000
0100
0010
0000
0110
0000
,
1000
0100
0000
0100
0000
0010
0000
1000
,
0000
0100
0000
1000
0100
0000
1001
0000
,
0100
0010
0000
0100
0000
0010
0000
1000
,
0000
0100
0000
1000
0100
0000
1001
0000
,
0100
1000
0000
0100
0000
0010
0000
0100
,
0000
0010
0000
0001
0010
0000
0011
0000
,
0100
1000
0000
0100
0000
0010
0000
0100
,
0000
0010
0000
0001
0100
0000
0101
0000
,
1000
0100
0000
0010
0000
0100
0000
0010
,
0000
0100
0000
1000
0100
0000
0110
0000
,
1001
0100
0010
0100
1010
0100
0010
0001
,
1001
0100
0010
0100
1010
0001
0100
0010
,
1000
0100
1000
0100
0010
0001
0010
0001
0010
0100
1000
0100
1000
0100
1000
0100
,
0020
0030
0000
0110
,
1001
0000
0100
0000
1000
0000
0100
0000
1000
0010
0100
0010
1000
0000
0100
0000
,
0010
0000
0100
0000
0010
0000
0100
0000
0010
1000
0100
1000
0010
0000
0001
0000
,
0010
0000
0001
0000
0010
0000
0100
0000
1000
0010
0100
0010
1000
0000
0100
0000
,
0010
0000
0001
0000
0010
0000
0100
0000
1000
0001
0100
0001
1000
0000
0001
0000
,
0100
0000
1000
0000
0100
0000
1000
0000
0100
0010
1000
0010
0100
0000
0010
0000
,
0100
0000
0010
0000
0100
0000
0010
0000
0010
0001
0100
0001
0010
0000
0100
0000
,
1000
0000
0100
0000
0010
0000
0001
0000
0100
1000
0010
1000
0100
0000
1000
0000
,
0100
0010
0100
0010
0100
0000
0110
0000
,
1001
0000
0100
0000
1000
0000
0100
0000
1000
0001
0100
0001
0010
0000
0100
0000
,
0010
0000
0001
0000
0100
0000
0001
0000
0100
1000
0010
1000
0100
0000
0010
0000
,
0100
0000
1000
0000
0100
0000
1000
0000
0100
0010
1000
0010
0100
0000
0010
0000
,
0100
0000
0010
0000
0100
0000
0010
0000
0001
1000
0100
1000
0010
0000
0100
0000
,
1000
0000
0100
0000
0010
0000
0100
0000
0010
0001
0100
0001
1000
0000
0100
0000
,
0010
0000
0100
0000
0010
0000
0100
0000
0010
1000
0100
1000
0010
0000
0001
0000
,
0100
0000
0010
0000
1000
0000
0100
0000
0010
0001
0100
0001
0010
0000
0100
0000
,
0010
1000
0100
0001
0100
0000
1001
0000
,
0100
0010
0100
0010
0100
1000
0100
0000
,
0100
0010
0100
0010
0001
0100
0010
0000
,
0100
1000
0100
0010
0100
0010
0001
0000
,
0100
0001
0010
1000
0100
0010
1000
0010
0100
0000
0010
0000
0100
0000
0000
0000
,
0110
0100
1000
0100
0010
0100
0010
0000
,
0100
1000
0100
0010
0001
0100
0001
0000
,
1000
0001
1000
0100
0001
0100
1000
0000
,
0100
1000
0010
0001
0100
1000
0001
0100
1000
0000
0001
0000
1001
0000
0000
0000
,
0100
0010
0100
0010
0100
0100
1000
0000
,
0100
0010
0100
0010
0001
0100
1000
0000
,
0100
1000
0100
0100
0010
0100
0010
0000
,
0010
0001
0100
0001
0100
0010
1000
0010
0100
0000
0010
0000
0001
0000
0000
0000
,
1000
0100
0010
0100
0010
0100
1100
0000
,
0100
0010
0100
0010
0001
0100
0100
0000
,
1000
0100
0010
0001
0100
0010
0100
0000
,
0100
0010
0100
1000
0100
0010
0100
0010
0100
0010
0100
0010
1001
0000
0000
0000
,
0220
0000
0000
0000
,
0330
0000
0000
0000
;
