#TITLE:향수;
#SUBTITLE:;
#ARTIST:유빈;
#TITLETRANSLIT:PERFUME;
#SUBTITLETRANSLIT:;
#ARTISTTRANSLIT:Yubin;
#GENRE:K-Pop;
#CREDIT:;
#MUSIC:PERFUME.ogg;
#BANNER:PERFUME.png;
#BACKGROUND:PERFUME-bg.png;
#CDTITLE:Wrland.png;
#SAMPLESTART:64.216;
#SAMPLELENGTH:12.000;
#SELECTABLE:YES;
#OFFSET:-5.449;
#BPMS:0.000=146.000
,208.000=73.000
,224.000=146.000
,226.000=73.000
,227.000=146.000
;
#STOPS:;
#DISPLAYBPM:73.000:146.000;
#BGCHANGES:0.000=PERFUME.avi=1.000=0=0=1=====,
99999=-nosongbg-=1.000=0=0=0 // don't automatically add -songbackground-
;
#FGCHANGES:;

//--------------- dance-single - ----------------
#NOTES:
     dance-single:
     :
     Beginner:
     1:
     0,0,0,0,0:
0000
0000
0000
0000
,
0000
0000
0000
0000
,
0000
0000
0000
0000
,
0000
0000
0000
0000
,
1000
0000
0000
0000
,
0000
0000
0000
0000
,
0010
0000
0000
0000
,
0000
0000
0000
0000
,
0100
0000
0000
0000
,
0000
0000
0000
0000
,
0100
0000
0000
0000
,
0000
0000
0000
0000
,
0001
0000
0000
0000
,
0000
0000
0000
0000
,
0001
0000
0000
0000
,
0000
0000
0000
0000
,
1000
0000
0000
0000
,
0000
0000
0000
0000
,
1000
0000
0000
0000
,
0000
0000
0000
0000
,
0010
0000
0000
0000
,
0000
0000
0000
0000
,
0010
0000
0000
0000
,
0000
0000
0000
0000
,
0100
0000
0000
0000
,
0000
0000
0000
0000
,
0100
0000
0000
0000
,
0000
0000
0000
0000
,
0001
0000
0000
0000
,
0000
0000
0000
0000
,
0001
0000
0000
0000
,
0000
0000
0000
0000
,
1000
0000
0000
0000
,
0000
0000
0000
0000
,
1000
0000
0000
0000
,
0000
0000
0000
0000
,
0100
0000
0000
0000
,
0000
0000
0000
0000
,
0100
0000
0000
0000
,
0000
0000
0000
0000
,
0010
0000
0000
0000
,
0000
0000
0000
0000
,
0010
0000
0000
0000
,
0000
0000
0000
0000
,
0010
0000
0000
0000
,
0000
0000
0000
0000
,
1000
0000
0000
0000
,
0000
0000
0000
0000
,
0010
0000
0000
0000
,
0000
0000
0000
0000
,
0001
0000
0000
0000
,
0000
0000
0000
0000
,
2000
0000
3000
0000
,
0000
0000
0000
0000
,
0002
0000
0003
0000
,
0000
0000
0000
0000
,
0000
0000
0000
0000
,
1000
0000
0000
0000
,
0000
0000
0000
0000
,
0010
0000
0000
0000
,
0000
0000
0000
0000
,
0100
0000
0000
0000
,
0000
0000
0000
0000
,
0100
0000
0000
0000
,
0000
0000
0000
0000
,
0001
0000
0000
0000
,
0000
0000
0000
0000
,
1000
0000
0000
0000
,
0000
0000
0000
0000
,
0100
0000
0000
0000
,
0000
0000
0000
0000
,
0100
0000
0000
0000
,
0000
0000
0000
0000
,
0010
0000
0000
0000
,
0000
0000
0000
0000
,
0100
0000
0000
0000
;

//--------------- dance-single - ----------------
#NOTES:
     dance-single:
     :
     Easy:
     3:
     0,0,0,0,0:
0000
0000
0000
0000
,
0000
0000
0000
0000
,
0000
0000
0000
0000
,
0000
0000
0000
0000
,
1000
0000
0000
0000
,
0100
0000
0000
0000
,
0100
0000
0000
0000
,
0010
0000
0000
0000
,
0100
0000
0000
0000
,
0001
0000
0000
0000
,
1000
0000
0000
0000
,
1000
0000
0000
0000
,
0100
0000
0000
0000
,
0010
0000
0000
0000
,
0100
0000
0000
0000
,
0010
0000
0000
0000
,
0100
0000
0000
0000
,
1000
0000
0000
0000
,
0100
0000
0000
0000
,
0010
0000
0000
0000
,
0001
0000
0000
0000
,
0100
0000
0000
0000
,
0010
0000
0000
0000
,
1000
0000
0000
0000
,
0100
0000
0000
0000
,
0010
0000
0000
0000
,
0100
0000
0000
0000
,
0100
0000
0000
0000
,
0002
0000
0003
0000
,
0002
0000
0003
0000
,
2000
0000
3000
0000
,
2000
0000
3000
0000
,
0020
0000
0030
0000
,
0200
0000
0300
0000
,
0020
0000
0030
0000
,
0110
0000
0000
0000
,
1000
0000
0000
0000
,
1000
0000
0000
0000
,
0001
0000
0000
0000
,
0001
0000
0000
0000
,
0100
0000
0000
0000
,
0100
0000
0000
0000
,
0010
0000
0000
0000
,
0010
0000
0000
0000
,
1000
0000
0000
0000
,
1000
0000
0000
0000
,
0001
0000
0000
0000
,
0001
0000
0000
0000
,
0100
0000
0000
0000
,
0010
0000
0000
0000
,
0100
0000
0000
0000
,
0010
0000
0000
0000
,
1000
0000
0000
0000
,
0001
0000
0000
0000
,
0100
0000
0000
0000
,
0010
0000
0000
0000
,
0000
0000
0000
0000
,
1000
0000
0000
0000
,
0100
0000
0000
0000
,
0100
0000
0000
0000
,
0001
0000
0000
0000
,
0100
0000
0000
0000
,
0010
0000
0000
0000
,
1000
0000
0000
0000
,
0100
0000
0000
0000
,
0010
0000
0000
0000
,
0010
0000
0000
0000
,
0100
0000
0000
0000
,
0100
0000
0000
0000
,
0010
0000
0000
0000
,
0100
0000
0000
0000
,
0010
0000
0000
0000
,
0100
0000
0000
0000
,
0001
0000
0000
0000
,
1000
0000
0000
0000
,
0001
0000
0000
0000
,
1000
0000
0000
0000
;

//--------------- dance-single - ----------------
#NOTES:
     dance-single:
     :
     Medium:
     6:
     0,0,0,0,0:
0000
0000
0000
0000
,
0000
0000
0000
0000
,
0000
0000
0000
0000
,
0000
0000
0000
0000
,
1000
1000
1000
0100
,
0010
0010
0010
0001
,
0010
0010
0100
0010
,
0100
0000
0010
0000
0100
0010
0000
0100
,
0010
0100
1000
1000
,
0100
0100
0100
0100
,
0001
0001
0001
0001
,
0100
0000
0010
0000
0100
0020
0000
0030
,
0100
0010
0100
1000
,
0200
0000
0300
0100
0010
0100
0010
0001
,
1000
0100
0010
0100
,
0010
0000
0001
0000
1000
0001
0000
0200
,
0000
0000
0300
0100
0010
0001
0100
0000
,
0010
0000
0100
2000
0000
3000
0100
0000
,
0010
0100
0010
0001
,
1000
0000
0002
0000
0000
0003
0100
0000
,
0010
0100
0010
1000
,
0100
0010
0100
0010
,
0100
0001
0100
0010
,
0100
1000
0100
0010
,
0100
0100
0010
0010
,
0100
0100
0010
0010
,
0001
0101
1000
1010
,
0100
1100
0010
0011
,
0200
0000
0000
0300
0020
0000
0000
0030
,
0002
0000
0000
0003
0200
0000
0000
0300
,
0002
0000
0000
0003
2000
0000
0000
3000
,
0200
0000
0000
0300
0020
0000
0000
0030
,
0100
0000
0100
0000
0220
0000
0000
0330
,
0001
0000
0001
0000
0202
0000
0000
0303
,
0010
0000
0010
0000
2020
0000
0000
3030
,
0200
0000
0000
0000
0000
0300
0020
0000
,
0230
0000
0300
0000
0100
0000
0010
0001
,
0100
0000
0010
1000
0200
0000
0000
0300
,
1000
1000
1000
1000
,
0200
0000
0000
0300
0010
0000
0100
0000
,
0020
0000
0000
0030
0001
0000
0100
1000
,
0010
0000
0100
0001
0020
0000
0030
0100
,
0010
0100
0010
0100
,
0010
0000
0000
0220
0000
0000
0000
0330
,
1000
0000
0200
0000
0000
0300
1000
0000
,
0100
0010
0100
0010
,
0200
0000
0000
0300
0010
0000
0100
0010
,
0100
0000
0010
0000
1000
0100
0000
0100
,
0010
0000
0200
0000
0000
0300
0010
0000
,
0200
0000
0000
0300
0001
0000
0001
0000
,
2000
0000
0000
3000
0001
0000
1001
0000
,
0100
0000
0010
0100
0010
0000
0010
1000
,
0200
0310
0200
1300
,
0200
0301
2000
3001
,
1000
1100
0010
0011
,
0100
1000
0010
0000
0010
0001
1000
0000
,
0200
0000
0000
0000
0000
0300
0110
0000
,
2002
0000
0000
3003
0100
0000
0010
0000
,
0100
0000
0010
0000
2000
0000
0000
3000
,
0100
0010
0100
0010
,
0001
1000
0001
0100
,
0220
0000
0000
0330
0001
0000
1000
0000
,
0001
0000
0100
0000
0020
0000
0030
1000
,
0001
0000
0100
0000
0100
0000
0100
0020
,
0000
0000
0030
0220
0000
0000
0000
0330
,
1000
1001
0000
1000
,
1001
0000
0000
0000
0100
0000
0010
0001
,
0200
0000
0000
0000
0300
0100
0010
0100
,
1000
0000
0100
0000
0010
0100
0000
0010
,
1000
0110
0000
1000
,
0110
0001
0010
0001
,
0110
0000
0000
0000
0000
0001
1000
0100
,
0010
0100
0010
0100
,
0110
0100
0100
0100
,
0010
0010
0010
0010
,
0100
0010
0100
0010
,
1000
0001
1000
0001
;

//--------------- dance-single - ----------------
#NOTES:
     dance-single:
     :
     Hard:
     10:
     0,0,0,0,0:
0000
0000
0000
0000
,
0000
0000
0000
0000
,
0000
0000
0000
0000
,
0000
0000
0000
0000
,
1000
0100
1000
0100
1000
0100
1000
0100
1000
0100
0010
0100
0010
0100
0010
0100
,
0010
0001
0010
0001
0010
0001
0010
0001
0010
0001
0010
0001
0010
0100
1000
0100
,
1000
0100
1000
0100
1000
0100
1000
0100
1000
0100
0010
0100
0010
0100
0010
0100
,
2000
3000
0002
0003
0200
0310
0000
0100
,
0010
0100
0010
0100
0010
0100
0010
0100
0010
0100
0010
0100
0010
0100
0010
0001
,
0010
0001
0010
0001
0010
0001
0010
0001
0010
0001
0010
0001
0010
0100
1000
0100
,
1000
0100
1000
0100
1000
0100
0010
0100
0010
0100
0010
0100
0010
0001
0010
0100
,
2000
3000
0002
0003
0100
0020
0000
0030
,
0100
0000
0010
0000
0100
0010
1000
0100
,
0010
0000
0000
0000
0100
0000
0001
0000
1000
0000
0100
0000
0010
0000
0100
0001
,
0010
0000
0100
0010
1000
0100
0010
0100
,
0010
0000
0100
0000
0010
1000
0000
0001
,
0100
0010
0100
0010
0100
1000
0100
0010
,
0100
0000
0000
0010
0000
0000
0002
0000
0000
0000
0003
0000
1000
0000
0000
0000
,
0100
0000
0010
0100
1000
0100
0010
0100
,
0010
0000
0200
0000
0300
0001
1000
0001
,
0020
0000
0030
0100
0010
1000
0100
0000
,
0010
0000
0100
0000
0010
0000
1000
0000
0100
0000
0010
0001
0100
0000
0000
0000
,
0100
0000
0010
0000
0100
0000
0010
0000
0100
0000
0010
0000
1000
0000
0100
1000
,
0100
0100
0010
0100
0010
1000
0100
0010
,
0100
0010
1000
0000
0100
0001
1000
0000
0100
0000
0010
0000
0200
0000
0300
0000
,
0001
0100
0010
0100
0100
0010
1000
0100
,
0010
1000
0000
0000
0100
0000
0000
0000
0010
0100
0000
0000
0001
0000
0000
0000
,
0100
0010
0000
0000
1000
0000
0000
0000
0100
0001
0000
0000
0100
0000
0000
0000
,
0020
0000
0000
0030
0100
0000
1000
0000
,
0100
0001
0100
0010
0100
1000
0100
0010
,
0000
2000
0000
3000
0100
0000
0100
0010
,
0100
1000
0100
0001
,
0100
0000
0000
0001
0000
0000
1000
0000
0200
0000
0000
0000
0000
0000
0300
0000
,
0010
0000
0000
0010
0000
0000
1000
0000
0200
0000
0000
0000
0000
0000
0300
0000
,
0100
0000
0000
0100
0000
0000
0010
0000
0100
0000
0000
0000
0010
0000
0000
0000
,
0220
0000
0330
1000
,
0100
0000
0010
0100
0010
0000
0100
0010
,
0010
0000
0100
0001
0020
0000
0030
0100
,
0010
0100
0010
0100
0010
0100
1000
2000
,
0000
3000
0100
0010
0100
0010
0001
0000
,
0001
0000
1000
0001
1000
0000
0001
0001
,
1000
0000
1000
0100
2000
0000
3000
0100
,
1000
0100
0010
0100
0010
0100
0010
0001
,
0010
0000
0010
0100
1000
0010
0100
0001
,
0010
0100
1010
0000
0100
0010
0100
0010
,
0101
0000
0100
0010
0100
1000
0100
0010
,
0110
0000
1000
0100
0010
0001
0100
0010
,
2000
3000
0200
0300
0020
0130
0000
0010
,
1000
0100
0011
0000
0100
0010
0100
0010
,
0110
0000
0100
1000
0100
0010
0001
0100
,
0010
0000
0100
0010
1000
0100
0010
0100
,
0100
0000
0000
1000
0000
0000
0001
0000
0100
0000
0000
0001
0000
0000
1000
0000
,
0020
0000
0000
0000
0000
0000
0030
0000
0200
0000
0300
0000
0001
0000
1000
0000
0100
0000
0000
0100
0000
0000
0020
0000
0000
0000
0000
0000
0030
0000
0100
0000
,
0010
0000
0000
0100
0000
0000
0020
0000
0000
0000
0000
0000
0030
0000
0001
0000
1000
0000
0000
0100
0000
0000
0020
0000
0000
0000
0030
0000
0100
0000
0001
0000
,
0200
0000
0000
0000
0000
0000
0300
0000
1000
0000
0100
0000
0010
0000
0100
0000
0010
0000
0000
1000
0000
0000
0100
0000
0001
0000
0000
0100
0000
0000
0010
0000
,
0200
0000
0000
0000
0000
0000
0300
0000
0220
0000
0000
0000
0000
0000
0330
0000
0100
0000
0001
0000
0100
0000
1000
0000
0010
0100
0010
0100
0010
0100
0010
0100
,
0020
0000
0000
0000
1030
0000
0000
0100
0000
0020
0000
0030
0100
0000
0000
0000
,
0110
0000
0100
0010
1000
0000
0100
0010
,
0100
0000
0010
0010
0200
0000
0300
0010
,
0100
1000
0100
0010
0100
0010
0100
0020
,
0000
0030
1000
0100
0010
0000
0100
0000
,
0110
0000
0001
1000
0001
0000
0100
0010
,
0100
0001
0010
0100
0020
0030
0100
0010
,
1000
0100
0010
1000
0100
0010
0100
0200
,
0000
0300
0010
0100
0010
0200
0000
0300
,
1000
0100
0110
0000
0010
0000
0100
0010
,
0110
0000
0100
0000
0010
0000
1000
0100
,
0110
0000
0010
0001
0100
1000
0100
0010
,
0200
0300
0002
0003
2000
3001
0100
0010
,
0100
0010
0110
0000
0100
0010
1000
0100
,
1100
0000
0100
0000
0010
0100
0010
0100
,
0011
0000
0100
0001
0010
1000
0100
0010
,
0100
0000
0010
0000
0100
0001
0100
1000
,
0100
0010
0001
0010
0100
0010
0001
0010
0100
0010
0001
0010
0100
1000
0100
0010
,
0100
0010
0100
0010
0100
0010
0100
1000
0100
1000
0100
1000
0100
1000
0100
1000
,
0100
0010
0001
0010
0001
0010
0001
0010
0001
0010
0001
0010
0100
0010
0100
0010
,
0100
0010
0100
0010
0100
1000
0100
1000
0100
1000
0100
0010
0001
0010
0100
0010
;
