#TITLE:New York City Boy;
#SUBTITLE:;
#ARTIST:Pet Shop Boys;
#TITLETRANSLIT:;
#SUBTITLETRANSLIT:;
#ARTISTTRANSLIT:;
#GENRE:House;
#CREDIT:;
#MUSIC:New York City Boy.ogg;
#BANNER:New York City Boy.png;
#BACKGROUND:New York City Boy-bg.png;
#CDTITLE:Wrland.png;
#SAMPLESTART:14.666;
#SAMPLELENGTH:12.000;
#SELECTABLE:YES;
#OFFSET:0.000;
#BPMS:0.000=130.915;
#STOPS:;
#DISPLAYBPM:130.000;
#JACKET:New York City Boy-jacket.png;
#BGCHANGES:0.000=New York City Boy.avi=1.000=0=0=0=StretchNoLoop====,
99999.000=-nosongbg-=1.000=0=0=0=StretchNoLoop====
;
#FGCHANGES:;

//--------------- dance-single - ----------------
#NOTES:
     dance-single:
     :
     Easy:
     1:
     0,0,0,0,0:
0000
0000
0000
0000
,
0000
0000
0000
0000
,
0000
0000
0000
0000
,
0000
0000
0000
0000
,
0000
0000
0000
0000
,
0000
0000
0000
0000
,
0000
0000
0000
0000
,
0000
0000
0000
0000
,
0100
0000
0000
0000
,
0100
0000
0000
0000
,
0010
0000
0000
0000
,
0001
0000
0000
0000
,
1000
0000
0000
0000
,
0001
0000
0000
0000
,
0001
0000
0000
0000
,
0001
0000
0000
0000
,
0100
0000
0000
0000
,
0010
0000
0000
0000
,
0100
0000
0000
0000
,
0010
0000
0000
0000
,
0100
0000
0000
0000
,
1000
0000
0000
0000
,
1000
0000
0000
0000
,
0100
0000
0000
0000
,
0002
0000
1003
0000
,
2000
0000
3001
0000
,
0020
0000
0130
0000
,
0010
0000
0000
0000
,
0200
0000
0310
0000
,
0002
0000
0103
0000
,
2000
0000
3100
0000
,
0010
0000
0000
0000
,
0100
0000
0000
0000
,
0010
0000
0000
0000
,
0100
0000
0000
0000
,
1000
0000
0000
0000
,
0001
0000
0000
0000
,
0100
0000
0000
0000
,
0010
0000
0000
0000
,
0100
0000
0000
0000
,
1000
0000
0000
0000
,
1000
0000
0000
0000
,
0100
0000
0000
0000
,
0010
0000
0000
0000
,
0100
0000
0000
0000
,
0001
0000
0000
0000
,
0010
0000
0000
0000
,
0100
0000
0000
0000
,
1001
0000
0000
0000
,
0000
0000
0000
0000
,
1001
0000
0000
0000
;

//--------------- dance-single - ----------------
#NOTES:
     dance-single:
     :
     Medium:
     3:
     0,0,0,0,0:
0000
0000
0000
0000
,
0000
0000
0000
0000
,
0000
0000
0000
0000
,
0000
0000
0000
0000
,
0000
0000
0000
0000
,
0000
0000
0000
0000
,
0000
0000
0000
0000
,
0000
0000
0000
0000
,
1000
0000
0000
0000
1000
0000
0000
2000
,
0000
3000
0000
0000
0000
0000
0000
0000
,
0100
0000
0000
0000
0100
0000
0000
0100
,
0000
0020
0000
0030
0000
0000
0000
0000
,
0010
0000
0000
0000
0010
0000
0000
0020
,
0000
0030
0000
0000
0000
0000
0000
0000
,
0100
0000
0000
0000
0100
0000
0000
0100
,
0000
0020
0000
0030
0000
0000
0000
0000
,
0100
0000
0010
0000
,
0001
0000
0010
0000
,
0100
0000
0100
0100
,
0010
0000
0010
0000
,
0001
0000
0100
0000
,
0010
0000
0100
0000
,
0010
0000
0010
0000
,
0010
0000
0100
0000
,
0002
0000
1003
0000
,
2000
0000
3100
0000
,
0020
0000
0130
0000
,
0010
0000
0100
0000
,
2000
0000
3001
0000
,
0200
0000
0310
0000
,
0002
0000
0103
0000
,
0020
0000
0030
0000
,
0100
0000
0000
0000
0100
0000
0000
0200
,
0000
0300
0000
0000
0000
0000
0000
0000
,
0001
0000
0000
0000
0001
0000
0000
0001
,
0000
2000
0000
0000
3000
0000
0000
0000
,
0100
0000
0000
0000
0010
0000
0000
0200
,
0000
0300
0000
0000
0000
0000
0000
0000
,
1000
0000
0000
0000
0100
0000
0000
0010
,
0000
0200
0000
0300
0000
0000
0000
0000
,
0010
0000
0000
0000
0010
0000
0000
0020
,
0000
0030
0000
0000
0000
0000
0000
0000
,
0100
0000
0000
0000
0100
0000
0000
0100
,
0000
0200
0000
0300
0000
0000
0000
0000
,
1000
0000
0000
0000
1000
0000
0000
2000
,
0000
3000
0000
0000
0000
0000
0000
0000
,
0001
0000
0000
0000
0001
0000
0000
0001
,
0000
0002
0000
0003
0000
0000
0000
0000
,
0100
0000
0000
0000
0010
0000
0000
0200
,
0000
0300
0000
0000
0000
0000
0000
0000
,
0100
0000
0000
0000
0000
0000
0000
0100
,
0000
0020
0000
0030
0000
0000
0000
0000
;

//--------------- dance-single - ----------------
#NOTES:
     dance-single:
     :
     Hard:
     5:
     0,0,0,0,0:
0000
0000
0000
0000
,
0000
0000
0000
0000
,
0000
0000
0000
0000
,
0000
0000
0000
0000
,
0000
0000
0000
0000
,
0000
0000
0000
0000
,
0000
0000
0000
0000
,
0000
0000
0000
0000
,
1000
0000
0100
0000
1000
0100
0000
0020
,
0000
0030
0000
0000
0000
0000
0000
0100
,
0010
0100
0000
0010
0000
0001
0000
0010
,
0000
0200
0000
0300
0000
0001
0010
1000
,
0010
0000
0100
0000
0010
0100
0000
2000
,
0000
3000
0000
0000
0000
0100
1000
0100
,
0010
0100
0000
0010
0000
0001
0000
0010
,
0000
0200
0000
0300
0000
0000
0000
0000
,
0100
0010
0100
0020
0000
0030
0000
0000
,
0001
0100
0001
0200
0000
0300
0000
0000
,
0010
1000
0010
1000
0002
0003
1000
0100
,
0010
0100
0010
0200
0000
0300
0000
0000
,
0100
1000
0100
0020
0030
0002
0003
0000
,
0010
0100
0010
0200
0000
0300
0000
0000
,
0010
0001
0100
0010
1000
0100
0010
0001
,
0010
0001
0100
2000
0000
3000
0100
0010
,
0200
0000
0300
0000
1001
0000
0010
0100
,
0020
0000
0030
0000
0000
0110
0000
0100
,
0020
0000
0030
0000
0011
0000
0100
0010
,
0200
0300
0002
0003
0010
0002
0003
0010
,
0002
0000
0003
0000
0000
0011
0000
0010
,
0200
0000
0300
0000
0000
0110
0000
0100
,
2000
0000
3000
0000
1100
0000
0100
0010
,
0200
0300
0020
0030
0001
0200
0000
0300
,
0010
0000
0100
0000
0010
0100
0000
0020
,
0000
0030
0000
0000
0000
0000
0000
0100
,
0010
0100
0000
0010
0000
0001
0000
1000
,
0000
0002
0000
0003
0000
0100
0001
0100
,
0010
0000
0100
0000
1000
0100
0000
2000
,
0000
3000
0000
0000
0000
1000
0100
0010
,
0100
0010
0000
0100
0000
0010
0000
0001
,
0000
0010
0100
0010
0200
0300
0010
0100
,
0001
0000
0010
0000
0100
0010
0000
0100
,
0000
0100
0000
0010
0000
0200
0000
0300
,
0010
0100
0000
0010
0000
0001
0000
0100
,
0000
1000
0100
0010
0100
0001
0010
0100
,
0010
0000
0100
0000
0010
0100
0000
0001
,
0000
1000
0000
0100
0000
0010
0100
0010
,
0100
0010
0000
0100
0000
0010
0000
0001
,
0000
0020
0000
0030
0000
1000
0001
1000
,
0100
0000
0010
0000
0100
0010
0000
0002
,
0000
0003
0000
0000
0000
0010
0100
1000
,
0100
0010
0000
0001
0000
0010
0000
0100
,
0000
0020
0000
0030
0000
0000
0000
0000
;
