#VERSION:0.83;
#TITLE:Navy blue sea;
#SUBTITLE:;
#ARTIST:Trick Trap;
#TITLETRANSLIT:;
#SUBTITLETRANSLIT:;
#ARTISTTRANSLIT:;
#GENRE:Rock;
#CREDIT:;
#MUSIC:Navy blue sea.ogg;
#BANNER:Navy blue sea.png;
#BACKGROUND:Navy blue sea-bg.png;
#CDTITLE:Wrland.png;
#SAMPLESTART:8.068;
#SAMPLELENGTH:12.000;
#SELECTABLE:YES;
#OFFSET:-4.068;
#BPMS:0.000=120.000
,8.000=240.000
,200.000=120.000
,216.000=240.000
,408.000=120.000
;
#STOPS:;
#JACKET:Navy blue sea-jacket.png;
#BGCHANGES:;
#FGCHANGES:;

//--------------- dance-single - ----------------
#NOTEDATA:;
#STEPSTYPE:dance-single;
#DESCRIPTION:;
#DIFFICULTY:Beginner;
#METER:1;
#RADARVALUES:0,0,0,0,0;
#NOTES:
0000
0000
0000
0000
,
0000
0000
0000
0000
,
1000
0000
0000
0000
,
0000
0000
0000
0000
,
1000
0000
0000
0000
,
0000
0000
0000
0000
,
0001
0000
0000
0000
,
0000
0000
0000
0000
,
0001
0000
0000
0000
,
0000
0000
0000
0000
,
0100
0000
0000
0000
,
0000
0000
0000
0000
,
0010
0000
0000
0000
,
0000
0000
0000
0000
,
0100
0000
0000
0000
,
0000
0000
0000
0000
,
0010
0000
0000
0000
,
0000
0000
0000
0000
,
1000
0000
0000
0000
,
0000
0000
0000
0000
,
0001
0000
0000
0000
,
0000
0000
0000
0000
,
1000
0000
0000
0000
,
0000
0000
0000
0000
,
0001
0000
0000
0000
,
0000
0000
0000
0000
,
0100
0000
0000
0000
,
0000
0000
0000
0000
,
0010
0000
0000
0000
,
0000
0000
0000
0000
,
0100
0000
0000
0000
,
0000
0000
0000
0000
,
0001
0000
0000
0000
,
0000
0000
0000
0000
,
1000
0000
0000
0000
,
0000
0000
0000
0000
,
0100
0000
0000
0000
,
0000
0000
0000
0000
,
1000
0000
0000
0000
,
0000
0000
0000
0000
,
0010
0000
0000
0000
,
0000
0000
0000
0000
,
0100
0000
0000
0000
,
0000
0000
0000
0000
,
0010
0000
0000
0000
,
0000
0000
0000
0000
,
0001
0000
0000
0000
,
0000
0000
0000
0000
,
0100
0000
0000
0000
,
0000
0000
0000
0000
,
0010
0000
0000
0000
,
1000
0000
0000
0000
,
0001
0000
0000
0000
,
1000
0000
0000
0000
,
1001
0000
0000
0000
,
0000
0000
0000
0000
,
0100
0000
0000
0000
,
0000
0000
0000
0000
,
1000
0000
0000
0000
,
0000
0000
0000
0000
,
0100
0000
0000
0000
,
0000
0000
0000
0000
,
0010
0000
0000
0000
,
0000
0000
0000
0000
,
0001
0000
0000
0000
,
0000
0000
0000
0000
,
0100
0000
0000
0000
,
0000
0000
0000
0000
,
1000
0000
0000
0000
,
0000
0000
0000
0000
,
0100
0000
0000
0000
,
0000
0000
0000
0000
,
1000
0000
0000
0000
,
0000
0000
0000
0000
,
0010
0000
0000
0000
,
0000
0000
0000
0000
,
0001
0000
0000
0000
,
0000
0000
0000
0000
,
0010
0000
0000
0000
,
0000
0000
0000
0000
,
0001
0000
0000
0000
,
0000
0000
0000
0000
,
0100
0000
0000
0000
,
0000
0000
0000
0000
,
0010
0000
0000
0000
,
0000
0000
0000
0000
,
1000
0000
0000
0000
,
0000
0000
0000
0000
,
0100
0000
0000
0000
,
0000
0000
0000
0000
,
1000
0000
0000
0000
,
0000
0000
0000
0000
,
0010
0000
0000
0000
,
0000
0000
0000
0000
,
0100
0000
0000
0000
,
0000
0000
0000
0000
,
0010
0000
0000
0000
,
0000
0000
0000
0000
,
1000
0000
0000
0000
,
0000
0000
0000
0000
,
0001
0000
0000
0000
,
0000
0000
0000
0000
,
1001
0000
0000
0000
,
0110
0000
0000
0000
,
1001
0000
0000
0000
,
0110
0000
1001
0000
;

//--------------- dance-single - ----------------
#NOTEDATA:;
#STEPSTYPE:dance-single;
#DESCRIPTION:;
#DIFFICULTY:Easy;
#METER:4;
#RADARVALUES:0,0,0,0,0;
#NOTES:
0000
0000
0000
0000
,
0000
0000
0000
0000
,
1000
0000
0000
0000
,
1000
0000
0000
0000
,
0001
0000
0000
0000
,
0001
0000
0000
0000
,
0100
0000
0000
0000
,
0100
0000
0000
0000
,
0010
0000
0000
0000
,
0010
0000
0000
0000
,
1000
0000
0000
0000
,
1000
0000
0000
0000
,
0100
0000
0000
0000
,
0100
0000
0000
0000
,
1000
0000
0000
0000
,
1000
0000
0000
0000
,
0010
0000
0000
0000
,
0100
0000
0000
0000
,
0001
0000
0000
0000
,
0001
0000
0000
0000
,
1000
0000
0000
0000
,
1000
0000
0000
0000
,
0100
0000
0000
0000
,
0100
0000
0000
0000
,
0010
0000
0000
0000
,
0010
0000
0000
0000
,
0100
0000
0000
0000
,
0100
0000
0000
0000
,
1000
0000
0000
0000
,
1000
0000
0000
0000
,
0100
0000
0000
0000
,
0100
0000
0000
0000
,
0010
0000
0000
0000
,
0010
0000
0000
0000
,
1000
0000
0000
0000
,
1000
0000
0000
0000
,
0001
0000
0000
0000
,
0001
0000
0000
0000
,
0100
0000
0000
0000
,
0100
0000
0000
0000
,
1000
0000
0000
0000
,
1000
0000
0000
0000
,
0100
0000
0000
0000
,
0100
0000
0000
0000
,
0010
0000
0000
0000
,
0010
0000
0000
0000
,
0100
0000
0000
0000
,
0100
0000
0000
0000
,
0010
0000
0000
0000
,
0010
0000
0000
0000
,
0001
0000
0000
0000
,
1000
0000
0000
0000
,
0001
0000
0000
0000
,
1000
0000
0000
0000
,
0001
0000
0000
0000
,
0001
0000
0000
0000
,
1000
0000
0000
0000
,
1000
0000
0000
0000
,
0100
0000
0000
0000
,
0100
0000
0000
0000
,
0010
0000
0000
0000
,
0010
0000
0000
0000
,
0100
0000
0000
0000
,
0100
0000
0000
0000
,
0010
0000
0000
0000
,
0010
0000
0000
0000
,
0100
0000
0000
0000
,
0100
0000
0000
0000
,
0010
0000
0000
0000
,
0001
0000
0000
0000
,
1000
0000
0000
0000
,
0000
0000
0000
0000
,
0001
0000
0000
0000
,
0000
0000
0000
0000
,
1001
0000
0000
0000
,
0100
0000
0000
0000
,
0010
0000
0000
0000
,
0100
0000
0000
0000
,
0010
0000
0000
0000
,
0000
0000
0000
0000
,
1000
0000
0000
0000
,
0000
0000
0000
0000
,
1001
0000
0000
0000
,
0100
0000
0000
0000
,
0010
0000
0000
0000
,
0100
0000
0000
0000
,
0010
0000
0000
0000
,
0100
0000
0000
0000
,
0010
0000
0000
0000
,
0100
0000
0000
0000
,
1000
0000
0000
0000
,
0100
0000
0000
0000
,
1000
0000
0000
0000
,
0001
0000
0000
0000
,
0100
0000
0000
0000
,
0100
0000
0000
0000
,
0010
0000
0000
0000
,
0010
0000
0000
0000
,
0100
0000
0000
0000
,
0010
0000
0000
0000
,
0100
0000
0000
0000
,
0010
0000
0000
0000
,
1001
0000
0000
0000
,
0110
0000
0000
0000
,
1001
0000
0000
0000
,
0110
0000
1001
0000
;

//--------------- dance-single - ----------------
#NOTEDATA:;
#STEPSTYPE:dance-single;
#DESCRIPTION:;
#DIFFICULTY:Medium;
#METER:6;
#RADARVALUES:0,0,0,0,0;
#NOTES:
0000
0000
0000
0000
,
0000
0000
0000
0000
,
1000
0100
1000
0100
,
2000
0000
0000
3000
0000
0000
0000
0000
,
0100
0010
0100
0010
,
0200
0000
0000
0300
0000
0000
0100
0000
,
0020
0000
0000
0030
0000
0000
0100
0000
,
0020
0000
0000
0030
0000
0000
0010
0000
,
0002
0000
0000
0003
0000
0000
0000
0000
,
1000
0100
0100
0100
,
1000
0100
1000
0100
,
2000
0000
0000
3000
0000
0000
0000
0000
,
0100
0010
0100
0010
,
0200
0000
0000
0300
0000
0000
1000
0000
,
0200
0000
0000
0300
0000
0000
1000
0000
,
0200
0300
0000
0100
,
0010
0000
0100
0000
,
0010
0100
1000
0100
,
0010
0000
0100
0010
,
0100
0010
0000
0001
,
0100
1000
0000
0100
,
0010
0000
0000
0001
,
0100
0010
0100
1000
,
0100
1000
0100
0010
,
0001
0100
0010
0100
,
2000
0000
0000
3000
0000
0000
0000
0000
,
1000
0100
0000
0010
,
0100
0100
0000
1000
,
0100
0010
0000
0001
,
0200
0000
0000
0300
0000
0000
0100
0000
,
0010
0100
1000
0100
,
0010
0100
0010
0001
,
0200
0000
0000
0300
0000
0000
0100
0000
,
0020
0000
0000
0030
0000
0000
0000
0000
,
1000
0100
1000
0100
,
1000
0000
0200
0000
0000
0300
0000
0000
,
0100
0010
0100
0010
,
0200
0000
0000
0300
0000
0000
0100
0000
,
0020
0000
0000
0030
0000
0000
0001
0000
,
0200
0000
0000
0300
0000
0000
1000
0000
,
0200
0000
0000
0300
0000
0000
0000
0000
,
0100
0010
1001
0001
,
1000
0100
0010
0100
,
0010
0000
0200
0000
0000
0300
0000
0000
,
0010
0001
0010
0001
,
0010
0100
0000
1000
,
0200
0000
0000
0300
0000
0000
1000
0000
,
0200
0000
0000
0300
0000
0000
0100
0000
,
0010
0100
0010
0001
,
1000
0001
0100
0000
,
0100
0000
0010
0000
0000
0001
0000
0000
0100
0000
0000
0010
0000
0000
0000
0000
,
0000
0000
0100
0000
0000
0010
0000
0000
0100
0000
0000
0010
0000
0000
0000
0000
,
0000
0000
1000
0000
0000
0100
0000
0000
1000
0000
0000
0100
0000
0000
0010
0000
,
0200
0300
0110
1001
,
0100
0000
0010
0000
,
0100
0010
1000
0000
,
0100
0010
0100
0001
,
0200
0000
0000
0300
0000
0000
0100
0000
,
0100
0010
0100
1000
,
0100
0010
0100
0010
,
0001
1000
0100
1000
,
0100
0010
0100
0010
,
0001
0100
0010
1000
,
0100
1000
0100
0010
,
0001
0100
0010
0100
,
1000
0100
0100
1000
,
0100
0010
0001
0100
,
0010
0001
0100
1000
,
0200
0000
0000
0300
0000
0000
0000
0000
,
2002
0000
0000
3003
0000
0000
0000
0000
,
0000
1001
0000
0000
0000
0000
0000
1001
0000
0000
0000
0000
0000
1001
0000
0000
,
0000
0100
0010
0100
,
0010
0000
0000
1001
0000
0000
0100
0000
,
0020
0000
0000
0030
0000
0000
0100
0000
,
1001
0100
0010
0100
,
1000
0100
0010
0100
,
0010
0100
0010
0001
,
0200
0000
0000
0300
0000
0000
0000
0000
,
1001
0100
0010
0100
,
0010
1000
0100
0010
,
0100
0010
0001
0100
,
0020
0000
0000
0030
0000
0000
1000
0000
,
0100
1000
0100
1000
,
0100
0010
0100
0010
,
0002
0000
0000
0003
0000
0000
0100
0000
,
0002
0000
0000
0003
0000
0000
0000
0000
,
1000
0100
1000
0100
,
2000
0000
0000
3000
0000
0000
0000
0000
,
0100
0010
0100
0010
,
0200
0000
0000
0300
0000
0000
0100
0000
,
0020
0000
0000
0030
0000
0000
0100
0000
,
0020
0000
0000
0030
0000
0000
0000
0000
,
0100
1000
0100
0010
,
0001
1000
0100
1000
,
0100
0010
0100
0001
,
0100
0000
0020
0000
0000
0030
0000
0000
,
0100
0010
0100
0010
,
0100
0010
0000
0100
,
2000
0000
0000
3000
0000
0000
0010
0000
,
0200
0000
0000
0300
0000
0000
0100
0000
,
0010
0100
0010
0100
,
0010
0001
1000
0100
,
2002
0000
0000
0000
3003
0000
0100
0000
0010
0000
0000
0100
0000
0000
0010
0000
,
0000
0000
0100
1000
0100
0000
0000
0000
0110
0000
0000
0000
1001
0000
0000
0000
,
0200
0000
0000
0000
0300
0000
0010
0100
0010
0000
0000
0100
0000
0000
0010
0000
,
0000
0000
0001
1000
0001
0000
0000
0000
0000
0000
0000
0000
0000
0000
0000
0000
;

//--------------- dance-single - ----------------
#NOTEDATA:;
#STEPSTYPE:dance-single;
#DESCRIPTION:;
#DIFFICULTY:Hard;
#METER:9;
#RADARVALUES:0,0,0,0,0;
#NOTES:
0000
0000
0000
0000
,
0000
0000
0000
0000
,
1000
0001
1000
0001
1000
0001
1000
0001
,
1000
0000
0020
0000
0000
0030
0000
0000
,
0100
0010
0100
0010
0100
0010
0100
0010
,
0100
0000
0020
0000
0030
0000
1000
0100
,
1000
0000
0000
0011
0000
0000
0010
0000
,
0100
0000
0000
1010
0000
0000
0100
0000
,
0010
0001
1000
0100
,
1001
0110
1001
0110
,
0010
0100
0010
0100
0010
0100
0010
0100
,
0010
2000
3000
0000
,
1000
0100
1000
0100
1000
0100
1000
0100
,
1000
0000
0020
0000
0030
0000
0100
0010
,
0100
0000
0000
1000
0000
0000
0100
0000
,
0010
0001
1000
0100
,
1000
0000
0010
0000
0000
1000
0000
0000
,
0100
0010
0100
0010
,
0001
0000
0000
1000
0000
0000
0100
0000
,
0010
0000
0000
1000
0000
0000
0100
0000
,
1000
0100
0010
0100
,
0010
0100
0010
0001
,
1000
0000
0001
1000
0001
0000
0100
1000
,
0100
0010
0100
0010
,
0001
1000
0100
0010
,
0220
0000
0000
0330
,
1000
0000
0000
0100
0000
0000
0010
0000
,
0100
0000
0000
0010
0000
0000
0001
0000
,
0100
0000
0000
0010
0000
0000
0100
0000
,
0020
0000
0030
0100
,
1000
0000
0100
0010
0100
0010
0100
0010
,
0100
0010
0001
0000
1000
0000
0001
0000
,
2002
0000
0000
0000
0000
3003
0000
0000
,
1001
0100
0010
0100
,
0100
0010
0100
0010
0100
0010
0100
0010
,
0100
0000
0020
0000
0000
0030
0000
0000
,
1000
0100
1000
0100
1000
0100
1000
0100
,
1000
0000
0200
0000
0300
0000
0100
0010
,
0100
0000
0000
1000
0000
0000
0100
0000
,
0010
0000
0000
0100
0000
0000
0010
0000
,
0100
0010
0001
0100
,
0010
1000
0100
0100
,
0010
0100
0010
0001
0010
0001
0010
0100
,
0010
0200
0000
0300
,
1000
0100
1000
0100
1000
0101
1000
0100
,
1000
0000
0011
0000
0011
0000
0011
0100
,
0010
0000
0000
0100
0000
0000
0010
0000
,
1000
0100
0010
0100
,
0010
0000
0100
0000
0000
0010
0000
0000
,
1000
0100
0010
0001
,
0100
0000
0010
0000
0000
0100
0000
0000
1000
0000
0000
0100
0000
0000
0011
0000
,
0101
0000
0010
0000
0000
0100
0000
0000
1000
0000
0000
0100
0000
0000
1100
0000
,
1001
0000
0010
0000
0000
0100
0000
0000
0010
0000
0000
0001
0000
0000
0100
0000
,
2020
0000
0000
0000
3030
0000
0000
0000
0101
0000
0100
0010
0100
0010
0100
0010
,
0100
0000
0010
1000
0100
0000
0100
0010
,
0100
0000
0000
1001
0000
0000
0100
0000
,
0010
0100
0010
0100
0010
0100
0010
0100
,
0010
0000
0000
0000
1000
0100
1000
0010
,
0001
0010
0100
1000
0100
0010
0001
0010
,
0100
1000
0100
1000
0100
1000
0100
0010
,
0100
0010
0100
0001
0100
0001
0010
0100
,
1001
1001
1001
1001
,
0100
0000
0010
0100
0000
0010
0100
0000
,
0010
0100
0000
0010
0100
1000
0100
0010
,
0001
0010
0100
1000
0100
0010
0001
0000
,
0020
0000
0030
0200
0000
0300
0010
0100
,
0010
0100
0010
1000
0100
0010
0001
0010
,
0100
0010
0100
0010
0100
0010
0100
0010
,
4M04
00M0
0M00
00M0
0M00
00M0
0M00
00M0
0M00
00M0
0M00
00M0
0M00
00M0
0M00
00M0
,
3M03
00M0
0M00
00M0
1M01
0000
0000
0000
0100
0010
0001
0010
0100
0010
0001
0010
,
0100
0000
0000
0001
0000
0000
1000
0000
,
0000
0100
0010
0100
,
1000
0000
0000
0100
0000
0000
0010
0000
,
0100
0000
0100
0010
,
1000
0000
0000
0100
1000
0000
0000
0100
,
1000
0100
0010
0001
,
0100
0010
1000
0010
,
0100
0000
0000
0000
0100
0010
0100
0000
,
1000
0000
0000
0001
0000
0000
0010
0000
,
0100
1000
0100
0010
,
0001
0000
0000
0010
0000
0000
0100
0000
,
0020
0000
0030
1000
,
0100
0000
0010
0100
0010
0000
0100
0010
,
0100
0000
0010
0001
1000
0001
1000
0001
,
1000
0000
0000
0000
0100
0000
0010
0000
0010
0100
0010
0100
0010
0100
0010
0100
,
1001
0000
0100
0010
0100
0010
0001
0010
,
0100
0010
0100
0010
0100
0010
0100
0010
,
0100
0200
0000
0300
,
1000
0100
1000
0100
1000
0100
1000
0100
,
1000
0000
0200
0000
0300
0000
0100
0010
,
0100
0000
0000
0010
0000
0000
0100
0000
,
0010
0000
0000
0001
0000
0000
1000
0000
,
0100
0010
0100
0010
,
0001
1000
0001
1000
,
0001
1000
0001
1000
0001
1000
0001
1000
,
0001
0200
0000
0300
,
0010
0100
0010
0100
0010
0001
1000
0001
,
1000
0000
0020
0000
0030
0000
0100
0010
,
0100
0000
0000
1000
0000
0000
0100
0000
,
0010
0001
0100
0010
,
1000
0000
0010
0000
0000
1000
0000
0000
,
0100
0010
0001
1000
,
0002
0000
0000
0000
0003
0000
0100
0010
0100
0000
0000
0010
0000
0000
0100
0000
,
0000
0000
0010
0100
1000
0100
0000
0000
0100
0000
0010
0000
0100
0000
0001
0000
,
0200
0000
0000
0000
0300
0000
0100
0010
0100
0000
0000
0010
0000
0000
0100
0000
,
0000
0000
0001
1000
0001
0100
0000
0000
0000
0000
0000
0000
0000
0000
0000
0000
;
