#VERSION:0.83;
#TITLE:MORE feat. Madison Beer, (G)I-DLE, Lexie Liu, Jaira Burns, Seraphine;
#SUBTITLE:;
#ARTIST:K/DA;
#TITLETRANSLIT:;
#SUBTITLETRANSLIT:;
#ARTISTTRANSLIT:;
#GENRE:League of Legends;
#ORIGIN:;
#CREDIT:;
#BANNER:MORE feat. Madison Beer, (G)I-DLE, Lexie Liu, Jaira Burns, Seraphine.png;
#BACKGROUND:MORE feat. Madison Beer, (G)I-DLE, Lexie Liu, Jaira Burns, Seraphine-bg.png;
#PREVIEWVID:;
#JACKET:MORE feat. Madison Beer, (G)I-DLE, Lexie Liu, Jaira Burns, Seraphine-jacket.png;
#CDIMAGE:;
#DISCIMAGE:;
#LYRICSPATH:;
#CDTITLE:League of Legends.png;
#MUSIC:MORE feat. Madison Beer, (G)I-DLE, Lexie Liu, Jaira Burns, Seraphine.ogg;
#OFFSET:0.000000;
#SAMPLESTART:54.084999;
#SAMPLELENGTH:12.000000;
#SELECTABLE:YES;
#DISPLAYBPM:71.000000:142.000000;
#BPMS:0.000=142.000,
128.000=71.000,
192.000=142.000,
196.000=71.000;
#STOPS:;
#DELAYS:;
#WARPS:;
#TIMESIGNATURES:0.000=4=4;
#TICKCOUNTS:0.000=4;
#COMBOS:0.000=1;
#SPEEDS:0.000=1.000=0.000=0;
#SCROLLS:0.000=1.000;
#FAKES:;
#LABELS:0.000=Song Start;
#BGCHANGES:0.000=MORE feat. Madison Beer, (G)I-DLE, Lexie Liu, Jaira Burns, Seraphine.avi=0.000=0=0=0=StretchNoLoop====,
99999=-nosongbg-=1.000=0=0=0 // don't automatically add -songbackground-
;
#KEYSOUNDS:;
#ATTACKS:
;

//---------------dance-single - ----------------
#NOTEDATA:;
#CHARTNAME:;
#STEPSTYPE:dance-single;
#DESCRIPTION:;
#CHARTSTYLE:;
#DIFFICULTY:Beginner;
#METER:1;
#RADARVALUES:0.055683,0.121187,0.127565,0.000000,0.000000,55.000000,37.000000,18.000000,0.000000,0.000000,0.000000,0.000000,0.000000,0.000000,0.055683,0.121187,0.127565,0.000000,0.000000,55.000000,37.000000,18.000000,0.000000,0.000000,0.000000,0.000000,0.000000,0.000000;
#CREDIT:;
#DISPLAYBPM:71.000000:142.000000;
#NOTES:
0000
0000
0000
0000
,
0000
0000
0000
0000
,
0000
0000
0000
0000
,
0000
0000
0000
0000
,
0000
0000
0000
0000
,
0000
0000
0000
0000
,
0000
0000
0000
0000
,
0000
0000
0000
0000
,
1000
0000
0000
0000
,
0000
0000
0000
0000
,
0001
0000
0000
0000
,
0000
0000
0000
0000
,
0001
0000
0000
0000
,
0000
0000
0000
0000
,
1000
0000
0000
0000
,
0000
0000
0000
0000
,
0100
0000
0000
0000
,
0000
0000
0000
0000
,
0100
0000
0000
0000
,
0000
0000
0000
0000
,
0010
0000
0000
0000
,
0000
0000
0000
0000
,
0010
0000
0000
0000
,
0000
0000
0000
0000
,
0110
0000
0000
0000
,
0000
0000
0000
0000
,
1000
0000
0000
0000
,
0000
0000
0000
0000
,
0001
0000
0000
0000
,
0000
0000
0000
0000
,
0100
0000
0000
0000
,
0000
0000
0000
0000
,
0110
0000
0000
0000
,
1001
0000
0000
0000
,
1001
0000
0000
0000
,
1010
0000
0000
0000
,
0101
0000
0000
0000
,
0110
0000
0000
0000
,
1001
0000
0000
0000
,
1100
0000
0000
0000
,
0000
0000
1000
0000
,
0000
0000
1000
0000
,
0000
0000
0001
0000
,
0000
0000
0001
0000
,
0000
0000
0100
0000
,
0000
0000
0100
0000
,
0000
0000
0001
0000
,
0000
0000
0010
0000
,
0000
0000
0000
0000
,
0110
0000
0000
0000
,
1010
0000
0000
0000
,
0101
0000
0000
0000
,
0110
0000
0000
0000
,
1010
0000
0000
0000
,
0101
0000
0000
0000
,
1001
0000
0000
0000
,
0110
0000
0000
0000
,
1001
0000
0000
0000
;

//---------------dance-single - ----------------
#NOTEDATA:;
#CHARTNAME:;
#STEPSTYPE:dance-single;
#DESCRIPTION:;
#CHARTSTYLE:;
#DIFFICULTY:Easy;
#METER:4;
#RADARVALUES:0.117441,0.161583,0.134652,0.007087,0.000000,116.000000,97.000000,19.000000,1.000000,0.000000,0.000000,0.000000,0.000000,0.000000,0.117441,0.161583,0.134652,0.007087,0.000000,116.000000,97.000000,19.000000,1.000000,0.000000,0.000000,0.000000,0.000000,0.000000;
#CREDIT:;
#DISPLAYBPM:71.000000:142.000000;
#NOTES:
0000
0000
0000
0000
,
0000
0000
0000
0000
,
0000
0000
0000
0000
,
0000
0000
0000
0000
,
0000
0000
0000
0000
,
0000
0000
0000
0000
,
0000
0000
0000
0000
,
0000
0000
0000
0000
,
1000
0000
1000
0000
,
1000
0000
0100
0000
,
0010
0000
0100
0000
,
0010
0000
0100
0000
,
0001
0000
0001
0000
,
0001
0000
0001
0000
,
0100
0000
0010
0000
,
0100
0000
0010
0000
,
1000
0000
0100
0000
,
0100
0000
0100
0000
,
0010
0000
0010
0000
,
0010
0000
0010
0000
,
0110
0000
0100
0000
,
0100
0000
0100
0000
,
1001
0000
1000
0000
,
1000
0000
1000
0000
,
1000
0000
0100
0000
,
0010
0000
0100
0000
,
0010
0000
0100
0000
,
1000
0000
0100
0000
,
1001
0000
0100
0000
,
0010
0000
0100
0000
,
1000
0000
0001
0000
,
1001
0000
0000
0000
,
1001
0000
1000
0000
,
0110
0000
0001
0000
,
1001
0000
1000
0000
,
1100
0000
0001
0000
,
0100
0000
0010
0000
,
0100
0000
1000
0000
,
0001
0000
0100
0000
,
0010
0000
0100
0000
,
0110
0000
1000
0000
,
1000
0000
0001
0000
,
0001
0000
0100
0000
,
0010
0000
0100
0000
,
0010
0000
0110
0000
,
0100
0000
0001
0000
,
1000
0000
0100
0000
,
0010
0000
0100
0000
,
0002
0000
0003
0000
,
1001
0000
1000
0000
,
1010
0000
0100
0000
,
0101
0000
0010
0000
,
0110
0000
1000
0000
,
1010
0000
0100
0000
,
0101
0000
0010
0000
,
0110
0000
0010
0000
,
1001
0000
0100
0000
,
0110
0000
0000
0000
;

//---------------dance-single - ----------------
#NOTEDATA:;
#CHARTNAME:;
#STEPSTYPE:dance-single;
#DESCRIPTION:;
#CHARTSTYLE:;
#DIFFICULTY:Medium;
#METER:7;
#RADARVALUES:0.309802,0.503839,0.042522,0.049609,0.127565,306.000000,300.000000,6.000000,7.000000,0.000000,0.000000,0.000000,0.000000,0.000000,0.309802,0.503839,0.042522,0.049609,0.127565,306.000000,300.000000,6.000000,7.000000,0.000000,0.000000,0.000000,0.000000,0.000000;
#CREDIT:;
#DISPLAYBPM:71.000000:142.000000;
#NOTES:
0000
0000
0000
0000
,
0000
0000
0000
0000
,
0000
0000
0000
0000
,
0000
0000
0000
0000
,
0000
0000
0000
0000
,
0000
0000
0000
0000
,
0000
0000
0000
0000
,
0000
0000
0000
0010
,
1000
0100
0010
0100
,
0010
0001
1000
0100
,
1000
0100
0010
0100
,
0010
0100
0010
0100
,
1000
0100
1000
0000
,
0100
0010
0100
0000
,
0100
0010
0010
0000
,
0100
1000
0100
0000
,
1000
0100
0100
0010
,
0100
0010
0100
0010
,
0001
0100
0010
1000
,
0100
1000
0100
1000
,
0100
0010
0100
0010
,
0100
0010
0010
0100
,
0010
0100
0010
0100
,
1000
0100
1000
0100
,
0202
0303
1000
0100
,
0010
0000
0100
0000
0010
0000
0100
0010
,
0200
0300
1000
0100
,
0010
0100
0010
0100
1000
0100
0010
0000
,
0100
0010
0100
0001
,
0010
0001
0010
0001
0010
0100
0100
1000
,
0000
1000
0000
0100
0000
1000
0100
0100
,
0000
0010
0000
0100
0000
0010
0000
0000
,
0110
0000
0100
0000
1000
0000
0100
0000
1000
0100
1000
0000
0100
0010
0100
0000
,
0100
0000
0100
0000
0010
0000
0100
0010
0100
0000
1000
0000
0100
0000
0010
0100
,
0001
0000
0000
0000
0100
0000
0010
0100
1000
0100
1000
0100
1000
0100
0010
0100
,
0010
0000
0100
0000
0010
0000
0001
0010
0001
0000
0100
0000
0010
0000
0001
0000
,
0010
0001
0010
0001
0010
0100
1000
0100
,
0010
0000
0100
0000
0001
0100
0001
0000
0010
0000
0100
0000
1000
0010
1000
0000
,
0100
0010
0100
0010
0001
0100
0010
0100
,
1000
0000
0100
0000
1000
0100
1000
0000
0100
0000
0010
0000
0100
0010
0100
0000
,
0220
0330
1001
0100
,
0010
0010
0100
1000
,
0100
0010
0100
0001
,
1000
0100
1000
0100
,
0010
0100
0110
0001
,
1000
0001
1000
0100
,
0010
0000
0100
0000
0010
0010
0010
0100
,
0010
0100
1000
0100
0010
0100
0010
0001
,
0100
0010
0100
0010
,
0220
0000
0330
0000
1000
0000
0100
0000
1000
0100
1000
0000
0100
0010
0100
0010
,
0001
0000
0100
0000
0010
0000
1000
0000
0100
0000
0010
0100
0010
0100
1000
0100
,
0010
0000
0100
0000
0010
0000
0001
0100
0001
0100
1000
0100
0010
0100
0010
0001
,
1000
0100
0010
0100
0010
0100
1000
0100
,
0100
0000
0010
1000
0100
0000
0100
0010
0100
0001
0100
0010
0000
0000
0100
0000
,
1000
0000
0100
0000
0001
0100
0010
0000
0100
0000
1000
0000
0100
1000
0100
0000
,
0100
0000
0010
0000
0100
0010
0100
0000
0010
0100
0010
1000
0000
0000
0100
0000
,
0001
0000
0100
0000
0010
0100
0010
0000
0001
0000
0100
0000
0001
0010
0001
0000
;

//---------------dance-single - ----------------
#NOTEDATA:;
#CHARTNAME:;
#STEPSTYPE:dance-single;
#DESCRIPTION:;
#CHARTSTYLE:;
#DIFFICULTY:Hard;
#METER:14;
#RADARVALUES:0.544684,0.846450,0.099218,0.191348,0.825632,538.000000,524.000000,14.000000,27.000000,0.000000,0.000000,0.000000,0.000000,0.000000,0.544684,0.846450,0.099218,0.191348,0.825632,538.000000,524.000000,14.000000,27.000000,0.000000,0.000000,0.000000,0.000000,0.000000;
#CREDIT:;
#DISPLAYBPM:71.000000:142.000000;
#NOTES:
// measure 0
0000
0000
0000
0000
,  // measure 1
0000
0000
0000
0000
,  // measure 2
0000
0000
0000
0000
,  // measure 3
0000
0000
0000
0000
,  // measure 4
0000
0000
0000
0000
,  // measure 5
0000
0000
0000
0000
,  // measure 6
0000
0000
0000
0000
,  // measure 7
0000
0000
0000
0000
0000
0000
0000
0000
0000
0000
0000
0000
1000
0100
1000
0100
,  // measure 8
1000
0000
0000
0000
0100
0010
0100
0010
0100
0000
0000
0000
0100
0010
0100
0010
,  // measure 9
0100
0000
0000
0000
0010
0001
0010
0001
0010
0000
0000
0000
0100
0010
0100
0010
,  // measure 10
0100
0000
0000
0000
1000
0100
1000
0100
1000
0000
0000
0000
1000
0010
0100
0010
,  // measure 11
0100
0010
1000
0100
0010
0000
0110
0000
,  // measure 12
0100
0000
0000
0000
0001
0000
0000
0000
0010
0000
0000
0000
1000
0000
0000
0000
0100
0000
0000
0000
0010
0000
0000
0000
0100
0000
0000
0000
0000
0000
0000
0000
0000
1000
0000
0000
0000
0000
0000
0000
0000
0000
0000
0000
0010
0000
0000
0000
,  // measure 13
0100
0000
0000
0000
0001
0000
0000
0000
1000
0000
0000
0000
0100
0000
0000
0000
0010
0000
0000
0000
0100
0000
0000
0000
0010
0000
0000
0000
0000
0000
0000
0000
0000
0001
0000
0000
0000
0000
0000
0000
0000
0000
0000
0000
0000
0000
0000
0000
,  // measure 14
0100
0000
0000
0000
1000
0000
0000
0000
0100
0000
0000
0000
1000
0000
0000
0000
0100
0000
0000
0000
0001
0000
0000
0000
0100
0000
0000
0000
0000
0000
0000
0000
0000
0001
0000
0000
0000
0000
0000
0000
0000
0000
0000
0000
0000
0000
0000
0000
,  // measure 15
1000
0000
0000
0000
0100
0000
0000
0000
1000
0000
0000
0000
0100
0000
0000
0000
1000
0000
0000
0000
0100
0000
0000
0000
1001
0000
0000
0000
0000
0000
0000
0000
0000
0110
0000
0000
0000
0000
0000
0000
0000
0000
0000
0000
0000
0000
0000
0000
,  // measure 16
0100
0010
0100
0010
0100
0010
0001
0100
1000
0000
0000
0001
,  // measure 17
0100
0010
0100
0010
0100
0010
0100
0010
0100
0000
0000
1000
,  // measure 18
0001
1000
0001
1000
0001
1000
0001
0100
0010
0000
0000
0010
,  // measure 19
0100
1000
0100
1000
0100
1000
0100
0010
0001
0100
1000
0001
,  // measure 20
0100
0010
0100
0010
0100
0010
0001
1000
0100
0010
1000
0100
,  // measure 21
0010
0001
0100
0010
1000
0100
0010
0001
1000
0100
1000
0100
,  // measure 22
1000
0001
1000
0001
0100
0010
0100
0010
0100
0010
0100
0010
,  // measure 23
0001
0010
0001
0010
0001
0010
1000
0100
1000
0100
1000
0100
,  // measure 24
0022
0000
0000
0033
,  // measure 25
2000
0000
3000
0010
0100
0000
0100
0010
,  // measure 26
0100
0001
1000
0001
,  // measure 27
0100
0010
0100
0010
1000
0100
0010
0100
,  // measure 28
0010
0000
0100
0000
0010
0000
0100
0010
,  // measure 29
1000
0000
0100
0000
0010
0000
0100
0000
0010
0000
0100
0000
0010
0000
0010
0100
,  // measure 30
0010
0100
0010
0100
1000
0100
1000
0100
1000
0100
0010
0100
0010
0100
0010
0001
,  // measure 31
0010
0001
1000
0100
1000
0100
1000
0100
1000
0100
2000
0000
3000
0000
0000
0000
,  // measure 32
2002
0000
3003
0000
0100
0000
0010
0100
1000
0100
0100
0010
0100
1000
0100
0010
,  // measure 33
0002
0000
0103
0000
0010
0100
1000
0100
0100
0010
1000
0100
1000
0100
1000
0100
,  // measure 34
2000
0000
3100
0000
0010
0000
0100
0010
0100
0010
0001
0010
0001
0010
0001
0010
,  // measure 35
0002
0000
0013
0000
0100
1000
0100
1000
0100
0000
0100
0000
0110
0000
0100
0000
,  // measure 36
0010
0000
0100
0010
1000
0000
0100
1000
0100
0100
1000
0100
0100
0000
0010
0000
,  // measure 37
0100
0000
0010
0000
0100
1000
0100
0000
0100
0000
0010
0000
0100
0010
0100
0000
,  // measure 38
1000
0100
1000
0100
1000
0100
0010
0001
0100
0001
0100
0001
0000
0000
0110
0000
,  // measure 39
0100
0000
1000
0000
0100
1000
0100
0000
0100
0000
0010
0000
0100
0010
0100
0000
,  // measure 40
0220
0000
0000
0330
2002
3003
2000
3000
,  // measure 41
1000
0100
1000
0100
1000
0100
0010
0100
0020
0000
0030
0000
0002
0000
0003
0000
,  // measure 42
0010
0001
0010
0001
0010
0001
0010
0001
0020
0000
0030
0000
0220
0000
0330
0000
,  // measure 43
1000
0100
1000
0100
1000
0100
1000
0100
2000
0000
3000
0000
0220
0000
0330
0000
,  // measure 44
2002
0000
3003
0000
0100
0100
0010
0100
0010
0001
0100
0001
0000
0100
0100
0010
,  // measure 45
0000
0100
1000
0100
0000
0010
0100
0010
0100
1000
0100
1000
0000
0010
0100
0010
,  // measure 46
0000
0100
0010
1000
0000
0000
0100
0010
0100
0010
0001
0100
0001
0100
0001
0010
,  // measure 47
1000
0000
0010
0000
1000
0000
0010
0000
1000
0000
0100
0000
0010
0000
0001
0000
1000
0100
1000
0100
1000
0100
1000
0100
1000
0100
1000
0100
0010
0100
0010
0100
,  // measure 48
0010
0100
0010
0100
0010
0100
0010
0100
1000
0100
1000
0100
1000
0100
1000
0100
,  // measure 49
1001
0000
1000
0000
0100
0000
1000
0100
1000
0100
0010
0100
0010
0100
0010
0001
,  // measure 50
2000
0000
3100
0000
0010
0100
0010
0100
0100
1000
1000
0100
0100
1000
0100
0100
,  // measure 51
0020
0000
0130
0000
0010
0000
0100
0010
0001
0010
0001
0010
0001
0010
0010
0100
,  // measure 52
0200
0000
1300
0000
0100
1000
0100
0100
0010
0000
0100
0000
0010
0100
1000
0100
,  // measure 53
0010
0000
0100
0010
0100
0000
1000
0100
1000
0100
0010
0100
0010
0000
1000
0000
,  // measure 54
0100
0000
1000
0000
0100
1000
0100
0000
0100
0000
1000
0000
0100
0010
0100
0000
,  // measure 55
0010
0100
0001
0100
0010
1000
0100
0010
0100
0010
0100
0010
0000
0000
1000
0000
,  // measure 56
0100
0000
0010
0000
0100
0010
0100
0000
0110
0000
1000
0000
0001
1000
0001
0000
;
