#VERSION:0.83;
#TITLE:MATADOR;
#SUBTITLE:;
#ARTIST:cranky;
#TITLETRANSLIT:;
#SUBTITLETRANSLIT:;
#ARTISTTRANSLIT:;
#GENRE:Rave;
#CREDIT:;
#MUSIC:MATADOR.ogg;
#BANNER:MATADOR.png;
#BACKGROUND:MATADOR-bg.png;
#CDTITLE:Wrland.png;
#SAMPLESTART:51.411;
#SAMPLELENGTH:12.000;
#SELECTABLE:YES;
#OFFSET:-1.411;
#BPMS:0.000=168.000;
#STOPS:;
#DISPLAYBPM:168.000;
#JACKET:MATADOR-jacket.png;
#BGCHANGES:;
#FGCHANGES:;

//--------------- dance-single - ----------------
#NOTEDATA:;
#STEPSTYPE:dance-single;
#DESCRIPTION:;
#DIFFICULTY:Beginner;
#METER:1;
#RADARVALUES:0,0,0,0,0;
#NOTES:
0000
0000
0000
0000
,
0000
0000
0000
0000
,
0000
0000
0000
0000
,
0000
0000
0000
0000
,
0000
0000
0000
0000
,
0000
0000
0000
0000
,
0000
0000
0000
0000
,
0000
0000
0000
0000
,
1000
0000
0000
0000
,
0000
0000
0000
0000
,
1000
0000
0000
0000
,
0000
0000
0000
0000
,
0001
0000
0000
0000
,
0000
0000
0000
0000
,
0001
0000
0000
0000
,
0000
0000
0000
0000
,
0100
0000
0000
0000
,
0000
0000
0000
0000
,
0100
0000
0000
0000
,
0000
0000
0000
0000
,
0010
0000
0000
0000
,
0000
0000
0000
0000
,
0010
0000
0000
0000
,
0000
0000
0000
0000
,
0110
0000
0000
0000
,
0000
0000
0000
0000
,
1001
0000
0000
0000
,
0000
0000
0000
0000
,
1100
0000
0000
0000
,
0000
0000
0000
0000
,
0011
0000
0000
0000
,
0000
0000
0000
0000
,
1100
0000
0000
0000
,
0000
0000
0000
0000
,
1001
0000
0000
0000
,
0110
0000
0000
0000
,
0000
0000
0000
0000
,
0010
0000
0000
0000
,
0000
0000
0000
0000
,
0100
0000
0000
0000
,
0000
0000
0000
0000
,
0010
0000
0000
0000
,
0000
0000
0000
0000
,
0001
0000
0000
0000
,
0000
0000
0000
0000
,
1000
0000
0000
0000
,
0000
0000
0000
0000
,
0001
0000
0000
0000
,
0000
0000
0000
0000
,
1000
0000
0000
0000
,
0000
0000
0000
0000
,
0001
0000
0000
0000
,
0000
0000
0000
0000
,
0100
0000
0000
0000
,
0000
0000
0000
0000
,
0010
0000
0000
0000
,
0000
0000
0000
0000
,
0100
0000
0000
0000
,
0000
0000
0000
0000
,
0010
0000
0000
0000
,
0000
0000
0000
0000
,
1000
0000
0000
0000
,
0000
0000
0000
0000
,
0100
0000
0000
0000
,
0000
0000
0000
0000
,
0001
0000
0000
0000
,
0000
0000
0000
0000
,
0110
0000
0000
0000
,
0000
0000
0000
0000
,
1001
0000
0000
0000
,
0000
0000
0000
0000
,
0100
0000
0000
0000
,
0000
0000
0000
0000
,
0010
0000
0000
0000
,
0000
0000
0000
0000
,
0100
0000
0000
0000
,
0000
0000
0000
0000
,
1001
0000
0000
0000
,
1000
0000
0000
0000
,
0000
0000
0000
0000
,
0010
0000
0000
0000
,
0000
0000
0000
0000
,
0100
0000
0000
0000
,
0000
0000
0000
0000
,
0001
0000
0000
0000
,
0000
0000
0000
0000
,
0110
0000
0000
0000
,
0000
0000
0000
0000
,
1001
0000
0000
0000
,
0000
0000
0000
0000
,
0110
0000
0000
0000
,
0000
0000
0000
0000
,
1001
0000
0000
0000
,
0000
0000
0000
1001
;

//--------------- dance-single - ----------------
#NOTEDATA:;
#STEPSTYPE:dance-single;
#DESCRIPTION:;
#DIFFICULTY:Easy;
#METER:3;
#RADARVALUES:0,0,0,0,0;
#NOTES:
0000
0000
0000
0000
,
0000
0000
0000
0000
,
0000
0000
0000
0000
,
0000
0000
0000
0000
,
0000
0000
0000
0000
,
0000
0000
0000
0000
,
0000
0000
0000
0000
,
0000
0000
0000
0000
,
1000
0000
0000
0000
,
1000
0000
0000
0000
,
0001
0000
0000
0000
,
0001
0000
0000
0000
,
1000
0000
0000
0000
,
1000
0000
0000
0000
,
0001
0000
0000
0000
,
0001
0000
0000
0000
,
0100
0000
0000
0000
,
0100
0000
0000
0000
,
0010
0000
0000
0000
,
0010
0000
0000
0000
,
0100
0000
0000
0000
,
0100
0000
0000
0000
,
0010
0000
0000
0000
,
0010
0000
0000
0000
,
0100
0000
0000
0000
,
1000
0000
0000
0000
,
0100
0000
0000
0000
,
1000
0000
0000
0000
,
0010
0000
0000
0000
,
0001
0000
0000
0000
,
0010
0000
0000
0000
,
0110
0000
0000
0000
,
1001
0000
0000
0000
,
0110
0000
0000
0000
,
2002
0000
3003
0000
,
1001
0000
0000
0000
,
1000
0000
0000
0000
,
1001
0000
0000
0000
,
0001
0000
0000
0000
,
0110
0000
0000
0000
,
0010
0000
0000
0000
,
0101
0000
0000
0000
,
0100
0000
0000
0000
,
1010
0000
0000
0000
,
0010
0000
0000
0000
,
1001
0000
0000
0000
,
1000
0000
0000
0000
,
0101
0000
0000
0000
,
0100
0000
0000
0000
,
0110
0000
0000
0000
,
0010
0000
0000
0000
,
1000
0000
0000
0000
,
0100
0000
0000
0000
,
1000
0000
0000
0000
,
0100
0000
0000
0000
,
0010
0000
0000
0000
,
0100
0000
0000
0000
,
0010
0000
0000
0000
,
0100
0000
0000
0000
,
0001
0000
0000
0000
,
1000
0000
0000
0000
,
0001
0000
0000
0000
,
1000
0000
0000
0000
,
0100
0000
0000
0000
,
0010
0000
0000
0000
,
0001
0000
0000
0000
,
1000
0000
0000
0000
,
0100
0000
0000
0000
,
0010
0000
0000
0000
,
0100
0000
0000
0000
,
0010
0000
0000
0000
,
0001
0000
0000
0000
,
1000
0000
0000
0000
,
0001
0000
0000
0000
,
1001
0000
0000
0000
,
0110
0000
0000
0000
,
1010
0000
0000
0000
,
0220
0000
0330
0000
,
1001
0000
0000
0000
,
1000
0000
0000
0000
,
0110
0000
0000
0000
,
0010
0000
0000
0000
,
0101
0000
0000
0000
,
0100
0000
0000
0000
,
1010
0000
0000
0000
,
1000
0000
0000
0000
,
1100
0000
0000
0000
,
0100
0000
0000
0000
,
0110
0000
0000
0000
,
0010
0000
0000
0000
,
0101
0000
0000
0000
,
0010
0000
0000
0000
,
1001
0000
0000
0000
,
1000
0000
0000
1001
;

//--------------- dance-single - ----------------
#NOTEDATA:;
#STEPSTYPE:dance-single;
#DESCRIPTION:;
#DIFFICULTY:Medium;
#METER:9;
#RADARVALUES:0,0,0,0,0;
#NOTES:
0000
0000
0000
0000
,
0000
0000
0000
0000
,
0000
0000
0000
0000
,
0000
0000
0000
0000
,
0000
0000
0000
0000
,
0000
0000
0000
0000
,
0000
0000
0000
0000
,
0000
0000
0000
0000
,
0100
0010
0100
0010
,
0100
1000
0110
0000
,
1000
0001
0100
0010
,
1000
0010
0101
0000
,
1000
0010
0100
0100
,
0010
0001
1100
0000
,
0001
0100
1000
0100
,
0001
0010
1001
0000
,
1001
0010
0100
1000
,
0010
0100
0010
0101
,
0100
0010
1000
0010
,
0100
1000
0100
1000
,
0110
1000
0001
0010
,
0100
0001
0100
0001
,
1001
0100
1000
0010
,
0100
1000
0100
1000
,
0110
1000
0100
1000
,
0100
1000
0100
0010
,
0110
0001
0100
0001
,
0010
0100
1000
0100
,
1100
0100
0010
0100
,
0010
0100
0001
0100
,
0110
1000
0100
1000
,
1001
0000
1000
0010
0100
0000
1100
0010
,
0100
0000
0010
0001
0110
0000
1000
0010
,
1100
0000
0001
1000
0101
0000
0010
0100
,
2002
3003
0110
1001
,
0100
0000
0010
0000
0100
1000
0100
1000
,
0100
0000
0010
0000
0100
0010
0100
0010
,
0100
0000
1000
0000
0100
0010
0001
0100
,
0001
0000
0100
0000
0010
0100
0010
0100
,
0010
0000
0001
0000
0010
0001
0010
0001
,
0010
0000
0100
0000
1000
0100
1000
0100
,
1000
0000
0100
0000
0010
0100
0010
0100
,
1000
0100
1000
0100
1000
0100
0010
0000
,
0100
0000
0010
0000
0100
0010
0100
0010
,
1000
0000
0100
0000
0100
0010
0100
0010
,
0001
0000
0100
0000
0001
0100
0010
0100
,
1000
0000
0100
0000
1000
0100
1000
0100
,
0010
0000
0100
0000
0010
0100
1000
0100
,
0010
0000
0100
0000
0010
0100
0010
0100
,
0010
0000
0001
1000
0100
0010
1000
0100
,
0110
0000
0000
1010
0000
0000
0220
0000
0000
0000
0000
0000
0330
0000
0000
0000
,
0100
0010
0100
0010
0100
0010
0100
1000
,
0100
1000
0100
1000
0200
0000
0300
0000
,
0100
0010
0100
0010
0100
0010
0100
0010
,
0100
0010
0100
0010
0002
0000
0003
0000
,
1000
0100
1000
0100
1000
0100
1000
0100
,
1000
0100
1000
0100
2000
0000
3000
0000
,
0010
0100
0010
0100
0010
0100
0010
0100
,
0010
0100
0010
0100
0020
0000
0030
0000
,
0001
0010
0100
1000
0100
1000
0100
1000
,
0100
1000
0100
0010
0200
0000
0300
0000
,
1000
0001
1000
0001
1000
0001
1000
0001
,
1000
0001
1000
0001
2000
0000
3000
0000
,
0001
0010
0001
0010
0001
0010
0001
0010
,
0001
0010
0001
0010
0002
0000
0003
0000
,
0100
0010
0100
0010
0100
0010
0100
0010
,
0100
0010
0100
0010
0200
0000
0300
0000
,
1000
0000
0100
0000
0010
0100
0010
0100
,
1000
0000
0100
0000
0010
0100
0010
0100
,
0100
0000
1000
0000
0100
1000
0100
1000
,
0100
0010
0001
0100
0010
0100
0010
0000
,
0001
0000
0100
0000
0001
0100
0001
1000
,
0100
0000
0010
0000
0100
0010
0100
0100
,
1000
0100
0010
0100
0010
0100
0010
0100
,
0110
0000
0000
1010
1010
0000
0000
0101
,
0101
0000
0000
1010
1010
0000
0000
0100
,
0010
0100
0010
1000
0100
0010
0010
1001
,
0220
0000
0330
1001
,
1000
0000
0100
0000
1000
0100
1000
0100
,
1000
0000
0100
0000
0010
0100
0010
0100
,
0010
0000
0001
0000
1000
0001
1000
0001
,
1000
0000
0100
0000
0010
0100
0010
0100
,
0010
0000
1000
0000
0100
1000
0100
1000
,
0100
0000
0100
0000
0010
0100
0010
0100
,
0010
0000
0001
0000
0100
0001
0100
0001
,
0100
0000
1000
0000
0100
1000
0100
0010
,
0100
0000
0010
0000
0100
0010
0100
0010
,
0100
0000
1000
0000
0100
1000
0100
1000
,
0100
0000
0100
0000
0010
0100
0010
0100
,
0010
0000
0001
0000
0100
0001
0100
0001
,
1000
0000
0100
0000
1000
0100
1000
0100
,
1000
0000
0100
0000
0010
0100
0010
0100
,
0010
0000
0001
0000
0100
0001
0100
0001
,
1001
0000
0000
0110
0000
0000
1001
0000
0000
0000
0000
0000
0110
0000
0000
0000
;

//--------------- dance-single - ----------------
#NOTEDATA:;
#STEPSTYPE:dance-single;
#DESCRIPTION:;
#DIFFICULTY:Hard;
#METER:12;
#RADARVALUES:0,0,0,0,0;
#NOTES:
0000
0000
0000
0000
,
0000
0000
0000
0000
,
0000
0000
0000
0000
,
0000
0000
0000
0000
,
0000
0000
0000
0000
,
0000
0000
0000
0000
,
0000
0000
0000
0000
,
0000
0000
0000
0000
,
0100
0000
0010
0000
0100
0010
1000
0100
,
0100
0000
0010
0000
0100
0010
0100
0000
,
0001
0000
1000
0001
1000
0100
0010
0100
,
0010
0000
0100
0000
0010
0100
1000
0000
,
0100
0000
0010
0100
0000
0010
0100
0010
,
1000
0100
0010
0100
0010
0100
0010
0000
,
1000
0000
0100
1000
0000
0100
0100
1000
,
0100
1000
0100
1000
0100
0010
0100
0000
,
0010
0000
1000
0100
0000
1000
0000
0100
,
1000
0100
1000
0100
1000
0100
1000
0000
,
0100
0000
0010
0100
0000
0010
0000
0100
,
0010
0001
1000
0001
1000
0001
1000
0000
,
0100
0000
0010
0100
0000
0010
0000
0100
,
0010
0100
0010
1000
0100
0010
0100
0000
,
0010
0000
0100
0010
0000
0001
1000
0000
,
0001
1000
0000
0100
0010
0100
0010
0100
,
1000
0000
0100
0010
0000
0100
0000
0010
,
0100
0010
1000
0100
0010
0100
0010
0000
,
0100
0000
1000
0100
0000
1000
0000
0100
,
0010
0001
0010
0010
0001
1000
0100
0000
,
0010
0000
0100
0010
0000
1000
0000
0100
,
0010
0100
0010
0100
1000
0100
0010
0000
,
0100
0010
0100
0001
0010
1000
0100
0001
0010
0100
0010
0100
0010
1000
0100
0010
,
1001
0100
0010
0100
1000
0010
0101
1000
0011
0100
0010
0100
1000
0001
0110
0000
,
0110
0000
0010
0100
0010
0000
1100
0000
1010
0000
0010
0100
0010
0000
0101
0000
,
0011
0000
1000
0100
1000
0000
0110
0000
1010
0000
0100
0010
0100
0000
0010
0000
,
0100
0000
0000
0000
0000
0000
0000
0000
0000
0100
0000
0000
0000
0000
0000
0000
0100
0000
0000
0000
1000
0000
0000
0000
0110
0000
0000
0000
0000
0000
1001
0000
0000
0000
0000
0000
0220
0000
0000
0000
0000
0000
0330
0000
0000
0000
0000
0000
,
0100
0000
0000
0000
0010
0000
0000
1000
0100
0000
1000
0000
0100
0000
0100
0000
,
0100
0000
0000
0000
0010
0000
0000
0100
0010
0000
0100
0000
0010
0000
0100
0000
,
1000
0000
0000
0000
0100
0000
0000
1000
0100
0000
1000
0000
0100
0000
1000
0000
,
0100
0000
0000
0000
0100
0000
0000
0010
0100
0000
0010
0000
0100
0000
0010
0000
,
0100
0000
0000
0000
0010
0000
0000
0001
0010
0000
0001
0000
0010
0000
0001
0000
,
0010
0000
0000
0000
0100
0000
0000
0100
1000
0000
0100
0000
1000
0000
0100
0000
,
1000
0000
0000
0000
0100
0000
0000
0010
0100
0000
0010
0000
0001
0000
0010
0000
,
0100
1000
0100
1000
0100
1000
0100
1000
0100
0000
0000
0000
1001
0000
0010
0000
,
0100
0000
0000
0000
0100
0000
0000
0010
1000
0000
0100
0000
0100
0000
1000
0000
,
0100
0000
0000
0000
0010
0000
0000
1000
0100
0000
0010
0000
1000
0000
0100
0000
,
0100
0000
0000
0000
0010
0000
0000
0100
0010
0000
0100
0000
1000
0000
0100
0000
,
1000
0000
0000
0000
0001
0000
0000
1000
0001
0000
1000
0000
1000
0000
0100
0000
,
0010
0000
0000
0000
0100
0000
0000
0010
0100
0000
1000
0000
0100
0000
1000
0000
,
0100
0000
0000
0000
0100
0000
0000
0010
0100
0000
0010
0000
0100
0000
0010
0000
,
0001
0000
0000
0000
0010
0000
0000
1000
0100
0000
1000
0000
0100
0000
0010
0000
,
0110
0000
0000
1001
0000
0000
0110
0000
0000
0000
1001
0000
0110
0000
1000
0001
,
0100
0010
0100
0010
0100
0010
0100
0010
0100
1000
0100
1000
0100
0010
0100
0010
,
0100
0010
0001
0010
0100
1000
0100
1000
0100
1000
0100
1000
0100
1000
0100
1000
,
0100
0010
0100
0010
0100
0010
0100
0010
0001
0010
0001
0010
0001
0010
0100
1000
,
0100
1000
0100
1000
0100
1000
0100
0010
0100
0010
0100
0010
0001
0010
0100
0010
,
0100
0010
0100
1000
0100
1000
0100
1000
0100
1000
0100
1000
0100
0010
0100
0010
,
0100
0010
0100
0010
0001
0010
0001
0010
0001
0010
0001
0010
0100
1000
0100
1000
,
0100
1000
0100
0010
0100
0010
0100
0010
0100
0010
0001
0010
0001
0010
0001
0010
,
0001
0010
0100
0010
0100
0010
0100
1000
0100
0000
0010
0000
0100
0000
0010
0001
,
0100
1000
0100
0010
0100
0010
0100
0010
0001
0010
0001
0010
0100
1000
0100
1000
,
0100
1000
0100
1000
0100
0010
0100
0010
0100
0010
0100
0010
0100
0010
0100
0010
,
0100
0010
0100
0010
0100
0010
0001
0010
0001
0010
0001
0010
0100
1000
0100
1000
,
0100
1000
0100
1000
0100
1000
0100
1000
0100
1000
0100
1000
0100
1000
0100
1000
,
0100
0010
0100
0010
0100
0010
0100
0010
0100
0010
0100
0010
0100
0010
0100
0010
,
0100
0010
0100
0010
0100
0010
0100
0010
0100
0010
0100
0010
0001
0010
0001
0010
,
0001
0010
0100
1000
0100
1000
0100
1000
0100
0010
0100
0010
0100
0001
1000
0001
,
0010
0100
0010
0100
0010
0100
0010
0100
0010
0000
1010
0000
0101
0000
0000
0000
,
0100
0000
0000
0000
1000
0000
0000
0010
0100
0000
0100
0000
0010
0000
1000
0000
,
0100
0000
0000
0000
0100
0000
0000
0010
1000
0000
0100
0000
0010
0000
0100
0000
,
0010
0000
0000
0000
0001
0000
0000
1000
0001
0000
1000
0000
0100
0000
0010
0000
,
0100
0000
0000
0000
0010
0000
0000
0100
0010
0000
1000
0000
0100
0000
0010
0000
,
0100
0000
0000
0000
0010
0000
0000
0100
0010
0000
1000
0000
0100
0000
0010
0100
,
0010
0000
0000
0000
0100
1000
0100
1000
0100
0000
0001
0000
1000
0000
0001
0000
,
0100
0010
0100
0010
0100
0010
0100
0010
0100
0010
0100
0010
0100
0001
1000
0010
,
0220
0000
0330
1001
2200
0000
3300
0110
,
0202
0000
0303
0101
2020
0000
3030
0011
,
2200
0000
3300
1001
0220
0000
0330
0011
,
1100
0000
0000
0000
0000
0000
0000
0000
0000
0010
0000
0000
0000
0000
0000
0000
0100
0000
0000
0000
0010
0000
0000
0000
1000
0000
0000
0000
0000
0000
0001
0000
0000
0000
0000
0000
1000
0000
0000
0000
0000
0000
0100
0000
0000
0000
0000
0000
,
0010
0000
0000
0000
0100
0000
0000
0010
0100
0000
0010
0000
0100
0000
0010
0000
,
1000
0000
0000
0000
0100
0000
0000
1000
0100
0000
1000
0000
0100
0000
1000
0000
,
0100
0000
0000
0000
0010
0000
0000
0100
0010
0000
1000
0000
0100
0000
0010
0000
,
0100
0000
0000
0000
0010
0000
0000
0100
1000
0000
0100
0000
1000
0000
0100
0000
,
0010
0000
0000
0000
0001
0000
0000
0010
0001
0000
0010
0000
0001
0000
0010
0000
,
1000
0000
0000
0000
0100
0000
0000
0010
0100
0000
0001
0000
0010
0000
0001
0000
,
0100
0000
0000
0000
1000
0000
0000
0010
0100
0000
1000
0000
0100
0000
0010
0000
,
0001
0010
0001
0010
0001
0010
0001
0010
0001
0000
0000
0000
1001
0000
0110
0000
,
0100
0000
0000
0000
1000
0000
0000
0010
0100
0000
0010
0000
0100
0000
0010
0000
,
0100
0000
0000
0000
1000
0000
0000
0100
1000
0000
0100
0000
1000
0000
0100
0000
,
0010
0000
0000
0000
0001
0000
0000
0010
0001
0000
0010
0000
0001
0000
0010
0000
,
0100
0000
0000
0000
0010
0000
0000
0100
0010
0000
0100
0000
1000
0000
0100
0000
,
0010
0000
0000
0000
0100
0000
0000
0010
0100
0000
0010
0000
1000
0000
0100
0000
,
0100
0000
0000
0000
1000
0000
0000
0100
0010
0000
0100
0000
0010
0000
0001
0000
,
0100
0000
0000
0000
1000
0000
0000
0001
0100
0000
0010
0000
0100
0000
0010
0000
,
0101
0000
0000
0110
0000
0000
1001
0000
0000
0000
0110
0000
1001
0000
0000
0000
;
