#VERSION:0.83;
#TITLE:Let Me Know;
#SUBTITLE:;
#ARTIST:픽시;
#TITLETRANSLIT:;
#SUBTITLETRANSLIT:;
#ARTISTTRANSLIT:PIXY;
#GENRE:K-Pop;
#ORIGIN:;
#CREDIT:;
#BANNER:Let Me Know.png;
#BACKGROUND:Let Me Know-bg.png;
#PREVIEWVID:;
#JACKET:Let Me Know-jacket.png;
#CDIMAGE:;
#DISCIMAGE:;
#LYRICSPATH:;
#CDTITLE:Wrland.png;
#MUSIC:Let Me Know.ogg;
#OFFSET:-1.007000;
#SAMPLESTART:62.942001;
#SAMPLELENGTH:12.000;
#SELECTABLE:YES;
#DISPLAYBPM:77.000000:155.000000;
#BPMS:0.000=77.500,
72.000=155.000,
88.000=77.500,
144.000=155.000,
168.000=77.500;
#STOPS:;
#DELAYS:;
#WARPS:;
#TIMESIGNATURES:0.000=4=4;
#TICKCOUNTS:0.000=4;
#COMBOS:0.000=1;
#SPEEDS:0.000=1.000=0.000=0;
#SCROLLS:0.000=1.000;
#FAKES:;
#LABELS:0.000=Song Start;
#BGCHANGES:0.000=Let Me Know.avi=1.000=0=0=0=StretchNoLoop====,
99999=-nosongbg-=1.000=0=0=0 // don't automatically add -songbackground-
;
#KEYSOUNDS:;
#ATTACKS:
;

//---------------dance-single - ----------------
#NOTEDATA:;
#CHARTNAME:;
#STEPSTYPE:dance-single;
#DESCRIPTION:;
#CHARTSTYLE:;
#DIFFICULTY:Beginner;
#METER:1;
#RADARVALUES:0.049387,0.103712,0.082970,0.000000,0.000000,50.000000,38.000000,12.000000,0.000000,0.000000,0.000000,0.000000,0.000000,0.000000,0.049387,0.103712,0.082970,0.000000,0.000000,50.000000,38.000000,12.000000,0.000000,0.000000,0.000000,0.000000,0.000000,0.000000;
#CREDIT:;
#DISPLAYBPM:77.000000:155.000000;
#NOTES:
0000
0000
0000
0000
,
0000
0000
0000
0000
,
0000
0000
0000
0000
,
0000
0000
0000
0000
,
1000
0000
0000
0000
,
0010
0000
0000
0000
,
1000
0000
0000
0000
,
0100
0000
0000
0000
,
0001
0000
0000
0000
,
0010
0000
0000
0000
,
0100
0000
0000
0000
,
0010
0000
0000
0000
,
0110
0000
0000
0000
,
1000
0000
0000
0000
,
0001
0000
0000
0000
,
1000
0000
0000
0000
,
0100
0000
0000
0000
,
0010
0000
0000
0000
,
0100
0000
0000
0000
,
0000
0000
0000
0000
,
0001
0000
0000
0000
,
0000
0000
0000
0000
,
1001
0000
0000
0000
,
1000
0000
0000
0000
,
0100
0000
0000
0000
,
0010
0000
0000
0000
,
0100
0000
0000
0000
,
0010
0000
0000
0000
,
0110
0000
0000
0000
,
1000
0000
0000
0000
,
1001
0000
0000
0000
,
0000
0000
0000
0000
,
0000
0000
0000
0000
,
0000
0000
0000
0000
,
0000
0000
0000
0000
,
1000
0000
0000
0000
,
0001
0000
0000
0000
,
0000
0000
0000
0000
,
0100
0000
0000
0000
,
0000
0000
0000
0000
,
0110
0000
0000
0000
,
0000
0000
0000
0000
,
1000
0000
0000
0000
,
0001
0000
0000
0000
,
0110
0000
0000
0000
,
1001
0000
0000
0000
,
1100
0000
0000
0000
,
0011
0000
0000
0000
,
1001
0000
0000
0000
,
0110
0000
0000
0000
,
1001
0000
0000
0000
;

//---------------dance-single - ----------------
#NOTEDATA:;
#CHARTNAME:;
#STEPSTYPE:dance-single;
#DESCRIPTION:;
#CHARTSTYLE:;
#DIFFICULTY:Easy;
#METER:3;
#RADARVALUES:0.080007,0.120998,0.089884,0.013828,0.000000,81.000000,68.000000,13.000000,2.000000,0.000000,0.000000,0.000000,0.000000,0.000000,0.080007,0.120998,0.089884,0.013828,0.000000,81.000000,68.000000,13.000000,2.000000,0.000000,0.000000,0.000000,0.000000,0.000000;
#CREDIT:;
#DISPLAYBPM:77.000000:155.000000;
#NOTES:
0000
0000
0000
0000
,
0000
0000
0000
0000
,
0000
0000
0000
0000
,
0000
0000
0000
0000
,
1000
0000
0010
0000
,
0100
0000
1000
0000
,
0100
0000
0001
0000
,
0100
0000
1000
0000
,
0100
0000
0010
0000
,
0100
0000
1000
0000
,
0001
0000
1000
0000
,
0100
0000
1000
0000
,
0100
0000
0000
0000
,
0010
0000
0000
0000
,
0001
0000
0000
0000
,
1000
0000
0000
0000
,
0100
0000
0000
0000
,
0010
0000
0000
0000
,
0100
0000
0000
0000
,
0000
0000
0000
0000
,
0010
0000
0000
0000
,
0110
0000
0000
0000
,
1001
0000
1000
0000
,
0000
0110
0000
0000
0010
0000
0000
0000
,
1000
0000
0001
0000
,
1000
0000
0001
0000
,
1001
0000
0100
0000
,
0110
0000
0010
0000
,
0001
0000
0010
0000
,
0100
0000
1000
0000
,
0000
0110
1001
0000
,
0000
0000
1000
0000
,
0000
0000
0100
0000
,
0000
0000
1000
0000
,
0000
0000
0010
0000
,
0000
0000
0100
0000
,
0000
0000
0000
0000
,
0001
0000
0000
0000
,
0000
0000
0000
0000
,
1000
0000
0000
0000
,
2002
0000
0000
0000
,
3003
0000
0000
0000
,
0110
0000
0010
0000
,
0000
1001
0000
0000
0100
0000
0000
0000
,
1000
0000
0100
0000
,
0010
0000
0100
0000
,
0110
0000
0001
0000
,
0000
1000
0000
0000
0100
0000
0000
0000
,
0110
0000
1000
0000
,
0100
0000
0010
0000
,
1001
0000
0000
0000
;

//---------------dance-single - ----------------
#NOTEDATA:;
#CHARTNAME:;
#STEPSTYPE:dance-single;
#DESCRIPTION:;
#CHARTSTYLE:;
#DIFFICULTY:Medium;
#METER:5;
#RADARVALUES:0.300272,0.452790,0.013828,0.000000,0.145197,304.000000,302.000000,2.000000,0.000000,0.000000,0.000000,0.000000,0.000000,0.000000,0.300272,0.452790,0.013828,0.000000,0.145197,304.000000,302.000000,2.000000,0.000000,0.000000,0.000000,0.000000,0.000000,0.000000;
#CREDIT:;
#DISPLAYBPM:77.000000:155.000000;
#NOTES:
0000
0000
0000
0000
,
0000
0000
0000
0000
,
0000
0000
0000
0000
,
0000
0000
0000
0000
,
1000
0000
0001
0000
0100
0010
0100
0000
,
0100
0000
0010
0000
0001
0010
0001
0000
,
1000
0100
0010
0100
0010
0100
0010
0001
,
1000
0000
0100
0000
0010
0100
0010
0000
,
1000
0100
1000
0000
0100
0010
0100
0000
,
0001
0010
0001
0000
0010
0100
0010
0000
,
1000
0100
0010
0000
0100
0010
0001
0000
,
0100
0010
0100
0000
1000
0100
1000
0000
,
0100
0010
0100
0000
,
0010
0001
0010
0000
,
0100
0001
0100
0000
,
1000
0000
0010
0000
1000
0010
1000
0100
,
0100
0010
0100
0001
,
0010
0100
0010
0100
,
0010
0010
0100
0100
,
1000
1000
0100
0100
,
0100
0010
0100
0010
0001
0000
0100
0000
,
1000
0100
1000
0100
0010
0000
0001
0000
,
0100
0000
0010
0100
0010
0000
0100
0000
1000
0100
1000
0100
0010
0000
0001
0000
,
0000
0000
0100
0010
0100
0000
0010
0000
0001
0100
0001
0100
0001
0000
0010
0000
,
0100
1000
0100
0010
0100
0000
0010
0000
0100
0000
0010
0000
0100
0000
0000
0000
,
1000
0100
1000
0000
0100
0010
0100
0000
,
0100
0000
0010
0100
0010
0001
0100
0010
,
0100
0000
1000
0100
0010
0100
0010
0100
,
1001
0100
0010
0001
0100
0000
0010
0001
1000
0010
0100
0000
0010
0000
0001
1000
,
0100
0001
0000
0010
0100
0000
1000
0000
0100
0010
0001
1000
0010
0000
0100
0000
,
0010
0000
0100
0010
1000
0000
0100
0000
,
0100
0010
0100
0010
,
0100
0000
0100
1000
,
0100
0010
0100
0001
,
0100
0010
1000
1000
,
0001
0001
1000
1000
,
0001
0000
0001
0000
,
0100
0100
0010
0010
,
0100
0100
0010
0010
,
0100
0001
1000
0100
0010
0100
0010
0100
,
0010
0000
1000
0000
,
0100
0010
0100
0010
0001
0100
0010
0100
,
1000
0000
0100
0010
0100
0000
0010
0000
1000
0100
1000
0100
1000
0000
0100
0000
,
0000
0000
0100
0010
0100
0000
0010
0000
0001
0100
0010
0100
0010
0000
0100
0000
,
1000
0100
0010
0001
0100
0000
0010
0000
0100
0000
0010
0000
0100
0000
0000
0000
,
1000
0100
1000
0100
0000
0000
0100
0010
0100
0010
0000
0000
0100
0000
0010
0000
,
0001
0000
0100
0010
0100
0000
1000
0000
0100
1000
0100
1000
0100
0000
0100
0000
,
0000
0000
0010
0100
0010
0000
0001
0000
0100
0010
0100
0010
0100
0000
0100
0000
,
1001
0100
0010
0100
0010
0000
0100
0000
1000
0100
0010
0000
0001
0000
0100
0000
,
0010
0100
0000
0010
0100
0000
0010
0000
0001
1000
0001
1000
0001
0000
0100
0000
,
0010
0000
1000
0001
0000
0000
0000
0000
;

//---------------dance-single - ----------------
#NOTEDATA:;
#CHARTNAME:;
#STEPSTYPE:dance-single;
#DESCRIPTION:;
#CHARTSTYLE:;
#DIFFICULTY:Hard;
#METER:12;
#RADARVALUES:0.486953,0.557280,0.096798,0.138283,0.528932,493.000000,479.000000,14.000000,20.000000,0.000000,0.000000,0.000000,0.000000,0.000000,0.486953,0.557280,0.096798,0.138283,0.528932,493.000000,479.000000,14.000000,20.000000,0.000000,0.000000,0.000000,0.000000,0.000000;
#CREDIT:;
#DISPLAYBPM:77.000000:155.000000;
#NOTES:
// measure 0
0000
0000
0000
0000
,  // measure 1
0000
0000
0000
0000
,  // measure 2
0000
0000
0000
0000
,  // measure 3
0000
0000
0000
0000
,  // measure 4
0100
0000
0010
0100
0010
0000
1000
0100
1000
0100
0010
0100
0010
0000
0001
0000
,  // measure 5
0100
0000
0010
0100
0010
0000
1000
0100
1000
0100
0010
0100
0010
0000
0010
0000
,  // measure 6
0100
0000
0010
0000
0001
0000
0100
0000
0010
0000
1000
0000
0100
0010
0100
0010
,  // measure 7
0001
0100
0010
0100
1000
0000
0100
0010
0100
0010
0001
1000
0100
0010
0100
0010
,  // measure 8
0100
0000
0010
0001
0000
0000
0010
0000
1000
0000
0000
0000
0100
0000
0010
0000
0100
0000
0010
0000
1000
0000
0100
0000
0010
0000
0000
0000
0100
0000
0010
0000
,  // measure 9
0100
0000
0010
0100
0000
0000
1000
0000
0010
0000
0000
0000
0100
0000
0010
0000
0100
0000
0010
0000
0100
0000
0010
0000
1000
0000
0000
0000
0100
0000
0010
0000
,  // measure 10
0100
0010
0001
0100
0001
0100
0000
0100
1000
0100
0010
0100
0000
0010
0100
0010
,  // measure 11
0001
1000
0000
0000
0001
1000
0000
0000
0100
0000
0000
0000
0100
0000
0010
0000
0100
0010
0000
0000
0100
0010
0000
0000
1000
0000
0000
0000
0100
0000
0000
0000
,  // measure 12
0010
0000
0100
0010
1000
0000
0100
0001
0020
0000
0030
0000
0100
0000
0010
1000
,  // measure 13
0100
0000
0020
0000
0030
0100
0010
0200
0000
0300
1000
0000
0100
0000
0010
0200
,  // measure 14
0300
0000
0100
0010
0001
0000
0100
0002
0000
0000
0003
0000
0010
0000
0100
0000
,  // measure 15
0010
0000
0100
0000
0010
0000
0001
0000
1000
0001
1000
0001
1000
0000
1001
0000
,  // measure 16
0100
0000
0010
0100
0010
0100
0010
0100
0001
0000
1001
0000
0100
0000
0010
0100
,  // measure 17
0010
0000
0100
0000
0010
0100
0010
1000
0100
0000
1000
0000
0100
0020
0030
0000
,  // measure 18
0101
0000
1010
0000
0101
0000
0010
0100
,  // measure 19
0010
0100
0010
1000
0100
0010
0001
0100
,  // measure 20
0010
0001
1000
0000
0000
0000
0100
0010
0100
0010
0100
0000
1000
0000
0000
0000
,  // measure 21
0001
0100
0010
0100
0010
0000
0100
0000
,  // measure 22
0010
0000
1000
0010
1000
0000
0100
0000
0010
0100
0010
0100
0010
0000
0002
0000
,  // measure 23
0003
0000
0100
0010
0100
0000
1000
0000
0100
1000
0100
1000
0100
0000
1000
0000
,  // measure 24
0100
0010
0100
0010
0010
0000
0100
0000
0010
0000
0001
0000
0200
0000
0300
0000
,  // measure 25
1000
0100
0010
0200
0300
0000
0100
0010
0100
0020
0000
0030
0001
0000
0100
0010
,  // measure 26
2000
0000
3000
0000
0100
0000
0010
0100
0010
0000
0100
0000
0100
1000
0010
0000
,  // measure 27
0200
0000
0300
0000
0100
0000
0010
0100
0010
0000
0001
0000
0100
0001
0100
0000
,  // measure 28
0101
1000
0100
0010
0100
0000
1100
0010
0100
0010
0100
0000
0100
0000
0010
0001
,  // measure 29
1000
0100
0000
0100
0010
0000
1000
0000
0100
0010
0100
0010
0001
0000
1000
0000
,  // measure 30
0100
0000
0010
0000
0110
0000
1001
0000
0100
0000
0000
0100
0010
0100
1000
0000
,  // measure 31
0200
0000
0300
0000
0100
0001
0010
0100
1000
0000
0100
0010
0000
0100
0010
0000
,  // measure 32
0200
0000
0000
0000
0300
0000
0100
0001
0000
0000
0100
0000
0010
0000
1000
0100
,  // measure 33
0000
0000
0100
0000
0000
0001
0100
1000
0000
0000
0100
0000
0000
0010
0000
0000
,  // measure 34
0100
0000
0010
0100
0000
0001
0100
1000
0100
0000
0100
0000
0010
0100
0010
1000
,  // measure 35
0100
0000
0100
0001
0010
1000
0100
0000
0100
0000
0010
0000
0100
0000
0010
0000
,  // measure 36
0001
0000
0100
0010
1000
0100
0010
0100
,  // measure 37
0011
0100
0010
0100
0010
1000
0001
0010
,  // measure 38
0100
0010
1000
0100
0010
0001
0100
0010
,  // measure 39
0100
0000
0010
0000
0100
0000
0001
0010
0001
0010
0001
0010
0001
0010
0100
1000
,  // measure 40
0100
0000
0010
0200
0000
0000
0000
0300
,  // measure 41
0010
0000
0100
0000
0010
0000
0100
0000
0010
0100
0010
0100
0010
0100
0010
0100
,  // measure 42
1001
0000
0100
0010
0100
0000
1000
0000
0100
1000
0100
1000
0200
0300
0020
0030
,  // measure 43
0100
0000
0010
0100
0010
0000
0002
0003
1000
0100
0010
0100
0020
0030
0100
0000
,  // measure 44
0100
0010
0100
0010
0001
0000
1000
0000
0100
0000
1000
0100
0010
0000
0100
0000
,  // measure 45
0010
0100
0010
0100
0000
0000
0100
0010
0100
0002
0003
0000
1000
0100
0010
0100
,  // measure 46
0001
0000
0100
0010
1000
0000
0100
0000
1000
0100
1000
0100
1000
0000
0100
0000
,  // measure 47
0100
0000
0000
0000
0010
0000
0100
0000
0010
0000
0000
0000
0100
0000
0000
0000
0010
0000
1000
0000
0100
0000
0010
0000
0100
0010
0100
0010
0100
0010
0100
0010
,  // measure 48
1001
0100
0010
0100
1000
0000
0100
0010
0100
0010
0100
0000
0100
0000
0010
0001
,  // measure 49
0100
0001
0000
0100
0010
0000
1000
0000
0100
1000
0100
0010
0100
0000
0010
0000
,  // measure 50
1001
0100
0010
1001
0000
0000
0000
0000
;
