#TITLE:共鳴のTrue Force;
#SUBTITLE:;
#ARTIST:原田ひとみ;
#TITLETRANSLIT:Kyoumei no True Force;
#SUBTITLETRANSLIT:;
#ARTISTTRANSLIT:Hitomi Harada;
#GENRE:J-Pop;
#CREDIT:;
#BANNER:Kyoumei No True Force.png;
#BACKGROUND:Kyoumei No True Force-bg.png;
#LYRICSPATH:;
#CDTITLE:Wrland.png;
#MUSIC:Kyoumei No True Force.ogg;
#OFFSET:0.001000;
#SAMPLESTART:46.382000;
#SAMPLELENGTH:12.000000;
#SELECTABLE:YES;
#DISPLAYBPM:187.000000;
#BPMS:0.000000=187.488007
;
#STOPS:
;
#BGCHANGES:0.000=Kyoumei No True Force.avi=1.000=0=0=0=StretchNoLoop====,
99999=-nosongbg-=1.000=0=0=0 // don't automatically add -songbackground-
;
#KEYSOUNDS:;
#ATTACKS:;

//---------------dance-single - ----------------
#NOTES:
     dance-single:
     :
     Beginner:
     1:
     0.067855,0.151688,0.107254,0.000000,0.000000,62.000000,48.000000,14.000000,0.000000,0.000000,0.000000,0.067855,0.151688,0.107254,0.000000,0.000000,62.000000,48.000000,14.000000,0.000000,0.000000,0.000000:
// measure 0
0000
0000
0000
0000
,  // measure 1
0000
0000
0000
0000
,  // measure 2
0000
0000
0000
0000
,  // measure 3
0000
0000
0000
0000
,  // measure 4
0010
0000
0000
0000
,  // measure 5
0000
0000
0000
0000
,  // measure 6
0010
0000
0000
0000
,  // measure 7
0000
0000
0000
0000
,  // measure 8
0100
0000
0000
0000
,  // measure 9
0000
0000
0000
0000
,  // measure 10
0100
0000
0000
0000
,  // measure 11
0000
0000
0000
0000
,  // measure 12
1000
0000
0000
0000
,  // measure 13
0000
0000
0000
0000
,  // measure 14
0001
0000
0000
0000
,  // measure 15
0000
0000
0000
0000
,  // measure 16
0100
0000
0000
0000
,  // measure 17
0000
0000
0000
0000
,  // measure 18
0010
0000
0000
0000
,  // measure 19
0000
0000
0000
0000
,  // measure 20
1000
0000
0000
0000
,  // measure 21
0000
0000
0000
0000
,  // measure 22
0100
0000
0000
0000
,  // measure 23
0000
0000
0000
0000
,  // measure 24
0001
0000
0000
0000
,  // measure 25
0000
0000
0000
0000
,  // measure 26
0100
0000
0000
0000
,  // measure 27
0000
0000
0000
0000
,  // measure 28
1000
0000
0000
0000
,  // measure 29
0000
0000
0000
0000
,  // measure 30
0001
0000
0000
0000
,  // measure 31
0000
0000
0000
0000
,  // measure 32
0100
0000
0000
0000
,  // measure 33
0000
0000
0000
0000
,  // measure 34
0100
0000
0000
0000
,  // measure 35
0000
0000
0000
0000
,  // measure 36
0000
0000
0000
0000
,  // measure 37
0101
0000
0000
0000
,  // measure 38
0000
0000
0000
0000
,  // measure 39
1010
0000
0000
0000
,  // measure 40
0000
0000
0000
0000
,  // measure 41
0110
0000
0000
0000
,  // measure 42
0000
0000
0000
0000
,  // measure 43
1001
0000
0000
0000
,  // measure 44
0000
0000
0000
0000
,  // measure 45
1000
0000
0000
0000
,  // measure 46
0000
0000
0000
0000
,  // measure 47
0100
0000
0000
0000
,  // measure 48
0000
0000
0000
0000
,  // measure 49
0010
0000
0000
0000
,  // measure 50
0000
0000
0000
0000
,  // measure 51
0100
0000
0000
0000
,  // measure 52
0000
0000
0000
0000
,  // measure 53
0101
0000
0000
0000
,  // measure 54
0000
0000
0000
0000
,  // measure 55
1010
0000
0000
0000
,  // measure 56
0000
0000
0000
0000
,  // measure 57
1010
0000
0000
0000
,  // measure 58
0000
0000
0000
0000
,  // measure 59
0101
0000
0000
0000
,  // measure 60
0000
0000
0000
0000
,  // measure 61
0010
0000
0000
0000
,  // measure 62
0000
0000
0000
0000
,  // measure 63
0001
0000
0000
0000
,  // measure 64
0000
0000
0000
0000
,  // measure 65
1000
0000
0000
0000
,  // measure 66
0000
0000
0000
0000
,  // measure 67
1001
0000
0000
0000
,  // measure 68
0000
0000
0000
0000
,  // measure 69
0110
0000
0000
0000
,  // measure 70
0000
0000
0000
0000
,  // measure 71
0001
0000
0000
0000
,  // measure 72
0000
0000
0000
0000
,  // measure 73
1000
0000
0000
0000
,  // measure 74
0000
0000
0000
0000
,  // measure 75
0100
0000
0000
0000
,  // measure 76
0000
0000
0000
0000
,  // measure 77
0010
0000
0000
0000
,  // measure 78
0000
0000
0000
0000
,  // measure 79
1000
0000
0000
0000
,  // measure 80
0000
0000
0000
0000
,  // measure 81
0001
0000
0000
0000
,  // measure 82
0000
0000
0000
0000
,  // measure 83
0110
0000
0000
0000
,  // measure 84
0000
0000
0000
0000
,  // measure 85
1001
0000
0000
0000
,  // measure 86
0000
0000
0000
0000
,  // measure 87
1000
0000
0000
0000
,  // measure 88
0000
0000
0000
0000
,  // measure 89
0001
0000
0000
0000
,  // measure 90
0000
0000
0000
0000
,  // measure 91
0100
0000
0000
0000
,  // measure 92
0000
0000
0000
0000
,  // measure 93
0010
0000
0000
0000
,  // measure 94
0000
0000
0000
0000
,  // measure 95
0100
0000
0000
0000
,  // measure 96
0000
0000
0000
0000
,  // measure 97
1001
0000
0000
0000
,  // measure 98
0000
0000
0000
0000
,  // measure 99
0110
0000
0000
0000
;

//---------------dance-single - ----------------
#NOTES:
     dance-single:
     :
     Easy:
     3:
     0.125860,0.229256,0.084271,0.061288,0.000000,115.000000,104.000000,11.000000,8.000000,0.000000,0.000000,0.125860,0.229256,0.084271,0.061288,0.000000,115.000000,104.000000,11.000000,8.000000,0.000000,0.000000:
0000
0000
0000
0000
,
0000
0000
0000
0000
,
0000
0000
0000
0000
,
0000
0000
0000
0000
,
1000
0000
0000
0000
,
0001
0000
0000
0000
,
1000
0000
0000
0000
,
0001
0000
0000
0000
,
0100
0000
0000
0000
,
0010
0000
0000
0000
,
0100
0000
0000
0000
,
0010
0000
0000
0000
,
1000
0000
1000
0000
,
0001
0000
0000
0000
,
0100
0000
0100
0000
,
0010
0000
0000
0000
,
0010
0000
0010
0000
,
0100
0000
0000
0000
,
0001
0000
0001
0000
,
1000
0000
0000
0000
,
1000
0000
1000
0000
,
0100
0000
0000
0000
,
0100
0000
0100
0000
,
0100
0000
0000
0000
,
0010
0000
0010
0000
,
0010
0000
0000
0000
,
0001
0000
0001
0000
,
0001
0000
0000
0000
,
2000
0000
3000
0000
,
0200
0000
0300
0000
,
0020
0000
0030
0000
,
0200
0000
0300
0000
,
0002
0000
0003
0000
,
2000
0000
3000
0000
,
0200
0000
0300
0000
,
0020
0000
0030
0000
,
0000
0000
0000
0000
,
0110
0000
0000
0000
,
0100
0000
0000
0000
,
0001
0000
0000
0000
,
0100
0000
0000
0000
,
1000
0000
0000
0000
,
1000
0000
0000
0000
,
0100
0000
0000
0000
,
0100
0000
0000
0000
,
0010
0000
0000
0000
,
0010
0000
0000
0000
,
0100
0000
0000
0000
,
0100
0000
0000
0000
,
0001
0000
0000
0000
,
0001
0000
0000
0000
,
1000
0000
0000
0000
,
1000
0000
0000
0000
,
0100
0000
0000
0000
,
0100
0000
0000
0000
,
0010
0000
0000
0000
,
0010
0000
0000
0000
,
1000
0000
0000
0000
,
1000
0000
0000
0000
,
0100
0000
0000
0000
,
0100
0000
0000
0000
,
0010
0000
0000
0000
,
0010
0000
0000
0000
,
0100
0000
0000
0000
,
0100
0000
0000
0000
,
1010
0000
0000
0000
,
1001
0000
0000
0000
,
0110
0000
0000
0000
,
0110
0000
0000
0000
,
1001
0000
0000
0000
,
1000
0000
0000
0000
,
1000
0000
0000
0000
,
0001
0000
0000
0000
,
0001
0000
0000
0000
,
0100
0000
0000
0000
,
0010
0000
0000
0000
,
0100
0000
0000
0000
,
0010
0000
0000
0000
,
0100
0000
0000
0000
,
0010
0000
0000
0000
,
1000
0000
0000
0000
,
0110
0000
0000
0000
,
1001
0000
0000
0000
,
1000
0000
0000
0000
,
1000
0000
0000
0000
,
0001
0000
0000
0000
,
0100
0000
0000
0000
,
0010
0000
0000
0000
,
0100
0000
0000
0000
,
0010
0000
0000
0000
,
0100
0000
0000
0000
,
1000
0000
0000
0000
,
0100
0000
0000
0000
,
0110
0000
0000
0000
,
0001
0000
0000
0000
,
1000
0000
0000
0000
,
0100
0000
0000
0000
,
0110
0000
0000
0000
,
0010
0000
0000
0000
,
0100
0000
0000
0110
;

//---------------dance-single - ----------------
#NOTES:
     dance-single:
     :
     Medium:
     6:
     0.437772,0.580322,0.145559,0.137898,0.000000,400.000000,381.000000,19.000000,18.000000,0.000000,0.000000,0.437772,0.580322,0.145559,0.137898,0.000000,400.000000,381.000000,19.000000,18.000000,0.000000,0.000000:
0000
0000
0000
0000
,
0000
0000
0000
0000
,
0000
0000
0000
0000
,
0000
0000
0000
0000
,
0100
0000
0100
0000
,
0100
0000
0010
0000
,
0001
0000
0001
0000
,
0001
0000
0010
0000
,
0010
0000
0010
0000
,
0010
0000
0100
0000
,
0220
0000
0000
0330
,
1000
1000
1000
0001
0001
0001
0001
0001
,
0100
0010
0100
0010
,
0100
0000
0010
0001
0000
0100
0000
0001
,
1000
0100
0010
0100
,
0010
0000
0100
0010
0000
0100
0000
0000
,
0001
0000
0000
1000
0001
0000
0000
0100
,
0010
0000
0000
0100
0000
0000
0001
0001
,
0000
1000
0000
0100
0010
0100
0010
0000
,
0100
0100
1000
0100
0010
0100
0010
0000
,
0100
0010
0100
1000
,
0100
1000
0100
0010
,
0100
0010
0001
1000
,
0100
0010
0100
0010
,
0100
0000
0000
1000
0100
0000
0000
0001
,
0100
0000
0010
0100
0000
0100
1000
0000
,
1001
0100
0010
0100
0010
0100
0010
0100
,
0010
1000
0100
0000
,
0100
0010
2000
3000
,
0100
0010
0200
0300
,
0001
1000
0002
0003
,
0100
0010
0200
0300
,
0001
0001
0200
0300
,
1000
0100
0200
0300
,
0010
1000
0010
1000
,
0100
0010
0001
0200
,
0300
0000
0001
1000
0100
0010
0100
0000
,
0100
0000
0010
0001
0000
0100
0010
0100
,
0000
1000
0100
0010
0000
0100
0010
0100
,
0010
0000
0000
0100
0000
0000
1000
0000
,
0100
0010
0100
0010
,
0100
0001
1000
0001
,
1000
0000
0100
0000
1000
0000
0100
1000
,
0100
0000
0000
0010
0000
0000
0100
0000
,
0000
0010
0000
0000
0100
0000
0001
0000
,
1000
0000
0100
0000
0010
0000
0100
1000
,
0000
0010
0100
0000
0001
1000
0000
0100
,
0000
0100
1000
0010
0100
0000
0010
0000
,
0100
0010
1000
0001
0100
0000
0001
0000
,
1001
0000
0000
1100
0000
0000
0110
0000
,
0010
0100
1000
0100
,
0110
0000
0000
1001
0000
0000
0100
0000
,
0000
1001
0000
0100
0010
0100
0000
0000
,
0001
1000
0100
0010
,
0100
0000
0010
0000
0100
0010
1000
0100
,
0010
0000
0000
0100
0000
0000
0010
0000
,
1000
0100
0001
0100
,
0010
1000
0100
1000
,
0100
1000
0100
0010
,
0001
0000
0000
0100
0000
0000
1000
0000
,
0000
0100
0000
0000
0001
0000
0000
0000
,
0010
0001
0010
0001
,
0001
0010
0001
0010
,
0100
0010
0100
0100
,
0010
0100
0010
0100
,
1100
0000
0000
0101
0000
0000
0110
0000
,
0000
0000
0100
0010
0100
0000
0000
0000
,
1000
0000
0100
0001
0000
0100
0010
0000
,
0100
1000
0000
0100
0020
0000
0030
0000
,
0110
1000
0100
1000
,
0100
1000
0100
0100
,
0010
0100
0010
1000
,
0100
1000
0100
0010
,
0100
0010
0100
0010
,
0001
1000
0001
0100
,
0220
0000
0000
0330
0000
0100
0010
2000
,
0000
3000
0100
0000
0010
0000
0100
0000
,
0010
1000
0100
1000
,
0100
0001
0100
0020
,
0000
0030
0100
0000
0010
0000
0100
0000
,
1000
0100
0010
0100
,
1100
0000
0000
0101
0000
0000
0220
0000
,
0000
0330
1000
0100
,
1000
0000
0100
1000
0000
0001
0100
0000
,
0010
0100
0000
0010
0100
0000
0001
0000
,
0110
0100
0010
1000
,
0100
1000
0100
0010
,
0100
0000
0010
0100
0000
1000
0100
0000
,
1000
0100
0000
0010
0100
0000
0010
0000
,
0100
1000
0100
0001
,
0100
0010
0100
0010
,
1000
0100
0010
0100
,
0010
0000
0100
0000
0010
0100
0000
0000
,
0110
1000
0100
0010
,
0100
0010
0100
0010
,
1000
0000
0100
0010
0000
0100
0010
0000
,
0001
1000
0000
0001
1000
0000
0001
0000
,
1000
1000
0001
0100
,
0010
0010
0001
0001
,
0100
0000
0100
1000
0000
0000
0100
2002
,
0000
0000
0000
0000
,
3003
0000
0000
0000
;

//---------------dance-single - ----------------
#NOTES:
     dance-single:
     :
     Hard:
     10:
     0.667603,1.315396,0.398373,0.122576,0.091932,610.000000,558.000000,52.000000,16.000000,0.000000,0.000000,0.667603,1.315396,0.398373,0.122576,0.091932,610.000000,558.000000,52.000000,16.000000,0.000000,0.000000:
0000
0000
0000
0000
,
0000
0000
0000
0000
,
0000
0000
0000
0000
,
0000
0000
0000
0000
,
1000
0000
0001
0000
0100
0010
0000
0100
,
0010
0000
1000
0100
0000
0010
0100
0001
,
1000
0000
0000
0100
0000
0000
0010
0000
,
0100
0000
0010
0000
0100
0010
0001
0000
,
1000
0000
0000
0100
0000
0000
0010
0100
,
0010
0100
0010
1000
0100
0010
0100
0000
,
0110
0000
0001
0000
1000
0001
1000
0100
,
0000
0100
0100
0100
0010
0010
0010
0010
,
0100
0010
0001
1000
0100
0001
0010
0100
,
0000
0000
0010
1000
0000
0100
0000
0010
,
0000
0010
0001
1000
0100
0010
1000
0100
,
0000
0100
1000
0100
0000
0010
0000
0000
,
0100
0000
0000
0010
0100
0000
0000
1000
,
0100
0010
0100
0010
0000
0100
0010
1000
,
0000
0100
0000
0100
0010
1000
0100
0010
,
0001
0000
0100
0000
0010
0000
0100
0000
0010
0000
1000
0100
1000
0100
1000
0100
,
1000
0100
0010
0100
1000
0100
0010
0100
,
0000
0100
0010
0000
1000
0000
0000
0100
,
0000
0010
0100
0010
0100
1000
0100
0010
,
0000
1000
0100
0010
0000
0100
0000
0000
,
0001
0000
0000
1000
0001
0000
0000
1000
,
0001
0000
1000
0100
0000
1000
0100
0000
,
0110
0100
0100
0100
0100
0100
1000
1000
,
0010
0000
0010
0000
0010
0000
0010
0000
0010
0100
0010
0100
0010
0000
0000
0000
,
0010
0000
0100
0000
0010
1000
0000
0100
,
0010
0000
1000
0200
0000
0300
0000
0100
,
0010
0000
0100
0000
0010
0000
0100
0010
,
0000
0000
0100
0020
0000
0030
0000
0100
,
1000
0100
1000
0100
1000
0100
0000
0010
,
0100
0000
0010
0200
0000
0300
0000
1100
,
0000
0100
0001
0001
0001
0001
1000
1000
,
1000
0000
1000
0000
0100
0000
0010
0000
0100
0000
0010
0100
0010
0100
0010
0100
,
0010
0000
0100
0010
0100
0010
0100
0000
,
1000
0000
0100
0010
0000
0100
0010
0001
,
0000
0001
1000
0001
0000
0100
0010
0100
,
0020
0000
0030
2000
0000
3000
0100
0000
,
0010
0000
0100
0010
0100
0000
1000
0100
,
0010
0000
0100
0010
0100
0010
0100
0010
,
0000
0001
1000
0001
1000
0001
1000
0001
,
1000
0000
0000
1100
0000
0000
0011
0000
,
0000
0100
0000
0000
0220
0000
0000
0330
,
1000
0010
0100
0010
0100
0001
1000
0100
,
0000
0100
0010
0100
0001
0100
0010
1000
,
0000
0100
0010
0100
0010
0100
0001
1000
,
0000
0100
0001
1000
0100
1000
0010
0100
,
0011
0000
0000
1100
0000
0000
0110
0000
,
0100
1000
0100
0010
0001
0000
0011
0000
,
1100
0000
0000
1100
0000
0000
0101
0000
,
0000
0110
0000
0000
1001
0000
0000
0000
,
0100
0000
1000
0100
0000
0010
1000
0100
,
0000
0000
0100
0001
0000
0010
0001
0010
,
2000
0000
3000
0200
0000
0300
0001
0000
,
0010
0100
0010
0100
1000
0001
0100
0010
,
0100
0010
1000
0100
1000
0100
1000
0100
,
0000
0001
0100
0001
0100
0001
0100
0010
,
1001
0000
0000
0110
0000
0000
0110
0000
,
0000
1001
0000
0000
0110
0000
1000
0000
,
0100
0000
0010
0000
0100
0010
0000
0100
,
1000
0000
0100
0010
0000
0100
0010
0000
,
0001
0000
1000
0000
0001
1000
0000
0100
,
0010
0000
0100
1000
0000
0100
1000
0100
,
1001
0000
0000
0101
0000
0000
0110
0000
,
1000
0010
0100
0010
0100
0000
0000
0000
,
1100
0000
0100
0011
0000
0100
0110
0000
,
0001
1100
0000
0001
2020
0000
3030
0000
,
1100
0000
0100
0010
0100
0010
0100
0010
,
0100
1000
0100
0010
0001
1000
0100
0010
,
0100
0010
1000
0100
0000
0001
0100
0000
,
1000
0100
0010
0100
0010
0100
0001
0100
,
1000
0100
0001
0010
0100
1000
0100
1000
,
0000
0100
0010
0100
0010
0100
0010
0001
,
2002
0000
0000
0000
3003
0010
0100
0020
,
0000
0030
0100
0010
0100
0001
0010
1000
,
0100
0000
0010
0000
0100
0010
0000
1000
,
0100
0000
1000
0100
0000
0001
0100
0000
,
0010
0000
0100
0000
0100
0010
0000
0100
,
0010
0000
1000
0100
0000
0100
1000
0000
,
0110
0000
0000
0110
0000
0000
1001
0000
,
0000
0100
0010
0100
0010
0000
1000
0000
,
1100
0000
0001
0110
0000
0100
0011
0000
,
1000
0110
0000
0010
0110
0000
1001
0000
,
0110
0000
0100
0000
0010
1000
0000
0100
,
0010
0000
0100
0010
0000
1000
0100
0010
,
0100
0000
0010
0100
0000
0010
0101
0000
,
1000
0100
0000
0010
0100
0000
1100
0000
,
0001
0000
1000
0000
0100
0010
0000
0100
,
1000
0000
0100
0010
0000
0100
0010
0100
,
0001
1000
0001
1000
0001
1000
0100
0010
,
0100
0010
0010
0010
0100
0100
0100
0100
,
0010
0000
0100
0000
0010
1000
0000
0100
,
0010
0000
0100
0010
0000
0100
0010
1000
,
0101
0000
0010
1100
0000
0100
1010
0000
,
0100
0011
0000
0001
1100
0000
0101
0000
,
0110
0001
1000
0010
0100
1000
0100
1000
0100
1000
0100
1000
0010
0001
0010
0001
,
0010
0001
0010
0001
1000
0100
1000
0100
1000
0100
1000
0100
1000
0100
1000
0100
,
0010
0011
0000
0001
1100
0000
0010
0220
,
0000
0000
0000
0000
,
0330
0000
0000
0000
;
