#VERSION:0.83;
#TITLE:I'll believe;
#SUBTITLE:;
#ARTIST:ALTIMA;
#TITLETRANSLIT:;
#SUBTITLETRANSLIT:;
#ARTISTTRANSLIT:;
#GENRE:J-Pop;
#CREDIT:;
#MUSIC:I'll believe.ogg;
#BANNER:I'll believe.png;
#BACKGROUND:I'll believe-bg.png;
#JACKET:I'll believe-jacket.png;
#CDTITLE:Wrland.png;
#SAMPLESTART:30.926;
#SAMPLELENGTH:12.000;
#SELECTABLE:YES;
#OFFSET:-0.715;
#BPMS:0.000=142.000;
#STOPS:;
#BGCHANGES:0.000=I'll believe.avi=1.000=0=0=1=====,
99999=-nosongbg-=1.000=0=0=0 // don't automatically add -songbackground-
;
#FGCHANGES:;

//--------------- dance-single - ----------------
#NOTEDATA:;
#STEPSTYPE:dance-single;
#DESCRIPTION:;
#DIFFICULTY:Beginner;
#METER:1;
#RADARVALUES:0,0,0,0,0;
#NOTES:
0000
0000
0000
0000
,
0000
0000
0000
0000
,
0000
0000
0000
0000
,
1000
0000
0000
0000
,
0000
0000
0000
0000
,
0010
0000
0000
0000
,
0000
0000
0000
0000
,
0100
0000
0000
0000
,
0000
0000
0000
0000
,
0010
0000
0000
0000
,
0000
0000
0000
0000
,
1000
0000
0000
0000
,
0000
0000
0000
0000
,
0010
0000
0000
0000
,
0000
0000
0000
0000
,
0100
0000
0000
0000
,
0000
0000
0000
0000
,
0001
0000
0000
0000
,
0000
0000
0000
0000
,
0001
0000
0000
0000
,
0000
0000
0000
0000
,
0010
0000
0000
0000
,
0000
0000
0000
0000
,
0100
0000
0000
0000
,
0000
0000
0000
0000
,
0100
0000
0000
0000
,
0000
0000
0000
0000
,
0110
0000
0000
0000
,
0000
0000
0000
0000
,
1001
0000
0000
0000
,
0000
0000
0000
0000
,
1010
0000
0000
0000
,
0000
0000
0000
0000
,
0101
0000
0000
0000
,
0000
0000
0000
0000
,
0110
0000
0000
0000
,
0000
0000
0000
0000
,
0001
0000
0000
0000
,
0000
0000
0000
0000
,
1000
0000
0000
0000
,
0000
0000
0000
0000
,
0100
0000
0000
0000
,
0000
0000
0000
0000
,
0010
0000
0000
0000
,
0000
0000
0000
0000
,
0100
0000
0000
0000
,
0000
0000
0000
0000
,
0010
0000
0000
0000
,
0000
0000
0000
0000
,
0001
0000
0000
0000
,
0000
0000
0000
0000
,
1000
0000
0000
0000
,
0000
0000
0000
0000
,
0000
0000
0000
0000
,
0110
0000
0000
0000
,
0000
0000
0000
0000
,
0001
0000
0000
0000
,
0000
0000
0000
0000
,
1000
0000
0000
0000
,
0000
0000
0000
0000
,
0010
0000
0000
0000
,
0000
0000
0000
0000
,
0100
0000
0000
0000
,
0000
0000
0000
0000
,
0001
0000
0000
0000
,
0000
0000
0000
0000
,
1000
0000
0000
0000
,
0000
0000
0000
0000
,
0100
0000
0000
0000
,
0000
0000
0000
0000
,
0010
0000
0000
0000
,
0000
0000
0000
0000
,
0110
0000
0000
0000
,
0000
0000
0000
0000
,
1001
0000
0000
0000
;

//--------------- dance-single - ----------------
#NOTEDATA:;
#STEPSTYPE:dance-single;
#DESCRIPTION:;
#DIFFICULTY:Easy;
#METER:3;
#RADARVALUES:0,0,0,0,0;
#NOTES:
0000
0000
0000
0000
,
0000
0000
0000
0000
,
0000
0000
0000
0000
,
1000
0000
1000
0000
,
0100
0000
0100
0000
,
0010
0000
0010
0000
,
0100
0000
0100
0000
,
0001
0000
1000
0000
,
0001
0000
1000
0000
,
0100
0000
0010
0000
,
0100
0000
0000
0110
,
1000
0000
0100
0000
,
0010
0000
0100
0000
,
0001
0000
1000
0000
,
0100
0000
0010
0000
,
0100
0000
0001
0000
,
0100
0000
0010
0000
,
1000
1000
1000
0000
,
0001
0001
0001
0000
,
0110
0000
0100
0000
,
0100
0000
0100
0000
,
0010
0000
0010
0000
,
0010
0100
0010
0000
,
1000
0000
1000
0000
,
0001
0000
0001
0000
,
0100
0000
0100
0000
,
0010
0000
0010
0000
,
0001
0000
1000
0000
,
0001
0000
0100
0000
,
1000
0000
1000
0000
,
0001
0000
0001
0000
,
1000
0000
1000
0000
,
0001
0000
0001
0000
,
0100
0000
0100
0000
,
0010
0000
0010
0000
,
0100
0000
0100
0000
,
0010
0000
0010
0000
,
0110
0000
1000
0000
,
1000
0000
1000
0000
,
1000
0000
1000
0000
,
1000
0000
1000
0000
,
0001
0000
0001
0000
,
0001
0000
0001
0000
,
0001
0000
0001
0000
,
0001
0000
0001
0000
,
0100
0000
0100
0000
,
0100
0000
0100
0000
,
0100
0000
0010
0000
,
0100
0000
0010
0000
,
0010
0000
0010
0000
,
0010
0000
0010
0000
,
0100
0000
0010
0000
,
0001
0000
1000
0000
,
1000
1000
0001
0000
,
0110
0000
0100
0000
,
0010
0000
0001
0000
,
1000
0000
0100
0000
,
0010
0000
0100
0000
,
0010
0000
0100
0000
,
0010
0000
0100
0000
,
0100
0100
0100
0000
,
0010
0010
0010
0000
,
1000
0000
1000
0000
,
1000
0000
1000
0000
,
0001
0000
0001
0000
,
0001
0100
0010
0000
,
0100
0000
0010
0000
,
0100
0000
0010
0000
,
0100
0100
0100
0000
,
0010
0010
0010
0000
,
1000
0000
0001
0000
,
1000
0000
0001
0000
,
0100
0000
0100
0000
,
0010
0000
0010
0000
,
0100
0100
0100
0000
,
0110
0000
0000
0000
;

//--------------- dance-single - ----------------
#NOTEDATA:;
#STEPSTYPE:dance-single;
#DESCRIPTION:;
#DIFFICULTY:Medium;
#METER:8;
#RADARVALUES:0,0,0,0,0;
#NOTES:
0000
0000
0000
0000
,
0000
0000
0000
0000
,
0000
0000
0000
0000
,
1000
0001
0000
0100
0010
0100
0000
0010
,
0000
0100
0010
0100
0000
1000
0100
0010
,
0000
0100
0010
0100
1000
0000
0100
0010
,
0000
0100
0010
0100
0000
0010
0001
1000
,
0000
0001
1000
0000
0100
0000
0010
0100
,
0000
0010
0100
0010
0000
1000
0100
0010
,
0100
0000
0010
0100
0000
0010
0100
0010
,
0000
0001
1000
0002
0000
0003
0100
0000
,
0010
0001
0100
0000
0010
1000
0100
0000
,
0100
0000
0100
0020
0000
0030
0100
0001
,
0010
1000
0001
0100
,
0010
0000
0100
0000
0020
0000
0030
1000
,
0001
0000
0100
0000
0010
0000
0100
0001
,
0010
0000
1000
0100
0010
0001
0000
0100
,
0020
0000
0030
0100
0000
0010
0100
1000
,
0200
0000
0300
0100
0010
0000
0100
0000
,
0001
1000
0100
0000
0010
0001
1000
0000
,
0100
0000
0001
0100
1000
0000
0001
0100
,
0010
0000
1000
0100
0001
0010
0100
0010
,
0100
0000
0001
0000
0010
0000
0000
0000
0110
0000
0000
0110
0000
0000
0100
0000
,
0010
0000
0000
0000
0100
0000
0010
0100
0000
0000
0100
0000
1000
0000
0100
0000
,
0010
0000
0000
0000
0100
0000
0010
0001
0000
0000
0000
0000
0100
0000
1000
0000
,
0100
0000
0000
0010
0000
0100
0010
0001
,
1000
0000
0000
0000
0100
0000
0000
0000
0010
0000
0000
0010
0000
0000
0010
0000
,
0001
1000
0001
1000
,
0100
0000
0010
0000
0100
0001
0010
0000
,
0100
0100
0010
0010
,
0100
0010
0100
0010
,
1000
0001
1000
0001
,
1000
1000
0001
0001
,
1000
0100
0100
0100
,
1000
0100
1000
0100
,
1000
0100
0010
0100
,
0001
0000
0100
0000
0010
0100
0010
0000
,
0100
0000
0010
0000
0100
1000
0100
0000
,
0010
0000
0100
0010
0001
0100
0000
0000
,
0100
0000
0010
0000
1000
0000
0100
0010
,
0100
0000
0010
0000
0002
0000
0000
0003
,
1000
0000
0100
0000
0001
0200
0000
0300
,
0010
0000
0100
0100
1000
0200
0000
0300
,
0010
0000
0100
0000
0010
0000
0001
0100
,
0010
0000
0100
1000
0200
0000
0000
0300
,
0100
0000
0010
0001
0100
1000
0010
1000
,
0001
0000
1000
0100
0001
0100
0100
0010
,
0010
0100
0010
0000
0100
1000
0100
0000
,
0100
0010
0100
0000
0010
0100
1000
0001
,
0100
0000
0010
0000
0100
0000
0010
1000
,
0001
0000
0000
0000
0100
0000
0001
0010
0000
0000
0000
0000
1000
0000
0000
0000
,
0100
0100
0010
0100
,
0010
0000
0100
0010
1000
0000
0100
0000
,
0010
0100
0010
0100
,
0001
1000
0001
0000
0100
0010
0100
0001
,
0100
0000
1000
0000
0100
0000
0100
0010
,
0100
0000
0010
1000
0100
0010
0001
0100
,
0010
0000
0100
1000
0100
0000
0100
0010
,
0100
0000
0010
0000
0001
0000
1000
0001
,
1000
0000
0001
0100
0010
0100
0000
0100
,
0010
1000
0100
0010
,
0001
1000
0001
1000
0001
0000
0100
0000
,
0010
1000
0100
0000
0010
0001
0100
0001
,
1000
0000
0000
0000
0100
0000
1000
0001
0000
0000
0000
0000
0100
0000
0010
0000
,
0100
0000
0000
0000
1000
0000
0010
0100
0000
0000
1000
0000
0010
0000
0000
0000
,
0100
0000
1000
0000
0100
0000
0010
0000
0110
0000
0000
0110
0000
0000
0001
0000
,
0100
0000
0010
0100
1000
0000
0100
0000
,
0010
0000
0100
0010
0100
0000
0010
0100
,
2000
0000
3000
0001
0000
1000
0001
0100
,
0010
0000
0000
0000
0010
0000
0000
0000
0110
0000
0000
1001
0000
0000
0100
0000
,
0100
0100
0100
0100
,
0010
0000
0010
0000
0010
0000
0010
0100
,
0020
0000
0030
0100
0000
0100
1000
0100
,
0010
0000
0000
0000
0010
0000
0000
0000
0100
0000
0000
0001
0000
0000
1000
0000
,
0200
0000
0000
0300
0010
0000
0100
0010
,
0220
0000
0000
0000
,
0330
0000
0000
0000
;

//--------------- dance-single - ----------------
#NOTEDATA:;
#STEPSTYPE:dance-single;
#DESCRIPTION:;
#DIFFICULTY:Hard;
#METER:10;
#RADARVALUES:0,0,0,0,0;
#NOTES:
0000
0000
0000
0000
,
0000
0000
0000
0000
,
0000
0000
0000
0000
0000
0000
0000
0000
1000
0000
0010
0000
0100
0001
0010
0000
,
0100
0110
0000
1000
0110
1001
0000
0010
,
0100
0010
1000
0100
0010
0100
0010
0220
,
0330
1000
0100
0010
0100
0010
0100
0010
,
0001
0000
0100
1000
0100
0000
0020
0000
0030
0000
0100
0010
0100
0000
0200
0000
,
0300
0100
1000
0100
0010
0100
0010
0200
,
0300
1000
0100
0010
0001
0100
0010
0100
,
0220
0330
1000
0200
0300
0100
0010
0002
,
0003
1000
0100
0020
0000
0030
0200
0300
,
0001
0000
1000
0100
0000
0000
0001
0000
0100
0000
0000
0001
0000
0000
0100
0000
,
2000
0000
3000
0000
0100
0000
0010
0002
0000
0000
0003
0000
0010
0000
0001
0000
,
1000
0000
0100
0010
0100
0010
0001
1000
,
0100
0000
0000
0001
0000
0000
0100
0000
0002
0000
0003
0000
1000
0000
0100
0000
,
0020
0030
0200
0300
0020
0030
0100
0010
,
0002
0000
0003
0000
1000
0000
0001
0000
0100
0000
0010
1000
0000
0000
0100
0010
,
2000
0000
3000
0010
0000
0100
0010
0001
,
1000
0001
1000
0001
1000
0001
1000
0001
0110
0000
0000
0000
1001
0000
0000
0000
,
0100
0000
0001
0010
0000
0000
0100
0000
0010
0000
0000
0100
0000
0000
0100
0000
,
2000
0000
3000
0000
0100
0000
0010
0200
0000
0000
0300
0000
0010
0000
0100
0000
,
0020
0000
0030
0000
1000
0000
0100
0001
0010
0000
0001
0000
1000
0000
0100
0000
,
0010
0000
0100
0010
1000
0000
0010
0000
0110
0000
0000
1001
0000
0000
0110
0000
,
0200
0000
0300
0000
0010
0000
1000
0100
0000
0000
0010
0000
0100
0000
0010
0000
,
0200
0000
0300
0000
1000
0000
0001
1000
0000
0000
0000
0000
0100
0000
0010
0000
,
0200
0000
0300
0010
0000
1000
0100
0010
,
0200
0000
0300
0000
0020
0000
0030
0000
0001
0000
0000
1000
0000
0000
0001
0000
,
0100
0000
0001
0010
0100
1000
0100
0010
0001
0010
0100
1000
0100
0010
0001
0010
,
0110
0000
0100
0010
0100
0010
0100
0010
,
0200
0000
0300
0010
0000
0000
0200
0000
0300
0000
1000
0000
0100
0000
0010
0000
,
0200
0000
0300
0010
0000
0000
0200
0000
0300
0010
0000
0000
1000
0000
0100
0000
,
0020
0000
0030
0100
0000
0000
0020
0000
0030
0000
0100
0000
0010
0000
0100
0000
,
2000
0000
3000
0100
0000
0000
0020
0000
0030
0000
0100
0000
0010
0000
0001
0000
,
2000
0000
3000
0100
0000
0000
0020
0000
0030
0000
0100
0000
0010
0000
0100
0000
,
0020
0000
0030
0100
0000
0000
0020
0000
0030
0000
0100
0000
1000
0000
0001
0000
,
0200
0000
0300
0010
0000
0000
0100
0000
0002
0000
0003
0000
1000
0000
0100
0000
,
0010
0000
1000
0001
0000
0000
0100
0000
0010
0000
0100
0000
0010
0000
0100
0010
,
0100
0000
0000
0000
0100
0000
0010
0000
1000
0000
0100
0010
0000
0000
0000
0000
,
0010
0000
0000
0000
0100
0000
0010
0000
0001
0000
1000
0001
0000
0000
0000
0000
,
0100
0000
0010
0000
0100
0000
0001
1000
,
0100
0000
0000
0010
0000
0000
1000
0000
0100
0000
0000
0000
0010
0000
0000
0000
,
0100
0000
0000
0000
0010
0000
0001
0000
1000
0000
0001
1000
0000
0000
0100
0000
,
0010
0000
0000
0000
1000
0000
0100
0000
0010
0000
0100
0010
0000
0000
0000
0000
,
0001
0000
1000
0000
0100
0000
0010
0100
,
0010
0000
0000
1000
0000
0000
0100
0000
0020
0000
0000
0000
0000
0000
0030
0000
,
0100
0000
0000
0000
0010
0000
1000
0001
0100
0000
0010
0000
0010
0000
0100
0000
,
0010
0000
0000
0000
0010
0000
0000
1000
0000
0000
0100
0000
0010
0000
1000
0000
,
0100
0000
0010
0000
0100
0000
0000
0001
0000
0000
1000
0000
0100
0000
0000
0000
,
0010
0000
0100
0000
0010
0000
0000
1000
0000
0000
0100
0000
0010
0000
0100
0000
,
0010
0000
0000
0000
0100
0000
1000
0100
0000
0000
0100
0000
0010
0000
0100
0000
,
0100
0000
0000
0000
0010
0000
1000
0100
0000
0000
0000
0000
0100
0000
0010
0000
,
0200
0000
0300
0001
0000
0100
0010
0100
,
1000
0000
0100
0010
0100
0000
0010
0001
,
0110
0000
0000
0100
0000
0000
0110
0000
0000
1001
0000
0000
0110
0000
0000
0000
,
0100
0000
0010
1000
0000
0000
0100
0000
0010
0000
0000
0100
0000
0000
0010
0000
,
0001
0000
0000
0000
1000
0000
0001
0100
0000
0000
0000
0000
0010
0000
0100
0000
,
0010
0000
0100
0010
1000
0100
0010
0001
,
0100
0000
0000
0010
0000
0000
0100
0000
0010
0000
0000
0000
0100
0000
0010
0000
,
0100
0000
1000
0000
0100
0000
0010
0100
,
0010
0000
0000
0000
0100
0000
0010
0000
0100
0000
0010
0100
0000
0000
0010
0100
,
0020
0000
0030
0001
0000
1000
0100
0010
,
0001
0010
0100
0010
0100
0010
0100
0010
0110
0000
0000
0000
1001
0000
0000
0000
,
0010
0000
1000
0100
0000
0000
0010
0000
0100
0000
0000
0010
0000
0000
0100
0000
,
0010
0000
0000
0000
0001
0000
1000
0002
0000
0000
0000
0003
0100
0000
0010
0000
,
0200
0000
0300
0000
0010
0000
0100
0010
0000
0000
0001
0000
1000
0000
0100
0000
,
0010
0000
0100
0010
1000
0000
0100
0000
0011
0000
0000
1100
0000
0000
0100
0000
,
0020
0000
0030
0000
0100
0000
0010
0100
0000
0000
1000
0000
0100
0000
0010
0000
,
0200
0000
0300
0000
0010
0000
0001
2000
0000
0000
0000
3000
0100
0000
0010
0000
,
0200
0000
0300
0001
0000
0100
0010
0100
,
2000
0000
3000
0000
0200
0000
0300
0000
0010
0000
0000
0100
0000
0000
0010
0000
,
0001
0100
0010
1000
0100
0010
0100
0010
,
0100
0001
0010
1000
0001
0100
1000
0100
1000
0100
1000
0100
0010
0000
0100
0000
,
0020
0000
0030
0100
0000
0010
1000
0100
,
0010
0000
0000
0000
0100
0000
0000
0000
0010
0000
0000
0100
0000
0000
0010
0000
,
0001
0010
0001
0010
0001
0010
0001
0010
0001
0010
0001
0010
0001
0010
1000
0000
,
0220
0000
0000
0000
,
0330
0000
0000
0000
;
