#VERSION:0.83;
#TITLE:I Need to Know;
#SUBTITLE:;
#ARTIST:Marc Anthony;
#TITLETRANSLIT:;
#SUBTITLETRANSLIT:;
#ARTISTTRANSLIT:;
#GENRE:Latin;
#CREDIT:;
#MUSIC:I Need to Know.ogg;
#BANNER:I Need to Know.png;
#BACKGROUND:I Need to Know-bg.png;
#JACKET:I Need to Know-jacket.png;
#CDTITLE:Wrland.png;
#SAMPLESTART:33.474;
#SAMPLELENGTH:12.000;
#SELECTABLE:YES;
#OFFSET:-6.524;
#BPMS:0.000=115.030;
#STOPS:;
#DISPLAYBPM:115.000;
#BGCHANGES:;
#FGCHANGES:;

//--------------- dance-single - ----------------
#NOTEDATA:;
#STEPSTYPE:dance-single;
#DESCRIPTION:;
#DIFFICULTY:Beginner;
#METER:1;
#RADARVALUES:0,0,0,0,0;
#NOTES:
0000
0000
0000
0000
,
1000
0000
0000
0000
,
0010
0000
0000
0000
,
0100
0000
0000
0000
,
0010
0000
0000
0000
,
1000
0000
0000
0000
,
0100
0000
0000
0000
,
0001
0000
0000
0000
,
1000
0000
0000
0000
,
0100
0000
0000
0000
,
0010
0000
0000
0000
,
1000
0000
0000
0000
,
0010
0000
0000
0000
,
0001
0000
0000
0000
,
1000
0000
0000
0000
,
0100
0000
0000
0000
,
0010
0000
0000
0000
,
0001
0000
0000
0000
,
1000
0000
0000
0000
,
0100
0000
0000
0000
,
0001
0000
1000
0000
,
1001
0000
0000
0000
,
0100
0000
0000
0000
,
0010
0000
1000
0000
,
0001
0000
0000
0000
,
1000
0000
0000
0000
,
0010
0000
0000
0000
,
0100
0000
0010
0000
,
0001
0000
1000
0000
,
1001
0000
0000
0000
,
0100
0000
0000
0000
,
0010
0000
0000
0000
,
1000
0000
0000
0000
,
0001
0000
0000
0000
,
1000
0000
0000
0000
,
0100
0000
0000
0000
,
0001
0000
0000
0000
,
1000
0000
0000
0000
,
0100
0000
0000
0000
,
0010
0000
0000
0000
,
1000
0000
0000
0000
,
0100
0000
0000
0000
,
0010
0000
0000
0000
,
0001
0000
0000
0000
,
1000
0000
0000
0000
,
1001
0000
0000
0000
,
0100
0000
0000
0000
,
0010
0000
0000
0000
,
0001
0000
0000
0000
,
1000
0000
0000
0000
,
0100
0000
0000
0000
,
0001
0000
0000
0000
,
1000
0000
0000
0000
,
1001
0000
0000
0000
;

//--------------- dance-single - ----------------
#NOTEDATA:;
#STEPSTYPE:dance-single;
#DESCRIPTION:;
#DIFFICULTY:Easy;
#METER:3;
#RADARVALUES:0,0,0,0,0;
#NOTES:
0000
0000
0000
0000
,
1000
0000
0100
0000
,
0010
0100
0010
1001
,
0100
0000
0010
0000
,
1000
0100
0010
0001
,
1001
0000
0100
0000
,
0010
0100
0010
1000
,
1000
0000
0100
0000
,
0010
0100
0001
1000
,
1001
0000
0100
0000
,
0010
0100
1000
0100
,
0001
0000
0100
0000
,
0010
0100
0010
0100
,
1001
0000
0100
0000
,
1000
0100
0010
0000
,
1001
0000
0100
0000
,
0010
0100
1000
0000
,
1001
0000
0100
0000
,
0010
0001
1000
0000
,
0100
0000
0010
0000
,
0100
0010
1000
0100
,
0020
0000
1030
0100
,
2000
0000
3010
0100
,
0001
0000
1000
0000
,
0100
0010
0001
1000
,
2000
0000
3100
0010
,
0002
0000
1003
0000
,
0001
1000
0100
0010
,
1001
0100
0010
0100
,
1001
0000
0100
0000
,
0010
0100
0010
1000
,
1001
0000
0100
0000
,
0010
0100
0010
0001
,
1001
0000
0100
0000
,
1000
0100
0010
0100
,
0010
0001
1001
0000
,
0100
0010
0100
1000
,
1001
0100
0010
0100
,
1000
1001
0100
0000
,
0010
0100
1000
0100
,
0001
0100
1001
0000
,
0100
0010
0100
1000
,
0100
0010
0101
0000
,
0010
0100
1000
0100
,
0001
0010
1010
0000
,
0200
0000
0310
0100
,
0002
0000
1003
0010
,
0100
1000
0010
1000
,
0100
0001
0100
1000
,
0200
0000
0310
0001
,
2000
0000
3010
0001
,
1001
1000
0100
0000
,
0010
0100
0001
1000
,
1001
0000
0000
0000
;

//--------------- dance-single - ----------------
#NOTEDATA:;
#STEPSTYPE:dance-single;
#DESCRIPTION:;
#DIFFICULTY:Medium;
#METER:6;
#RADARVALUES:0,0,0,0,0;
#NOTES:
0000
0000
0000
0000
,
1000
0000
0100
0000
0010
0100
0010
1000
,
0001
0100
0010
0000
1001
0000
0100
0010
,
1000
0100
0010
0001
1001
0000
0100
0010
,
0100
0100
0010
1000
0100
0000
0010
0001
,
1000
0000
0100
0000
0010
0100
0010
0001
,
0000
0000
0100
0000
1000
0100
0010
0001
,
0100
0010
0100
0010
0001
1000
0100
0010
,
0001
0100
0010
0000
1000
0100
0010
0000
,
0001
0000
0100
0000
0010
0100
1000
0100
,
0010
0001
0100
0000
0010
0000
0100
0000
,
0010
0100
0010
1000
0100
0010
0001
0100
,
0100
0100
0000
0001
0000
1001
0000
0100
,
0010
1000
0100
1000
0011
0000
0100
0010
,
0100
0000
1000
0000
0100
0010
0100
0100
,
0000
0001
0100
0010
1000
0100
0010
0001
,
0100
0000
1001
0000
0100
0010
1000
0010
,
0100
0000
0001
0000
0100
0010
1000
0010
,
1010
0000
0100
0000
0001
0100
0010
1000
,
0000
0001
0100
0010
1000
0010
0100
0000
,
0001
0001
2000
0000
3000
0010
0100
0000
,
0100
0010
0000
1000
0100
0000
0010
0100
,
0001
0100
0000
1000
0100
0000
0100
0000
,
0010
0100
1000
0100
0010
0000
0001
0010
,
1000
0000
0100
0000
0001
0000
0100
0010
,
1000
0100
0000
0100
0010
0000
0100
0001
,
0100
1000
0000
0010
0001
0000
0100
0100
,
0001
0000
1000
0100
0010
0000
1000
1000
,
1001
0000
0100
0001
0100
0000
0001
0100
,
2000
3100
0002
0103
,
0001
1000
0010
0000
0100
0000
0010
0000
,
0200
0301
2000
3001
,
0100
0001
1000
0000
1010
0000
0100
0000
,
0200
0301
0020
1030
,
0010
0001
0100
0000
1000
0000
1001
0000
,
0200
0310
0002
1003
,
0001
0001
1000
0010
0100
0010
1000
0000
,
1010
0000
0100
0000
0001
0100
0001
1000
,
1010
0000
0100
0000
0101
0001
0100
0010
,
0000
0010
1000
0010
0100
0001
1000
0001
,
1001
0000
0100
0000
0010
0000
0100
0001
,
1000
0001
0100
0010
1000
0010
1000
0000
,
1010
0000
0100
0000
0001
0001
1000
0010
,
0100
0000
1001
0000
0010
0100
0010
1000
,
0010
0000
1010
0000
0100
0001
1000
0010
,
1000
0100
0000
0100
0010
0000
0100
0010
,
0001
0100
0000
0010
0100
0000
1000
0000
,
0100
0000
0010
0000
0100
0000
0010
0001
,
1001
0000
0100
0000
0010
0100
0010
1000
,
0010
0010
0000
0100
0010
0000
1000
0010
,
0100
0010
0000
0010
0100
0000
0001
1000
,
0010
0100
0010
1000
0010
0000
0100
0010
,
1010
0000
0100
0001
1001
0000
0100
0001
,
1001
0000
0000
0000
;

//--------------- dance-single - ----------------
#NOTEDATA:;
#STEPSTYPE:dance-single;
#DESCRIPTION:;
#DIFFICULTY:Hard;
#METER:7;
#RADARVALUES:0,0,0,0,0;
#NOTES:
0000
0000
0000
0000
,
1000
0100
0000
0000
0100
0000
0010
0000
,
0010
0001
0001
0100
0010
1000
0010
0100
,
1001
0100
0010
0000
0100
0010
1000
0010
,
0100
1001
0100
0010
1010
0000
0100
0001
,
0100
0000
0000
0000
0001
0000
1000
0100
0010
0000
0100
0000
0100
0000
0010
0000
,
0000
0000
1000
0100
0000
0000
0000
0000
0100
0000
0010
0000
1000
0000
0000
0000
,
0100
0010
1000
0100
0010
0001
1000
0000
,
1001
0100
0010
0000
0100
0010
1000
0000
,
0100
0010
1000
0100
0010
0001
1000
0000
,
1000
0000
0100
0000
0002
0000
0000
0103
0010
0000
0100
0000
0010
0000
0000
0000
,
1000
0100
0010
0001
1000
0100
0010
0000
,
1000
0100
0010
0000
0100
0010
0100
0010
,
1000
0100
0100
0010
0100
0000
1000
0010
,
0101
0000
1001
0100
1010
0000
0000
1000
,
0000
0010
0100
0001
0100
0010
1000
1010
,
0110
0000
0100
0001
0100
1010
0000
0110
,
0010
1000
0010
0000
0101
0100
0001
1001
,
1000
0000
0100
0000
0010
1000
0010
0100
,
0000
0010
0100
0010
1000
0010
0100
0001
,
0001
0001
1000
0010
0100
0010
0100
0010
,
1001
0200
0000
0000
0310
1000
0010
0100
,
0001
2000
0000
0000
3001
0010
1000
0200
,
0000
0310
0100
0010
0010
0000
1000
0010
,
0100
0000
2002
3003
0100
0000
0010
0100
,
0010
1000
0100
0010
0001
0000
1000
0100
,
0010
0001
0100
0010
0002
0000
1003
0100
,
0001
0000
0100
0010
1000
0000
1001
0100
,
0110
0010
2000
3000
1001
0100
0020
0130
,
0002
0000
0103
0000
0010
0100
0010
0100
,
1000
0100
0010
0000
0001
0000
0100
0000
,
0010
0100
0010
0100
0100
0010
1000
0100
,
0100
0010
0100
0000
0100
0000
1000
0000
,
0100
0010
1000
0100
0010
0100
0010
0001
,
1000
0000
0100
0000
0010
0000
0000
0100
0020
0000
0000
0000
1030
0000
0000
0000
,
0100
0010
0100
1000
0100
0010
0001
0000
,
1000
0001
0200
0000
0310
0100
0010
0100
,
1000
0100
0010
0001
0100
0010
0100
0010
,
0110
0000
1000
0000
1001
0100
0000
0001
,
0000
0100
0010
1000
0100
0010
0001
1001
,
0100
0000
0010
0100
0010
1000
0100
0010
,
0001
0000
0100
0010
1000
0100
0010
0001
,
2002
3003
0200
0300
2000
0000
0000
3001
,
0000
1000
0001
0010
0100
1000
0110
0010
,
1000
0100
0010
0000
1001
0100
0010
0000
,
0100
0020
2030
0000
3200
0000
0302
0000
,
0103
0010
1000
0100
0001
0100
0010
1000
,
0100
0010
0001
0000
1001
0000
0100
0010
,
1000
0000
1100
0000
0100
0010
0001
0100
,
0001
0200
0000
0000
0301
0000
1000
0100
,
0010
2000
0000
0000
3001
0100
0010
1000
,
0100
0010
0001
1000
0101
0000
0010
0100
,
1001
0000
0100
0010
0001
0100
1000
0000
,
2002
0000
3003
0000
;
