#TITLE:히페리온 (feat. Vin);
#SUBTITLE:;
#ARTIST:M2U;
#TITLETRANSLIT:Hyperion (feat. Vin);
#SUBTITLETRANSLIT:;
#ARTISTTRANSLIT:;
#GENRE:Techno;
#CREDIT:Wrland;
#MUSIC:Hyperion (feat. Vin).ogg;
#BANNER:Hyperion (feat. Vin).png;
#BACKGROUND:Hyperion (feat. Vin)-bg.png;
#METERTYPE:DDR X;
#CDTITLE:Wrland.png;
#SAMPLESTART:7.949;
#SAMPLELENGTH:12.000;
#SELECTABLE:YES;
#OFFSET:-0.087;
#BPMS:0.000=145.000;
#STOPS:;
#JACKET:Hyperion (feat. Vin)-jacket.png;
#CDIMAGE:Hyperion (feat. Vin)-cd.png;
#BGCHANGES:;
#FGCHANGES:;

//--------------- dance-single - Wrland ----------------
#NOTES:
     dance-single:
     Wrland:
     Beginner:
     1:
     0,0,0,0,0:
0000
0000
0000
0000
,
0000
0000
0000
0000
,
0000
0000
0000
0000
,
0000
0000
0000
0000
,
0000
0000
0000
0100
,
0000
0000
0000
0000
,
0000
0000
0000
0100
,
0000
0000
0000
0000
,
0000
0000
0000
0010
,
0000
0000
0000
0000
,
0000
0000
0000
0010
,
0000
0000
0000
0000
,
0000
0000
0000
0001
,
0000
0000
0000
0000
,
0000
0000
0000
0001
,
0000
0000
0000
0000
,
0000
0000
0000
0010
,
0000
0000
0000
0000
,
0000
0000
0000
0100
,
0000
0000
0000
0000
,
0000
0000
0000
1000
,
0000
0000
0000
0000
,
0000
0000
0000
0100
,
0000
0000
0000
0000
,
0000
0000
0000
0010
,
0000
0000
0000
0000
,
0000
0000
0000
0001
,
0000
0000
0000
0000
,
0000
0000
0000
0010
,
0000
0000
0000
0000
,
0000
0000
0000
0100
,
0000
0000
0000
0000
,
0000
0000
0000
1000
,
0000
0000
0000
0000
,
0000
0000
0000
0001
,
0000
0000
0000
0000
,
0000
0000
0000
0200
,
0000
0000
0000
0300
,
0000
0000
0000
0200
,
0000
0000
0000
0300
,
0000
0000
0000
0020
,
0000
0000
0000
0030
,
0000
0000
0000
0020
,
0000
0000
0000
0030
,
0000
0000
0000
0001
,
0000
0000
0000
0000
,
0000
0000
0000
0001
,
0000
0000
0000
0000
,
0000
0000
0000
1000
,
0000
0000
0000
0000
,
0000
0000
0000
1000
,
0000
0000
0000
0000
,
0000
0000
0000
0200
,
0000
0000
0000
0000
,
0300
0000
0000
0000
,
0000
0000
0000
0000
,
0000
0000
0000
2000
,
0000
0000
0000
3000
,
0000
0000
0000
0000
,
0000
0000
0000
0000
,
0000
0000
0000
0100
,
0000
0000
0000
0000
,
0000
0000
0000
0010
,
0000
0000
0000
0000
,
0000
0000
0000
0001
,
0000
0000
0000
0000
,
0000
0000
0000
1000
,
0000
0000
0000
0000
,
0000
0000
0000
2002
,
0000
0000
0000
0000
,
3003
0000
0000
0000
;

//--------------- dance-single - Wrland ----------------
#NOTES:
     dance-single:
     Wrland:
     Easy:
     3:
     0,0,0,0,0:
0000
0000
0000
0000
,
0000
0000
0000
0000
,
0000
0000
0000
0000
,
0000
0000
0000
0000
,
0000
0000
0000
0100
,
0000
0000
0000
0100
,
0000
0000
0000
0010
,
0000
0000
0000
0010
,
0000
0000
0000
0100
,
0000
0000
0000
0100
,
0000
0000
0000
1000
,
0000
0000
0000
2000
,
0000
3000
0000
0001
,
0000
0000
0000
0001
,
0000
0000
0000
0010
,
0000
0000
0000
0010
,
0000
0000
0000
0100
,
0000
0000
0000
0100
,
0000
0000
0000
1000
,
0000
0000
0000
2002
,
0000
3003
0000
0010
,
0000
0000
0000
0100
,
0000
0000
0000
0100
,
0000
0000
0000
1000
,
0000
0000
0000
1000
,
0000
0000
0000
0010
,
0000
0000
0000
0100
,
0000
0000
0000
0001
,
0000
0000
0000
0010
,
0000
0000
0000
0100
,
0000
0000
0000
0100
,
0000
0000
0000
0010
,
0000
0000
0000
0001
,
0000
0000
0000
0001
,
0000
0000
0000
0100
,
0000
0000
0000
1001
,
0000
0000
0000
0200
,
0000
0300
0000
0200
,
0000
0300
0000
0020
,
0000
0030
0000
0020
,
0000
0030
0000
0002
,
0000
0003
0000
0002
,
0000
0003
0000
2000
,
0000
3000
0000
2000
,
0000
3000
0000
0100
,
0000
0000
0000
0100
,
0000
0000
0000
0010
,
0000
0000
0000
0010
,
0000
0000
0000
0001
,
0000
0000
0000
0001
,
0000
0000
0000
0100
,
0000
0000
0000
0100
,
0000
0000
0000
0220
,
0000
0000
0000
0330
,
0000
0000
0000
2002
,
0000
0000
0000
3003
,
0000
0000
0000
2200
,
0000
0000
3300
0000
,
0000
0000
0000
0022
,
0000
0000
0000
0033
,
0000
0000
0000
0100
,
0000
0000
0000
0100
,
0000
0000
0000
0010
,
0000
0000
0000
0010
,
0000
0000
0000
0001
,
0000
0000
0000
0010
,
0000
0000
0000
0100
,
0000
0000
0000
0220
,
0000
0330
0000
2002
,
0000
0000
0000
0000
,
3003
0000
0000
0000
;

//--------------- dance-single - Wrland ----------------
#NOTES:
     dance-single:
     Wrland:
     Medium:
     5:
     0,0,0,0,0:
0000
0000
0000
0000
,
0000
0000
0000
0000
,
0000
0000
0000
0000
,
0000
0000
0000
0000
,
0000
0000
0000
0100
,
0000
0100
0000
0010
,
0000
0010
0000
0001
,
0000
0010
0000
0100
,
0000
0000
2000
0000
0000
3000
0000
0000
,
1000
0100
0000
0010
,
0000
0100
0000
0010
,
0000
0001
0000
0020
,
0000
0030
0000
0100
,
0000
0100
0000
1000
,
0000
0100
0000
0010
,
0000
0100
0000
1000
,
0000
0100
0000
0010
,
0100
0010
0000
0001
,
0000
0010
0000
0100
,
0000
0000
0000
0000
1000
0000
0000
0000
0000
0000
0000
0000
1000
0000
0000
0001
,
0000
2000
0000
0000
3000
0000
0100
0000
,
0000
0010
0000
0100
,
0000
0010
0000
0001
,
0000
0010
0000
0100
,
0000
1000
0000
0100
,
0000
0010
0000
0100
,
0000
1000
0000
0100
,
0000
1000
0000
0100
,
0000
0010
0000
0001
,
0000
0010
0000
0100
,
0000
1000
0000
0100
,
0000
1000
0000
0100
,
0000
0010
0000
0200
,
0000
0300
0010
0001
,
0000
0010
0100
0020
,
0030
0000
0200
0000
0000
0000
0000
0000
0300
0000
0000
0000
0001
0000
0000
0010
,
0000
0000
0001
0000
0000
1000
0000
0000
0100
0000
1000
0000
0002
0000
0000
0000
,
0000
0003
0000
2000
,
0000
3000
0000
0200
,
0000
0300
0000
0020
,
0000
0030
0000
0200
,
0000
0300
0000
0200
,
0000
0300
0000
2000
,
0000
3000
0000
2000
,
0000
3000
0000
1000
,
1000
0002
0003
0100
,
0010
0020
0030
0100
,
0100
0200
0300
0010
,
0010
0020
0030
0100
,
0100
2000
3000
0100
,
1000
0200
0300
0010
,
0001
0020
0030
0200
,
0000
0300
0000
0020
,
0000
0030
0000
0200
,
0000
0300
0000
2000
,
0000
3000
0000
0002
,
0000
0003
0000
0020
,
0000
0030
0000
0200
,
0000
0300
0000
0020
,
0000
0030
0000
2002
,
0000
3003
0000
1000
,
0000
1000
0000
0100
,
0000
0100
0000
0010
,
0000
0010
0000
0001
,
0000
0001
0000
0010
,
0000
0100
0000
0010
,
0000
0100
0010
0200
,
0300
0000
0020
0000
0000
0000
0000
0000
0030
0000
0000
0000
1000
0000
0000
0001
,
0000
0000
1000
0000
0000
0001
0000
0000
1000
0000
0001
0000
2002
0000
0000
0000
,
0000
0000
0000
0000
,
3003
0000
0000
0000
;

//--------------- dance-single - Wrland ----------------
#NOTES:
     dance-single:
     Wrland:
     Hard:
     7:
     0,0,0,0,0:
0000
0000
0000
0000
,
0000
0000
0000
0000
,
0000
0000
0000
0000
,
0000
0000
0000
0000
,
0000
0000
0000
0100
,
0010
0000
0100
0010
0000
0001
0000
0010
,
0000
0100
0000
1000
0000
0200
0300
0000
,
0100
0000
0010
0100
0000
0010
0000
0001
,
0000
0100
0000
0020
0030
0000
0000
0000
,
0100
0000
1000
0100
0000
0010
0000
0100
,
0000
0010
0000
0001
0000
0200
0300
0000
,
0010
0000
0100
0000
0000
0000
0010
0000
0000
0000
0100
0000
0010
0000
0000
0110
,
0000
1001
0000
0220
0330
0000
0100
0000
,
0010
0000
0100
0020
0030
0001
0000
0100
,
0000
0010
0000
0200
0300
0000
0000
0000
,
1000
0000
0100
1000
0000
0100
0000
0010
,
0000
0100
0000
0010
0100
0020
0030
0000
,
0100
0000
0010
0100
0000
0010
0000
0001
,
0000
0100
0000
0020
0030
0000
0200
0000
,
0300
0000
0020
0000
0030
0000
0000
0000
0000
0000
1000
0000
0100
0000
0000
0011
,
0000
0000
0010
0000
0000
0100
0000
0000
0110
0000
0000
0000
0020
0000
0000
0000
,
0030
0200
0000
0300
0020
0030
2000
3000
,
0000
0200
0300
0000
0200
0300
0020
0000
,
0030
0002
0000
0003
0020
0030
0200
0000
,
0000
0000
0300
0000
0200
0300
0020
0000
,
0000
0000
0030
0000
0200
0300
2000
0000
,
3000
0000
2000
3000
0200
0300
2000
3000
,
0000
0200
0000
0000
0000
0000
0010
0000
,
0010
0000
0310
0000
0002
0003
0020
0000
,
0000
0000
0000
0000
0030
0000
0200
0300
,
1000
0200
0300
0020
0000
0030
0200
0000
,
0300
0020
0000
0030
0001
0000
0010
0000
,
0100
0010
0001
0020
,
0000
0000
0030
0000
0200
0300
2000
0000
,
3000
0000
2000
3000
0200
0300
2000
0000
,
3000
0000
0200
0000
0000
0000
0000
0000
0300
0000
0000
0000
0100
0000
0000
0110
,
0000
0000
0001
0000
0000
0110
0000
0000
0100
0000
0010
0000
0100
0010
0200
0000
,
0000
0000
0300
0000
0100
0010
0200
0000
,
0300
0000
0000
0000
0100
0000
0000
0000
0010
0000
0001
0000
0100
0010
0002
0000
,
0000
0000
0003
0000
0100
0010
0200
0000
,
0300
0000
0000
0000
0010
0100
0010
0001
0020
0000
0030
0000
0100
0000
0000
0010
,
0000
0000
0100
0000
1000
0000
0000
0100
0000
0000
0010
0000
0200
0000
0000
0000
,
0300
0000
0000
0000
0010
0001
1000
0010
0001
0000
0000
0000
0100
0010
0100
0010
,
0001
0010
0100
0010
0200
0000
0000
0000
0310
0000
0000
0000
0100
1000
0100
0010
,
0001
0010
0100
1000
0020
0000
0000
0000
0130
0000
0000
0000
2000
0000
3000
0000
,
2200
3300
0200
0320
0030
0200
0300
0020
,
0030
0002
0003
0020
0030
0000
0020
0030
,
0200
0300
0010
0002
0003
0020
0030
0200
,
0300
0020
0030
0200
0300
0000
2000
3000
,
0200
0300
0010
0200
0300
0020
0030
0002
,
0003
0020
0030
0200
0300
0000
0020
0030
,
0200
0000
0300
0000
0010
0000
0200
0000
0300
0000
0010
0000
0100
0000
0000
0110
,
0000
0000
0001
0000
0000
0101
0000
0000
0010
0000
1010
0000
0200
0000
0000
0000
,
0300
0020
0000
0030
0200
0300
2000
0000
,
3000
0200
0000
0300
0020
0030
0002
0000
,
0003
0200
0000
0300
0020
0030
0200
0000
,
0300
0020
0000
0030
0002
0003
0020
0000
,
0000
0000
0030
0000
0200
0300
2000
0000
,
0000
3000
0200
0300
2000
3000
0200
0000
,
0300
0000
0020
0000
0000
0000
0000
0000
0000
0000
0030
0000
0100
0000
0000
0110
,
0000
0000
0001
0000
0000
0101
0000
0000
0010
0000
0100
0000
0220
0000
0000
0000
,
0000
0000
0000
0000
0330
0000
0020
0030
,
0001
0020
0030
0200
0000
0300
2000
0000
,
3000
0200
0000
0300
2000
3000
0200
0000
,
0300
0020
0000
0030
0200
0300
0020
0000
,
0000
0000
0000
0030
0002
0003
0020
0030
,
0000
0000
0200
0300
2000
3000
0200
0000
,
0300
0000
0020
0000
0000
0000
0000
0000
0030
0000
0000
0000
0100
0000
0000
1100
,
0000
0000
0100
0000
0000
0110
0000
0000
0100
0000
0011
0000
2002
0000
0000
0000
,
0000
0000
0000
0000
,
3003
0000
0000
0000
;

//--------------- dance-single - Wrland ----------------
#NOTES:
     dance-single:
     Wrland:
     Challenge:
     11:
     0,0,0,0,0:
0000
0000
0000
0000
,
0000
0000
0000
0000
,
0000
0000
0000
0000
,
0000
0000
0000
0000
0000
0000
0000
0000
0000
0000
0000
0000
1001
0000
0000
1010
,
0000
0000
0110
0000
0000
1001
0000
0000
0110
0000
1011
0000
0100
0001
0010
0001
,
0010
1000
0001
0010
0100
0000
0020
0000
0030
0000
0002
0000
0003
0000
0020
0000
,
0030
0000
0200
0000
0300
0000
2000
0000
3000
0000
0200
0000
0310
0001
0010
0001
,
0100
0100
0010
0100
1000
0000
0200
0000
0300
0000
2000
0000
3000
0000
0200
0000
,
0300
0000
0020
0000
0030
0000
0100
0000
0010
0000
0100
0000
0001
1000
0100
0001
,
0010
0100
0010
0001
0001
0000
0200
0000
0300
0000
0020
0000
0030
0000
0200
0000
,
0300
0000
2000
0000
3000
0000
0200
0000
0300
0000
1000
0000
0100
0010
0001
0100
,
1000
0100
1000
0100
0010
0000
0002
0000
0003
0000
0100
0000
0110
0000
0000
1001
,
0000
0000
0110
0000
0000
0000
0110
0000
0000
0000
1001
0000
0110
0010
0100
0010
,
0001
0100
0010
0001
0100
0000
0020
0000
0030
0000
0200
0000
0300
0000
0020
0000
,
0030
0000
0002
0000
0003
0000
0200
0000
0300
0000
0010
0000
0100
0001
0010
0100
,
0010
0001
0010
0100
1000
0000
0200
0000
0300
0000
0200
0000
0300
0000
0020
0000
,
0030
0000
0200
0000
0300
0000
0010
0000
0001
0000
0100
0000
0010
0100
0010
0001
,
0100
0010
0100
1000
0100
0000
0002
0000
0003
0000
0002
0000
0003
0000
2000
0000
,
3000
0002
0003
2000
3000
0000
0202
0000
,
0303
0000
2020
0000
0000
0000
3030
0000
0000
0000
0011
0000
0101
0000
0000
0110
,
0000
0000
1010
0000
0000
1100
0000
0000
0110
0000
0011
0000
0200
0000
0000
0000
,
0300
0020
0000
0030
0002
0003
0020
0000
,
0030
0200
0000
0300
2000
3000
0200
0000
,
0300
0000
0020
0000
0000
0000
0030
0000
0100
0000
0000
0000
0010
0100
0001
0010
,
0100
1000
0010
0100
0010
0000
0000
0000
0100
0000
0000
0000
0020
0000
0000
0000
,
0000
0000
0000
0030
0002
0003
0020
0000
,
0000
0030
0200
0300
0020
0030
2000
3000
,
0000
0000
2002
0000
0000
0000
0000
0000
3003
0000
0000
0000
0100
0010
0100
0010
,
0100
0010
0100
0010
0100
0000
0000
0000
0010
0000
0000
0000
0202
0000
0000
0000
,
0000
0000
0303
0100
,
1000
0200
0300
0020
0000
0030
0200
0000
,
0300
0000
0020
0000
0000
0000
0030
0000
0200
0000
0300
0000
0010
0100
0010
0100
,
0010
0100
0010
0001
0020
0000
0030
0000
0200
0000
0300
0000
2000
0000
0000
0000
,
0000
3000
0100
2000
,
3000
1001
1100
0220
,
0330
0000
2002
0000
0000
0000
0000
0000
3003
0000
0000
0000
1100
0000
0000
0110
,
0000
0000
0101
0000
0000
1010
0000
0000
1100
0000
0011
0000
4404
0000
0000
0000
,
0000
0000
3303
0000
0100
0020
0000
0000
,
0030
0000
0001
0010
0001
0000
0000
0010
0000
0000
0100
0000
1000
0100
2000
0000
,
0000
0000
0000
0000
3000
0000
0010
0100
0010
0001
0010
0100
0010
0001
0100
0010
,
0001
0010
0100
0010
0001
0010
0100
1000
0100
0010
0001
0010
0002
0000
0003
2000
,
0000
3000
0200
0300
2000
0000
3000
0200
0000
0300
0010
0000
0200
0000
0000
0000
,
0300
0000
0000
0000
0010
0001
0100
0010
1000
0100
0010
0001
0000
0010
0100
0010
,
0001
0010
0010
0100
1000
0100
0010
0100
0010
0001
0010
1000
0200
0000
0300
0000
,
0001
0010
0100
0010
0001
0010
0100
0010
0100
1000
0100
0010
2002
0000
3003
0100
,
0022
0000
0033
0010
0220
0330
0020
0000
0030
0000
0200
0000
0300
0000
0020
0000
,
0030
0000
0002
0000
0003
0000
0200
0000
0300
0000
0010
0001
0200
0000
0300
0000
,
0100
0010
0100
0020
0030
0001
0002
0000
,
0003
0000
2000
0000
0000
0000
3000
0000
0022
0000
0033
0000
0100
0000
0100
0020
,
0030
0010
0001
0002
0003
0200
0300
0020
,
0030
0200
0300
0020
0030
1000
0002
0003
,
0100
0010
0001
0100
0010
0100
1000
0100
0010
0010
0100
0010
1001
0000
0000
1100
,
0000
0000
0011
0000
0000
0101
0000
0000
1001
0000
0011
1100
2002
0000
0000
0000
,
3003
2000
0000
3000
0200
0300
0020
0000
,
0030
0200
0000
0300
0020
0030
0002
0000
,
0003
0200
0000
0300
0020
0030
0200
0000
,
0000
0000
0000
0300
0020
0030
0200
0000
,
0000
0000
0000
0300
0020
0030
0002
0000
,
0000
0003
0020
0030
0200
0300
0020
0000
,
0030
0000
0100
0000
0020
0000
0000
0000
0000
0000
0030
0000
0110
0000
0000
1100
,
0000
0000
0110
0000
0000
0011
0000
0000
0110
0000
0011
0000
0220
0000
0000
0000
,
0000
0000
0000
0000
0330
0000
0020
0030
,
0100
0020
0030
0002
0000
0003
2000
0000
,
3000
0000
0002
0000
0000
0000
0003
0000
2000
0000
3000
0000
0001
1000
0001
1000
,
0001
1000
0001
1000
0002
0000
0003
0000
0200
0000
0300
0000
0020
0000
0000
0000
,
0000
0000
0000
0030
0001
0010
0002
0000
,
0000
0003
0200
0300
2000
3000
0200
0000
,
0300
0000
0020
0000
0000
0000
0000
0000
0030
0000
0000
0000
0220
0000
0330
2002
,
0000
3003
0220
0000
0330
2002
0000
3003
0110
0000
0220
0000
0000
0000
0000
0000
,
0000
0000
0000
0000
,
0330
0000
0000
0000
;
