#VERSION:0.83;
#TITLE:휘휘;
#SUBTITLE:;
#ARTIST:라붐;
#TITLETRANSLIT:Hwi hwi;
#SUBTITLETRANSLIT:;
#ARTISTTRANSLIT:LABOUM;
#GENRE:K-Pop;
#CREDIT:;
#MUSIC:Hwi hwi.ogg;
#BANNER:Hwi hwi.png;
#BACKGROUND:Hwi hwi-bg.png;
#CDTITLE:Wrland.png;
#SAMPLESTART:60.498;
#SAMPLELENGTH:12.000;
#SELECTABLE:YES;
#OFFSET:-0.014;
#BPMS:0.000=124.000;
#STOPS:;
#BGCHANGES:;
#FGCHANGES:;

//--------------- dance-single - ----------------
#NOTEDATA:;
#STEPSTYPE:dance-single;
#DESCRIPTION:;
#DIFFICULTY:Beginner;
#METER:1;
#RADARVALUES:0,0,0,0,0;
#NOTES:
0000
0000
0000
0000
,
0000
0000
0000
0000
,
0000
0000
0000
0000
,
0000
0000
0000
0000
,
1000
0000
0000
0000
,
0000
0000
0000
0000
,
0100
0000
0000
0000
,
0000
0000
0000
0000
,
0110
0000
0000
0000
,
0000
0000
0000
0000
,
0010
0000
0000
0000
,
0000
0000
0000
0000
,
1000
0000
0000
0000
,
0000
0000
0000
0000
,
0100
0000
0000
0000
,
0000
0000
0000
0000
,
0010
0000
0000
0000
,
0000
0000
0000
0000
,
0100
0000
0000
0000
,
0000
0000
0000
0000
,
0001
0000
0000
0000
,
0000
0000
0000
0000
,
1000
0000
0000
0000
,
0000
0000
0000
0000
,
0110
0000
0000
0000
,
0000
0000
0000
0000
,
1001
0000
0000
0000
,
0000
0000
0000
0000
,
0100
0000
0000
0000
,
0010
0000
0000
0000
,
1000
0000
0000
0000
,
0100
0000
0000
0000
,
0110
0000
0000
0000
,
1001
0000
0000
0000
,
1000
0000
0000
0000
,
0010
0000
0000
0000
,
0110
0000
0000
0000
,
0100
0000
0000
0000
,
0010
0000
0000
0000
,
0001
0000
0000
0000
,
1010
0000
0000
0000
,
0100
0000
0000
0000
,
0010
0000
0000
0000
,
0010
0000
0000
0000
,
1000
0000
0000
0000
,
0010
0000
0000
0000
,
0100
0000
0000
0000
,
0010
0000
0000
0000
,
1000
0000
0000
0000
,
0001
0000
0000
0000
,
0100
0000
0000
0000
,
0110
0000
0000
0000
,
0000
0000
0000
0000
,
0000
0000
0000
0000
,
1001
0000
0000
0000
,
0100
0000
0000
0000
,
0010
0000
0000
0000
,
1000
0000
0000
0000
,
0100
0000
0000
0000
,
0010
0000
0000
0000
,
0100
0000
0000
0000
,
0010
0000
0000
0000
,
1000
0000
0000
0000
,
0100
0000
0000
0000
,
0010
0000
0000
0000
,
0001
0000
0000
0000
,
0100
0000
0000
0000
,
0010
0000
0000
0000
,
1000
0000
0000
0000
,
0100
0000
0000
0000
,
0110
0000
0000
0000
;

//--------------- dance-single - ----------------
#NOTEDATA:;
#STEPSTYPE:dance-single;
#DESCRIPTION:;
#DIFFICULTY:Easy;
#METER:4;
#RADARVALUES:0,0,0,0,0;
#NOTES:
0000
0000
0000
0000
,
0000
0000
0000
0000
,
0000
0000
0000
0000
,
0000
0000
0000
0000
,
1000
0000
0100
0000
,
0010
0000
0100
0000
,
0001
0000
1000
0000
,
0100
0000
0010
0000
,
0110
0000
0001
0000
,
1000
0000
0100
0000
,
0001
0000
0100
0000
,
0010
0000
1000
0000
,
0100
0000
0010
0000
,
0100
0000
0001
0000
,
1000
0000
0100
0000
,
0010
0000
0001
0000
,
1000
0000
0100
0000
,
0010
0000
0100
0000
,
0110
0000
1001
0000
,
0100
0000
0001
0000
,
1000
0000
0100
0000
,
0010
0000
0100
0000
,
0001
0000
1000
0000
,
0100
0000
0010
0000
,
0200
0300
0002
0003
,
2000
3000
0002
0003
,
2000
3000
0200
0300
,
0010
0100
0010
0000
,
1001
0000
0100
0000
,
1000
0000
0100
0000
,
0100
0010
0100
0001
,
1000
0000
0100
0100
,
0010
0000
1000
0000
,
0001
1000
0001
0000
,
0100
0000
0010
0000
,
0100
0000
0010
0100
,
0110
0000
0001
0000
,
1000
0000
0100
0010
,
0100
0000
0001
0000
,
1000
0001
0100
0010
,
0110
0000
0001
0000
,
0010
0001
0010
0000
,
0100
0000
0010
0000
,
0100
1000
0100
0010
,
0110
0000
0001
0000
,
1000
0100
0010
0000
,
0110
0000
0001
0000
,
1000
0001
0100
0000
,
0010
0000
0100
0000
,
0010
0000
0001
0000
,
1000
0000
0100
0000
,
0010
0000
0100
0000
,
0000
0000
0000
0000
,
0000
0000
0000
0000
,
1001
0100
0010
0000
,
0100
0010
0100
0000
,
1000
0000
0010
0000
,
0100
0010
0100
0000
,
0110
0000
1001
0000
,
0100
0001
0100
0000
,
0110
0000
1000
0000
,
0100
0010
0100
0010
,
0110
0000
1000
0000
,
1000
0100
0010
0100
,
0110
0000
0010
0000
,
0001
0010
0100
1000
,
0110
0000
1001
0000
,
0100
1000
0100
0000
,
0010
0000
0100
0000
,
0010
0100
0010
0100
,
0110
0000
0000
0000
;

//--------------- dance-single - ----------------
#NOTEDATA:;
#STEPSTYPE:dance-single;
#DESCRIPTION:;
#DIFFICULTY:Medium;
#METER:8;
#RADARVALUES:0,0,0,0,0;
#NOTES:
0000
0000
0000
0000
,
0000
0000
0000
0000
,
0000
0000
0000
0000
,
0000
0000
0000
0110
,
1001
0000
0100
0000
0010
1000
0100
0000
,
0010
0000
0100
0000
0010
0100
0010
0000
,
1001
0000
0100
0000
0010
0001
0100
0000
,
0010
0110
1000
0100
,
0010
0001
0100
1000
0010
0001
1000
0020
,
0030
0100
0010
0100
0010
1000
0100
0020
,
0030
0100
0010
0010
0100
0100
1000
0100
,
0020
0030
0200
0300
0010
0100
0010
0002
,
0003
1000
0100
0100
0010
0100
0010
0002
,
0003
1000
0100
0010
0100
0010
0100
0020
,
0030
0100
0010
1000
0100
0010
0100
0010
,
0200
0300
0002
0003
1000
0001
0100
0010
,
0110
0000
0110
0000
0100
0010
0100
1000
,
0100
0010
0001
0100
0010
0000
0100
0000
,
0011
0000
1100
0001
1000
0100
0010
1000
,
0001
0100
0010
0100
0020
0030
0000
0200
,
0300
1000
0100
0010
0100
0020
0030
0002
,
0003
1000
0100
0010
0100
0020
0030
0100
,
0100
0000
0010
0001
0000
0000
0100
0000
0010
0000
0100
0001
0000
0000
1000
0000
,
0200
0300
0020
0030
0100
0010
0200
0300
,
0010
0010
0010
0010
,
1000
0000
1000
0000
1000
0000
0001
1000
,
0000
0100
0010
0100
0020
0030
0100
0010
,
0220
0000
0000
0000
0330
0100
0010
0100
,
0110
0000
1001
0000
0110
0000
1000
0020
,
0030
0200
0300
0020
0030
0100
0010
0200
,
0300
1000
0100
0010
0001
0100
0010
0200
,
0000
0300
0010
0100
0100
0010
1000
0100
,
0010
0000
0110
0000
1001
0000
0100
0020
,
0030
0200
0300
2000
3000
0100
0010
0002
,
0003
1000
0100
0010
0100
0010
0100
2000
,
0000
0000
3000
0100
0020
0030
0220
0330
,
0001
1000
0100
0010
0100
0000
0010
0100
,
0010
1000
0100
0010
0100
0000
0220
0330
,
0001
1000
0001
0100
0010
0000
0100
0000
,
0010
1000
0100
0010
0010
0100
0010
1000
,
0001
0000
1001
0000
0110
0000
1000
0200
,
0300
0020
0030
0200
0300
0010
1000
0100
,
0010
0100
0010
0001
1000
0200
0300
0002
,
0003
0100
0010
1000
0100
0010
0100
0110
,
0000
0100
0010
1000
0100
0010
0100
0020
,
0030
1000
0000
0020
0000
0030
1000
0100
,
0000
0010
0100
0010
1000
0100
0010
0001
,
0000
0100
0010
0100
0010
0000
0100
1000
,
0000
0100
0010
0100
0000
0010
0001
1000
,
0000
0100
0001
1000
0000
0100
0000
0000
,
0010
0100
0010
1000
,
0001
0100
0010
0220
,
0000
0000
0000
0000
,
0000
0000
0330
0000
1001
0100
0010
0100
,
0110
0000
1100
0000
0011
0000
0100
0020
,
0030
0200
0300
2000
3000
0100
0010
0100
,
0000
0100
0010
1000
0100
0010
0001
0100
,
0000
0010
0100
0010
1000
0100
0010
0001
,
0110
0000
1001
0000
0110
0000
1000
0020
,
0030
0200
0300
0010
0100
0010
0001
1000
,
0000
0001
1000
0001
0100
0010
0100
0020
,
0000
0030
0110
1000
0100
0000
0110
0000
,
1001
0100
0010
0100
0010
1000
0000
1000
,
0100
0010
0001
1000
0110
0000
0001
0000
,
1000
0001
0100
0010
0100
0001
0000
0100
,
0010
1000
0100
0010
0100
0010
0001
0100
,
0110
0000
1001
0000
0100
0000
1000
0020
,
0030
0200
0300
0001
0000
0100
0010
2000
,
3000
0100
0010
0100
1000
0100
0000
0100
,
0000
0010
0100
0010
0001
1000
0100
0010
,
0001
0100
0010
0100
0010
0000
0000
0110
;

//--------------- dance-single - ----------------
#NOTEDATA:;
#STEPSTYPE:dance-single;
#DESCRIPTION:;
#DIFFICULTY:Hard;
#METER:12;
#RADARVALUES:0,0,0,0,0;
#NOTES:
0000
0000
0000
0000
,
0000
0000
0000
0000
,
0000
0000
0000
0000
,
0000
0000
0000
0000
,
0100
0000
1000
0000
0100
0000
0010
0000
0200
0000
0300
0010
0000
0000
0200
0000
,
0000
0300
1000
0000
0100
0000
0001
0000
0100
0000
0000
0010
0000
0000
0100
0000
,
0010
0000
0100
0000
1000
0000
0100
0000
0020
0000
0030
0200
0000
0300
0020
0000
,
0000
0030
1000
0000
0100
0000
0010
0000
0100
0000
0010
0000
0220
0000
0000
0000
,
0330
0000
0100
0010
0100
0000
0010
0000
0100
0000
1000
0000
0010
0000
0200
0000
,
0300
0000
0010
0100
1000
0000
0010
0000
0100
0000
0010
0000
1000
0000
0200
0000
,
0300
0000
0010
1000
0010
0000
0100
0000
0010
0000
0100
0000
0001
0000
1000
0000
,
0200
0000
0000
0300
0020
0000
0000
0030
0100
0000
0010
0000
1000
0000
0200
0000
,
0300
0000
0001
1000
0001
0000
0100
0000
0010
0000
0100
0000
0010
0000
2000
0000
,
3000
0000
0100
0010
0100
0000
0010
0000
1000
0000
0100
0000
0010
0000
0200
0000
,
0300
0000
0010
0100
0010
0000
1000
0000
0100
0000
0010
0000
0010
0000
0100
0000
,
0220
0000
0000
0330
2000
0000
0000
3000
0100
0000
0010
0000
0100
0000
0010
0000
,
0110
0000
1001
0000
0100
0010
0100
1000
,
0100
0010
0001
0100
0110
0010
1000
0100
,
0110
0000
0000
0000
1001
0000
0100
0001
1000
0000
0100
0000
1000
0000
0010
0000
,
0100
0010
0100
1000
0002
0000
1003
0020
,
0000
0030
0100
0000
0010
0000
1000
0000
0100
0000
0020
0000
0000
0030
0200
0000
,
0000
0300
0010
0000
0100
0000
1000
0000
0100
0000
0002
0000
0003
0000
0010
0000
,
0100
0000
0100
0010
0000
0000
0100
0000
0010
0000
1000
0100
0000
0000
0001
0010
,
0200
0000
0300
0000
0220
0000
0000
0330
1000
0000
0100
0000
0020
0000
0000
0030
,
1000
0000
0100
0000
0010
0000
0100
0000
0020
0000
0000
0030
0100
0000
0010
0000
,
1000
0000
0100
0000
0010
0000
0100
0000
0010
0000
1000
0001
0100
0000
0010
0000
,
0100
0000
0010
0000
0100
0000
0010
0000
2002
0000
0000
3003
0100
0000
0220
0000
,
0330
0000
1000
0100
0010
0100
0010
0001
0100
0010
1000
0000
0100
0000
0010
0000
,
0110
0000
1001
0000
0110
0100
0010
2000
,
0000
3000
0200
0000
0000
0300
0020
0000
0000
0030
1000
0000
0100
0000
0020
0000
,
0030
0000
1000
0000
0100
0000
0010
0000
0100
0000
1000
0000
0100
0000
0010
0100
,
0020
0000
0000
0030
0001
0000
1000
0001
0100
0000
0010
1000
0100
0000
0010
0000
,
0110
0000
1001
0000
0110
0000
0100
0110
,
0000
1001
0000
0110
0000
0100
0010
2000
,
3000
0100
0010
1000
0100
0010
0100
0020
,
0000
0030
2000
0000
3000
0000
0010
0000
0200
0000
0000
0300
2002
0000
0000
3003
,
0110
0000
1000
0000
0100
0000
0010
0000
0200
0000
0300
0010
0000
0000
0100
0000
,
1000
0000
0100
0000
0010
0000
0100
0000
0220
0000
0000
0330
2002
0000
0000
3003
,
0100
0000
0010
0000
0100
0000
0010
0000
0002
0000
0003
2000
0000
3000
0020
0000
,
0000
0030
0100
0000
0010
0000
0100
0000
0010
0000
1000
0000
0100
0000
0001
0000
,
1100
0000
0011
0000
1100
0000
0100
0020
,
0000
0030
2000
0000
0000
3000
0200
0000
0300
0000
0100
0000
0010
0000
0002
0000
,
0000
0003
0110
0000
1000
0000
0100
0000
0001
0000
0020
0000
0000
0030
0100
0000
,
0000
0010
1000
0100
0010
0100
0010
0220
,
0000
0330
1000
0100
0100
0010
0100
0020
,
0000
0030
2002
0000
3003
0000
0100
0000
0010
0001
0100
0010
0100
0000
0020
0000
,
0000
0030
0100
0000
0010
0000
1000
0000
0100
0000
0010
0000
0001
0000
2000
0000
,
0000
0000
3000
0000
0200
0000
0000
0300
0010
0000
1000
0000
0100
0000
0020
0000
,
0000
0030
1000
0000
0010
0000
0200
0000
0000
0300
1000
0000
0100
0000
0020
0000
,
0000
0030
0001
0000
0100
0000
0010
0000
0000
0000
0200
0000
0000
0000
0300
0000
,
0002
0000
0000
0003
0200
0000
0000
0300
0020
0000
0000
0030
0200
0000
0000
0300
,
2000
0000
0000
3000
0020
0000
0030
0000
0220
0000
0000
0330
1000
0000
0001
0000
,
1000
0000
0100
0000
0010
0000
0100
0000
0010
0000
0000
0200
0000
0300
0020
0000
,
0000
0030
0100
0000
0010
0001
1000
0010
0100
0010
0100
0000
1000
0000
0100
0000
,
0110
0000
1001
0000
0110
0000
0100
0020
,
0000
0030
2000
0000
0000
3000
0200
0000
0000
0300
0010
0000
0100
0000
0020
0000
,
0000
0030
0100
0000
0010
0000
1000
0000
0100
0000
0010
0000
1000
0000
0110
0000
,
0000
0000
1000
0001
0100
0000
0010
1000
0100
0000
0100
0000
0010
0000
0100
0000
,
1001
0000
0110
0000
0100
0010
1000
0200
,
0000
0300
0020
0000
0000
0030
0100
0000
0010
0000
1000
0000
0100
0000
0020
0000
,
0000
0030
0100
0000
0010
0000
0100
0000
0010
0000
1000
0000
0100
0000
0020
0000
,
0000
0030
0100
1000
0010
0000
0100
0000
0020
0000
0000
0030
0200
0000
0300
0000
,
0110
0000
1000
0000
0100
0000
0010
0000
0200
0000
0300
0002
0000
0003
2000
0000
,
0000
3000
0100
0000
0010
0000
0100
0000
0010
0000
0000
0000
0110
0000
0000
0000
,
1001
0000
0100
0000
0010
0000
0100
0000
0010
0000
0000
1000
0000
0000
0100
0000
,
0000
0010
0100
0010
1000
0100
0010
0100
,
0010
0000
0110
0000
1001
0000
0100
0010
,
0000
0000
0200
0000
0000
0300
0010
0000
0000
0000
0100
0000
0010
0000
2000
0000
,
0000
3000
0100
0000
0010
0000
0100
0000
0010
0000
0002
0000
0000
0003
2000
0000
,
0000
3000
0001
0000
0100
0000
0010
0000
0100
0000
0010
0000
0100
0000
0110
0000
,
1000
0000
0100
0000
0010
0000
0001
0000
0100
0000
0000
0010
0000
0000
0100
0000
;
