#VERSION:0.83;
#TITLE:ファイナルスコール;
#SUBTITLE:;
#ARTIST:℃-ute;
#TITLETRANSLIT:Final Squall;
#SUBTITLETRANSLIT:;
#ARTISTTRANSLIT:;
#GENRE:J-Pop;
#ORIGIN:;
#CREDIT:;
#BANNER:Final Squall.png;
#BACKGROUND:Final Squall-bg.png;
#PREVIEWVID:;
#JACKET:Final Squall-jacket.png;
#CDIMAGE:;
#DISCIMAGE:Final Squall (transparent).png;
#LYRICSPATH:;
#CDTITLE:Wrland.png;
#MUSIC:Final Squall.ogg;
#OFFSET:-0.445000;
#SAMPLESTART:59.428001;
#SAMPLELENGTH:12.000000;
#SELECTABLE:YES;
#DISPLAYBPM:44.000000:177.000000;
#BPMS:0.000=177.000,
28.000=88.500,
30.000=177.000,
162.000=88.500,
164.000=177.000,
168.000=354.000,
175.000=177.000,
274.000=88.500,
278.000=44.250;
#STOPS:172.000=0.169,
246.000=0.339;
#DELAYS:;
#WARPS:;
#TIMESIGNATURES:0.000=4=4;
#TICKCOUNTS:0.000=4;
#COMBOS:0.000=1;
#SPEEDS:0.000=1.000=0.000=0;
#SCROLLS:0.000=1.000;
#FAKES:;
#LABELS:0.000=Song Start;
#BGCHANGES:0.000=Final Squall.avi=1.000=0=0=0=StretchNoLoop====,
99999=-nosongbg-=1.000=0=0=0 // don't automatically add -songbackground-
;
#KEYSOUNDS:;
#ATTACKS:
;

//---------------dance-single - ----------------
#NOTEDATA:;
#CHARTNAME:;
#STEPSTYPE:dance-single;
#DESCRIPTION:;
#CHARTSTYLE:;
#DIFFICULTY:Beginner;
#METER:1;
#RADARVALUES:0.043220,0.127689,0.017796,0.035593,0.004449,34.000000,32.000000,2.000000,4.000000,0.000000,0.000000,0.000000,0.000000,0.000000,0.043220,0.127689,0.017796,0.035593,0.004449,34.000000,32.000000,2.000000,4.000000,0.000000,0.000000,0.000000,0.000000,0.000000;
#CREDIT:;
#DISPLAYBPM:44.000000:177.000000;
#NOTES:
0000
0000
0000
0000
,
0000
0000
0000
0000
,
0000
0000
0000
0000
,
0000
0000
0000
0000
,
0000
0000
0000
0000
,
0000
0000
0000
0000
,
0000
0000
0000
0000
,
0000
0000
1000
0000
,
0000
0000
0000
0000
,
0000
0000
0001
0000
,
0000
0000
0000
0000
,
0000
0000
1000
0000
,
0000
0000
0000
0000
,
0000
0000
0001
0000
,
0000
0000
0000
0000
,
0000
0000
0000
0000
,
0000
0000
0100
0000
,
0000
0000
0000
0000
,
0000
0000
0010
0000
,
0000
0000
0000
0000
,
0000
0000
0100
0000
,
0000
0000
0000
0000
,
0000
0000
0010
0000
,
0000
0000
0000
0000
,
0000
0000
0001
0000
,
0000
0000
0000
0000
,
0000
0000
0100
0000
,
0000
0000
0000
0000
,
0000
0000
0001
0000
,
0000
0000
0000
0000
,
0000
0000
0100
0000
,
0000
0000
0000
0000
,
0000
0000
0010
0000
,
0000
0000
0000
0000
,
0000
0000
0100
0000
,
0000
0000
0000
0000
,
0000
0000
0010
0000
,
0000
0000
0000
0000
,
0000
0000
1000
0000
,
0000
0000
0000
0000
,
0000
0000
0001
0000
,
0000
0000
0000
0000
,
0000
0000
0000
0000
,
0000
0000
0000
1000
,
0000
0000
0000
0000
,
0000
0000
0000
0001
,
0000
0000
0000
0000
,
0000
0000
0000
0100
,
0000
0000
0000
0000
,
0000
0000
0000
0010
,
0000
0000
0000
0000
,
0000
0000
0000
0100
,
0000
0000
0000
0000
,
0000
0000
0000
1000
,
0000
0000
0000
0000
,
0000
0000
0000
0100
,
0000
0000
0000
0000
,
0000
0000
0000
0010
,
0000
0000
0000
0000
,
0000
0000
0000
0100
,
0000
0000
0000
0000
,
0000
0000
0000
0000
0000
0000
0000
0000
0000
0000
0000
0000
0000
0000
0000
0000
0000
0000
0000
0000
0000
0000
0000
0000
0000
0000
0000
0000
0000
0000
0000
0000
0000
0000
0000
0000
0000
0000
0000
0000
0000
0000
0000
0000
0000
0000
0000
0000
0000
0000
0000
0000
0000
0000
0000
0000
0000
0000
0000
0000
0000
0000
0000
0000
0000
0000
0000
0000
0000
0000
0000
0000
0000
0000
0000
0000
0000
0000
0000
0000
0000
0000
0000
0000
0000
0000
0000
0000
0000
0000
0000
0000
0000
0000
0000
0000
0000
0001
0000
0000
0000
0000
0000
0000
0000
0000
0000
0000
0000
0000
0000
0000
0000
0000
0000
0000
0000
0000
0000
0000
0000
0000
0000
0000
0000
0000
0000
0000
0000
0000
0000
0000
0000
0000
0000
0000
0000
0000
0000
0000
0000
0000
0000
0000
0000
0000
0000
0000
0000
0000
0000
0000
0000
0000
0000
0000
0000
0000
0000
0000
0000
0000
0000
0000
0000
0000
0000
0000
0000
0000
0000
0000
0000
0000
0000
0000
0000
0000
0000
0000
0000
0000
0000
0000
0000
0000
0000
0000
0000
0000
0000
0000
,
0000
0000
0000
0000
,
0000
0000
1000
0000
,
0000
0000
0000
0000
,
0000
0000
0100
0000
,
0000
0000
0000
0000
,
0000
0000
0010
0000
,
0000
0000
0000
0000
,
0000
0000
2002
0000
,
0000
0000
3003
0000
,
0000
0220
0000
0330
;

//---------------dance-single - ----------------
#NOTEDATA:;
#CHARTNAME:;
#STEPSTYPE:dance-single;
#DESCRIPTION:;
#CHARTSTYLE:;
#DIFFICULTY:Easy;
#METER:3;
#RADARVALUES:0.097880,0.221121,0.053389,0.035593,0.004449,77.000000,71.000000,6.000000,4.000000,0.000000,0.000000,0.000000,0.000000,0.000000,0.097880,0.221121,0.053389,0.035593,0.004449,77.000000,71.000000,6.000000,4.000000,0.000000,0.000000,0.000000,0.000000,0.000000;
#CREDIT:;
#DISPLAYBPM:44.000000:177.000000;
#NOTES:
0000
0000
0000
0000
,
0000
0000
0000
0000
,
0000
0000
0000
0000
,
0000
0000
0000
0000
,
0000
0000
0000
0000
,
0000
0000
0000
0000
,
0000
0000
0000
0000
,
0000
0000
1000
0000
,
0000
0000
0000
0000
,
0001
0000
1000
0000
,
0000
0000
0000
0000
,
0100
0000
0100
0000
,
0000
0000
0000
0000
,
0010
0000
0010
0000
,
0000
0000
0000
1001
0000
0000
0000
0000
,
0000
0000
0000
0000
,
0000
0000
1000
0000
,
0000
0000
0001
0000
,
0000
0000
1000
0000
,
0000
0000
0001
0000
,
0000
0000
1000
0000
,
0000
0000
0001
0000
,
0000
0000
1000
0000
,
0000
0000
0001
0000
,
0000
0000
0100
0000
,
0000
0000
0100
0000
,
0000
0000
0010
0000
,
0000
0000
0010
0000
,
0000
0000
0100
0000
,
0000
0000
0100
0000
,
0000
0000
0010
0000
,
0000
0000
0000
0010
0000
0000
0000
0000
,
0000
0000
1000
0000
,
0000
0000
0000
0001
0000
0000
0000
0000
,
0000
0000
0100
0000
,
0000
0000
0000
0010
0000
0000
0000
0000
,
0000
0000
0100
0000
,
0000
0000
0000
0001
0000
0000
0000
0000
,
0000
0000
1000
0000
,
0000
0000
0001
0000
,
0000
0000
1001
0000
,
2002
0000
0000
3003
,
0000
0000
0000
0000
,
0000
0000
0000
1000
,
0000
0000
0000
0001
,
0000
0000
0000
0100
,
0000
0000
0000
0001
,
0000
0000
0000
0010
,
0000
0000
0000
0010
,
0100
1000
0000
1000
,
0000
0000
0000
0001
,
1000
0001
1000
0001
,
0000
0000
0000
0100
,
0000
0000
0000
0010
,
0000
0000
0000
0100
,
0000
0000
0000
0010
,
0000
0000
0000
1000
,
0001
0100
0000
0010
,
0000
0000
0000
0100
,
0100
0010
0010
0100
,
0000
0000
0000
1001
,
0000
0000
0000
0000
0000
0000
0000
0000
0000
0000
0000
0000
0000
0000
0000
0000
0000
0000
0000
0000
0000
0000
0000
0000
0000
0000
0000
0000
0000
0000
0000
0000
0000
0000
0000
0000
0000
0000
0000
0000
0000
0000
0000
0000
0000
0000
0000
0000
0000
0000
0000
0000
0000
0000
0000
0000
0000
0000
0000
0000
0000
0000
0000
0000
0000
0000
0000
0000
0000
0000
0000
0000
0000
0000
0000
0000
0000
0000
0000
0000
0000
0000
0000
0000
0000
0000
0000
0000
0000
0000
0000
0000
0000
0000
0000
0000
0000
1000
0000
0000
0000
0000
0000
0000
0000
0000
0000
0000
0000
0000
0000
0000
0000
0000
0000
0000
0000
0000
0000
0000
0000
0000
0000
0000
0000
0000
0000
0000
0000
0000
0000
0000
0000
0000
0000
0000
0000
0000
0000
0000
0000
0000
0000
0000
0000
0000
0000
0000
0000
0000
0000
0000
0000
0000
0000
0000
0000
0000
0000
0000
0000
0000
0000
0000
0000
0000
0000
0000
0000
0000
0000
0000
0000
0000
0000
0000
0000
0000
0000
0000
0000
0000
0000
0000
0000
0000
0000
0000
0000
0000
0000
0000
,
0000
0000
0000
0000
,
0100
0000
0010
0000
,
0000
0000
0000
0001
,
0000
0000
0001
0000
,
0000
0000
0000
0000
,
1000
0000
1000
0000
,
0000
0000
0000
1001
0000
0000
0000
0000
,
0000
0000
2002
0000
,
0000
0000
0000
0000
,
3003
0000
0000
0000
;

//---------------dance-single - ----------------
#NOTEDATA:;
#CHARTNAME:;
#STEPSTYPE:dance-single;
#DESCRIPTION:;
#CHARTSTYLE:;
#DIFFICULTY:Medium;
#METER:6;
#RADARVALUES:0.303811,0.473830,0.115677,0.080084,0.004449,239.000000,226.000000,13.000000,9.000000,0.000000,0.000000,0.000000,0.000000,0.000000,0.303811,0.473830,0.115677,0.080084,0.004449,239.000000,226.000000,13.000000,9.000000,0.000000,0.000000,0.000000,0.000000,0.000000;
#CREDIT:;
#DISPLAYBPM:44.000000:177.000000;
#NOTES:
0000
0000
0000
0000
,
0000
0000
0000
0000
,
0000
0000
0000
0000
,
0000
0000
0000
0000
,
0000
0000
0000
0000
,
0000
0000
0000
0000
,
0000
0000
0000
0000
,
0000
0000
0000
0000
1001
0000
0000
0100
,
0000
0010
0000
0000
,
0100
0000
0010
0000
0100
0000
0000
0010
,
0000
0000
0001
0000
0000
0000
0000
1000
,
0000
0001
0000
0100
0010
0000
0000
0100
,
0000
0010
0000
0000
,
0100
0000
0010
0000
1000
0000
0000
0100
,
0000
0010
0100
0020
0000
0000
0000
0000
,
0030
0000
2002
0000
,
3003
0000
0100
0010
,
0100
0010
0100
0010
,
0001
0100
0010
0000
,
0000
1000
0100
0000
,
0100
0010
0100
0000
,
0010
0100
0010
0000
,
0001
1000
0001
0100
,
0010
0100
0010
0100
,
0000
0000
0100
0010
,
0001
0100
0010
1000
,
0100
0100
1000
0100
,
0010
0100
0010
0000
,
0000
0000
0001
1000
,
0001
0100
0010
0100
,
0000
0010
0100
0010
,
0001
0000
0100
0010
0000
0000
1000
0100
,
0000
0000
0100
0010
,
0100
0010
0000
0100
0000
1000
0100
0010
,
0001
0000
0000
0000
0100
0010
0000
0100
,
0000
0010
0100
0000
0010
1000
0000
0100
,
0000
0000
0000
0000
0100
0010
0100
0000
,
0010
0000
0001
1000
0000
0100
0010
0100
,
0010
0000
0100
0010
0000
0100
0001
1000
,
0010
0000
0100
0010
0000
0001
0100
0010
,
0100
0000
1001
1001
,
0220
0000
0000
0330
,
2002
0000
0000
0000
,
3003
0000
0000
1001
,
0000
0100
0010
0000
0000
0000
0100
0010
,
0100
0010
0100
0000
0000
0000
1000
0100
,
0010
0000
0100
0010
0100
0010
0001
0100
,
0010
0100
0100
0000
0000
1000
0100
0000
,
0000
0010
0100
0000
0010
0000
0001
1000
,
0100
0010
0100
0000
0000
0000
1000
0000
,
0000
0001
1000
0001
,
0000
0000
0000
0100
0010
0100
0010
0000
,
0000
0100
0010
0000
0001
0000
0100
0010
,
0100
1000
0100
0000
0000
0000
0100
0010
,
0001
0010
1000
0100
0010
0100
0010
0100
,
0001
0010
1000
0000
0000
0100
0010
0000
,
0100
0010
0001
1000
0100
0010
0100
0010
,
0001
0100
0010
0000
0000
1000
0100
0000
,
0010
0100
0010
0100
0010
0100
0000
0000
,
0000
0000
0000
0000
0000
0010
1001
0000
,
0000
1001
0000
0110
,
0000
0000
0000
0000
0000
0000
0000
0000
0000
0000
0000
0000
0000
0000
0000
0000
0000
0000
0000
0000
0000
0000
0000
0000
0000
0000
0000
0000
0000
0000
0000
0000
0000
0000
0000
0000
0000
0000
0000
0000
0000
0000
0000
0000
0000
0000
0000
0000
0000
0000
0000
0000
0000
0000
0000
0000
0000
0000
0000
0000
0000
0000
0000
0000
0000
0000
0000
0000
0000
0000
0000
0000
0000
0000
0000
0000
0000
0000
0000
0000
0000
0000
0000
0000
0000
0000
0000
0000
0000
0000
0000
0000
0000
0000
0000
0000
0000
0110
0000
0000
0000
0000
0000
0000
0000
0000
0000
0000
0000
0000
0000
0000
0000
0000
0000
0000
0000
0000
0000
0000
0000
0000
0000
0000
0000
0000
0000
0000
0000
0000
0000
0000
0000
0000
0000
0000
0000
0000
0000
0000
0000
0000
0000
0000
0000
0000
0000
0000
0000
0000
0000
0000
0000
0000
0000
0000
0000
0000
0000
0000
0000
0000
0000
0000
0000
0000
0000
0000
0100
0000
0000
0000
0000
0000
0000
0000
0000
0000
0000
0000
0000
0000
0000
0000
0000
0000
0000
0000
0000
0000
0000
0000
,
0000
0010
0000
0000
,
1000
0000
0100
0000
0010
0000
0000
0100
,
0000
0000
0010
0000
0000
0000
0000
0100
,
0010
0100
1000
0100
0010
0000
0000
0100
,
0000
0010
0000
0000
,
0100
0000
0010
0000
0001
0000
0000
0100
,
0000
0010
0100
0010
0000
0000
0000
0000
,
1001
0000
0220
0000
,
0000
0000
0000
0000
,
0330
0000
0000
0000
;

//---------------dance-single - ----------------
#NOTEDATA:;
#CHARTNAME:;
#STEPSTYPE:dance-single;
#DESCRIPTION:;
#CHARTSTYLE:;
#DIFFICULTY:Hard;
#METER:10;
#RADARVALUES:0.386437,0.726540,0.186863,0.400420,0.062288,304.000000,283.000000,21.000000,45.000000,0.000000,0.000000,0.000000,0.000000,0.000000,0.386437,0.726540,0.186863,0.400420,0.062288,304.000000,283.000000,21.000000,45.000000,0.000000,0.000000,0.000000,0.000000,0.000000;
#CREDIT:;
#DISPLAYBPM:44.000000:177.000000;
#NOTES:
// measure 0
0000
0000
0000
0000
,  // measure 1
0000
0000
0000
0000
,  // measure 2
0000
0000
0000
0000
,  // measure 3
0000
0000
0000
0000
,  // measure 4
0000
0000
0000
0000
,  // measure 5
0000
0000
0000
0000
,  // measure 6
0000
0000
0000
0000
,  // measure 7
0000
0000
0000
0000
1000
0000
0000
0100
,  // measure 8
0000
0020
0000
0030
,  // measure 9
0100
0010
0100
0010
0100
0000
0000
0100
,  // measure 10
0000
0000
2000
0000
0000
3000
0000
0100
,  // measure 11
0010
0100
0010
0001
1000
0000
0000
0100
,  // measure 12
0000
0000
0020
0000
0000
0030
0000
0000
,  // measure 13
0010
0100
1000
0100
0010
0000
0000
0100
,  // measure 14
0000
0010
0100
0020
0000
0000
0030
2000
,  // measure 15
0000
3000
0000
0200
0000
0300
0000
0020
,  // measure 16
0000
0030
0100
0010
,  // measure 17
0100
0010
0000
1000
0000
0000
0100
0000
,  // measure 18
0010
0100
0020
0000
,  // measure 19
0030
0000
0100
0020
0000
0000
0000
0000
,  // measure 20
0030
0000
1000
0100
0020
0000
0030
0000
,  // measure 21
0100
0000
0000
0020
0000
0000
0000
0000
,  // measure 22
0030
0000
0000
0000
1000
0100
0000
0010
,  // measure 23
0000
0100
0000
0010
0000
0001
0100
0000
,  // measure 24
0010
0000
0100
1000
0100
0000
0100
0000
,  // measure 25
0010
0100
0000
0010
0000
0000
0001
1000
,  // measure 26
0000
0100
0000
0010
0100
0000
0100
0002
,  // measure 27
0000
0000
0003
0100
0010
0000
0010
0000
,  // measure 28
0100
0000
0010
0001
2000
0000
3000
0000
,  // measure 29
0100
0000
0000
0010
0000
0200
0000
0000
,  // measure 30
0300
0000
0000
0010
0100
0010
0000
0001
,  // measure 31
0000
0100
0001
0010
0000
1000
0200
0000
,  // measure 32
0000
0000
0300
0000
0100
0010
0100
0000
,  // measure 33
1000
0000
0100
0010
0000
0100
0010
0001
,  // measure 34
2000
0000
3000
0000
0100
0100
0010
0000
,  // measure 35
0100
0000
1000
0100
0010
0100
0000
0002
,  // measure 36
0000
0000
0003
0000
1001
1001
0100
0010
,  // measure 37
0100
0000
0010
0100
0000
1000
0100
0010
,  // measure 38
0001
0000
0100
0010
0000
0100
1000
0100
,  // measure 39
0010
0000
0001
1000
0000
0100
0010
0100
,  // measure 40
0200
0000
0000
0300
0000
0000
1000
0101
1010
0101
0110
1001
,  // measure 41
2002
0000
0000
3003
,  // measure 42
0100
0010
0100
0010
0100
0010
0100
0010
,  // measure 43
0100
0110
0000
0000
0000
0000
0000
0000
0000
0000
0000
0000
0000
0000
0000
0000
0000
0000
0000
0000
0000
0000
0000
0000
0000
0000
0000
0000
0000
0000
0000
0000
0000
0000
0000
0000
0000
0000
0000
0000
0000
0000
0000
0000
0000
0000
0000
0000
1001
0000
0000
0000
0000
0000
0000
0000
0000
0000
0000
0000
0000
0000
0000
0000
0000
0000
0000
0000
0000
0000
0000
0000
0000
0000
0000
0000
0000
0000
0000
0000
0000
0000
0000
0000
0000
0000
0000
0000
0000
0000
0000
0000
0000
0000
0000
0000
0101
0000
0000
0000
0000
0000
0000
0000
0000
0000
0000
0000
0000
0000
0000
0000
0000
0000
0000
0000
0000
0000
0000
0000
0000
0000
0000
0000
0000
0000
0000
0000
0000
0000
0000
0000
0000
0000
0000
0000
0000
0000
0000
0000
0000
0000
0000
0000
0020
0000
0000
0000
0000
0000
0000
0000
0000
0000
0000
0000
0000
0000
0000
0000
0000
0000
0000
0000
0000
0000
0000
0000
0000
0000
0000
0000
0000
0000
0000
0000
0000
0000
0000
0000
0000
0000
0000
0000
0000
0000
0000
0000
0000
0000
0000
0000
,  // measure 44
0030
0100
0020
0000
0000
0030
1000
0100
,  // measure 45
0010
0100
0020
0000
0000
0030
0100
0010
,  // measure 46
0010
0000
0100
0010
0001
1000
0100
0010
,  // measure 47
0100
1000
0002
0000
0003
0100
0020
0000
,  // measure 48
0030
0100
0010
0000
0001
0010
1000
0001
,  // measure 49
1000
0001
2000
0000
3000
0000
0200
0000
,  // measure 50
0300
0000
0000
0000
0010
0000
0100
0000
0010
0000
0001
0000
0100
0010
0100
0001
,  // measure 51
1000
0100
0010
0100
0010
0000
0001
0000
0100
0000
0010
0000
0200
0000
0000
0000
,  // measure 52
0300
1000
0100
0000
0010
0000
0001
0100
,  // measure 53
0010
1000
0200
0000
0300
0000
0100
0010
,  // measure 54
0001
0100
0010
1000
0100
0010
0100
0010
,  // measure 55
1000
0100
0020
0000
0030
0100
0020
0000
,  // measure 56
0030
0001
1000
0100
0010
0100
0100
1000
,  // measure 57
0100
0010
0002
0000
0003
0100
0010
0000
,  // measure 58
1000
0010
0100
0010
0001
0100
0001
1000
,  // measure 59
0100
0010
1000
0100
0010
0100
0010
0001
0110
0000
0110
0000
2002
0000
0000
0000
,  // measure 60
3003
2002
3003
2002
,  // measure 61
0000
0000
0000
0000
0000
0000
0000
0000
0000
0000
0000
0000
0000
0000
0000
0000
0000
0000
0000
0000
0000
0000
0000
0000
0000
0000
0000
0000
0000
0000
0000
0000
0000
0000
0000
0000
0000
0000
0000
0000
0000
0000
0000
0000
0000
0000
0000
0000
0000
0000
0000
0000
0000
0000
0000
0000
0000
0000
0000
0000
0000
0000
0000
0000
0000
0000
0000
0000
0000
0000
0000
0000
0000
0000
0000
0000
0000
0000
0000
0000
0000
0000
0000
0000
0000
0000
0000
0000
0000
0000
0000
0000
0000
0000
0000
0000
3003
0110
0000
0000
0000
0000
0000
0000
0000
0000
0000
0000
0000
0000
0000
0000
0000
0000
0000
0000
0000
0000
0000
0000
0000
0000
0000
0000
0000
0000
0000
0000
0000
0000
0000
0000
0000
0000
0000
0000
0000
0000
0000
0000
0000
0000
0000
0000
0000
0000
0000
0000
0000
0000
0000
0000
0000
0000
0000
0000
0000
0000
0000
0000
0000
0000
0000
0000
0000
0000
0000
0000
0100
0000
0000
0000
0000
0000
0000
0000
0000
0000
0000
0000
0000
0000
0000
0000
0000
0000
0000
0000
0000
0000
0000
0000
,  // measure 62
0000
0000
0020
0000
0000
0030
0000
0000
,  // measure 63
0010
1000
0100
0010
0100
0000
0000
0001
,  // measure 64
0000
0000
0200
0000
0000
0300
0000
0100
,  // measure 65
0010
0001
0100
0010
0100
0000
0000
0100
,  // measure 66
0000
0000
0020
0000
0000
0030
0000
0000
,  // measure 67
0100
0010
1000
0100
0010
0000
0000
0100
,  // measure 68
0000
0010
1000
0220
0000
0000
0330
0000
,  // measure 69
0101
1010
2002
0000
,  // measure 70
0000
0000
0000
0000
,  // measure 71
3003
0000
0000
0000
;

//---------------dance-double - ----------------
#NOTEDATA:;
#CHARTNAME:;
#STEPSTYPE:dance-double;
#DESCRIPTION:;
#CHARTSTYLE:;
#DIFFICULTY:Hard;
#METER:11;
#RADARVALUES:0.385166,0.631774,0.231354,0.551690,0.057838,303.000000,277.000000,26.000000,62.000000,0.000000,0.000000,0.000000,0.000000,0.000000,0.385166,0.631774,0.231354,0.551690,0.057838,303.000000,277.000000,26.000000,62.000000,0.000000,0.000000,0.000000,0.000000,0.000000;
#CREDIT:;
#DISPLAYBPM:44.000000:177.000000;
#NOTES:
00000000
00000000
00000000
00000000
,
00000000
00000000
00000000
00000000
,
00000000
00000000
00000000
00000000
,
00000000
00000000
00000000
00000000
,
00000000
00000000
00000000
00000000
,
00000000
00000000
00000000
00000000
,
00000000
00000000
00000000
00000000
,
00000000
00000000
00000000
00000000
10010000
00000000
00000000
01000000
,
00000000
00200000
00000000
00300000
,
00100000
01000000
00100000
10000000
01000000
00000000
00000000
00100000
,
00000000
00000000
02000000
00000000
00000000
03000000
00000000
01000000
,
00100000
01000000
00100000
01000000
00100000
00000000
00000000
00020000
,
00000000
00030000
00200000
00000000
00000000
00300000
00000000
00000000
,
00100000
00010000
00100000
00010000
00001000
00000000
00000000
00000100
,
00000000
00001000
00000001
00002000
00000000
00003000
00000000
00000200
,
00000000
00000300
00000000
00000020
00000000
00000000
00000030
00002000
,
00000000
00003000
00001010
00000100
,
00000010
00000100
00000000
00000010
00000000
00000000
00000100
00000000
,
00000010
00000100
00001000
00000000
,
00000000
00000000
00000100
00000010
00000000
00000000
00000000
00000000
,
00000001
00000000
00001000
00000001
00002000
00000000
00000000
00003000
,
00000200
00000000
00000300
00000020
00000000
00000000
00000000
00000000
,
00000030
00000100
00000010
00000001
,
00000100
00000000
00000010
00000000
00000100
00000010
00001000
00000100
,
00001000
00000100
00001000
00000000
00010000
00000000
00100000
00000000
,
01000000
01000000
00000000
20000000
00000000
30000000
01000000
00100000
,
00000000
01000000
00000000
10000000
01000000
00000000
00100000
01000000
,
00000000
00000000
00100000
10000000
01000000
00000000
00100000
00000000
,
01000000
00000000
00100000
01000000
20000000
00000000
00000000
30000000
,
00100000
00000000
00000000
01000000
00000000
00200000
00000000
00000000
,
00000000
00000000
00300000
10000000
01000000
00100000
00000000
01000000
,
00000000
00100000
01000000
00100000
00000000
10000000
01000000
00000000
,
00100000
01000000
00100000
01000000
00110000
10010000
10010000
00000000
,
00100000
00000000
01000000
00100000
00000000
00100000
01000000
10000000
,
02000000
00000000
03000000
00000000
01000000
00100000
01000000
00000000
,
10000000
00000000
01000000
00100000
01000000
00100000
00000000
00020000
,
00000000
00000000
00030000
00000000
00010000
00100000
00010000
00100000
,
00010000
00000000
00010000
00001000
00000000
00010000
00001000
00000100
,
00000010
00000000
00000100
00000010
00000000
00000100
00000010
00001000
,
00000001
00000000
00000100
00000010
00000000
00000100
00000010
00000001
,
00002000
00000000
00000000
00003000
00000000
00000000
00001001
00000100
00000010
00000100
00001000
00000100
,
00002002
00000000
00000000
00003003
,
00002002
00000000
00000000
00003003
,
00000000
00001000
00000000
00000000
00000000
00000000
00000000
00000000
00000000
00000000
00000000
00000000
00000000
00000000
00000000
00000000
00000000
00000000
00000000
00000000
00000000
00000000
00000000
00000000
00000000
00000000
00000000
00000000
00000000
00000000
00000000
00000000
00000000
00000000
00000000
00000000
00000000
00000000
00000000
00000000
00000000
00000000
00000000
00000000
00000000
00000000
00000000
00000000
00010000
00000000
00000000
00000000
00000000
00000000
00000000
00000000
00000000
00000000
00000000
00000000
00000000
00000000
00000000
00000000
00000000
00000000
00000000
00000000
00000000
00000000
00000000
00000000
00000000
00000000
00000000
00000000
00000000
00000000
00000000
00000000
00000000
00000000
00000000
00000000
00000000
00000000
00000000
00000000
00000000
00000000
00000000
00000000
00000000
00000000
00000000
00000000
00001000
00000000
00000000
00000000
00000000
00000000
00000000
00000000
00000000
00000000
00000000
00000000
00000000
00000000
00000000
00000000
00000000
00000000
00000000
00000000
00000000
00000000
00000000
00000000
00000000
00000000
00000000
00000000
00000000
00000000
00000000
00000000
00000000
00000000
00000000
00000000
00000000
00000000
00000000
00000000
00000000
00000000
00000000
00000000
00000000
00000000
00000000
00000000
00020000
00000000
00000000
00000000
00000000
00000000
00000000
00000000
00000000
00000000
00000000
00000000
00000000
00000000
00000000
00000000
00000000
00000000
00000000
00000000
00000000
00000000
00000000
00000000
00000000
00000000
00000000
00000000
00000000
00000000
00000000
00000000
00000000
00000000
00000000
00000000
00000000
00000000
00000000
00000000
00000000
00000000
00000000
00000000
00000000
00000000
00000000
00000000
,
00030000
01000000
00100000
00000000
10000000
00000000
01000000
00100000
,
01000000
00100000
20000000
00000000
00000000
30000000
01000000
00100000
,
01000000
00000000
00100000
00010000
10000000
01000000
00100000
01000000
,
10000000
01000000
00100000
00000000
00000000
01000000
00100000
00000000
,
00000000
00010000
01000000
00000000
00100000
00000000
10000000
01000000
,
00100000
01000000
00200000
00000000
00000000
00300000
20000000
00000000
,
00000000
00000000
30000000
00000000
01000000
00000000
00100000
00000000
01000000
00000000
10000000
00000000
01000000
00100000
01000000
00100000
,
01000000
10000000
01000000
00100000
00010000
00000000
00001000
00000000
00010000
00000000
00001000
00000000
00000202
00000000
00000000
00000000
,
00000303
00001000
00000100
00000000
00000100
00000000
00000010
00001000
,
00000100
00000010
00002000
00000000
00003000
00000000
00001000
00000100
,
00000010
00001000
00000100
00000001
00001000
00000100
00000010
00000001
,
00000100
00000010
00000202
00000000
00000303
00001010
00000202
00000000
,
00000303
00000011
00001010
00000100
00000010
00000100
00000010
00001001
,
00000010
00000001
00002200
00003300
00000000
00000100
00000010
00000000
,
00000100
00000010
00001000
00000100
00000010
00000200
00000000
00000000
,
00000300
00000000
00000000
00000000
00000100
00000010
00000100
00000010
00000001
00000010
00001000
00000000
02200000
00000000
00000000
00000000
,
00000000
03300000
20020000
00000000
00000000
30030000
02200000
00000000
,
00000000
00000000
00000000
00000000
00000000
00000000
00000000
00000000
00000000
00000000
00000000
00000000
00000000
00000000
00000000
00000000
00000000
00000000
00000000
00000000
00000000
00000000
00000000
00000000
00000000
00000000
00000000
00000000
00000000
00000000
00000000
00000000
00000000
00000000
00000000
00000000
00000000
00000000
00000000
00000000
00000000
00000000
00000000
00000000
00000000
00000000
00000000
00000000
00000000
00000000
00000000
00000000
00000000
00000000
00000000
00000000
00000000
00000000
00000000
00000000
00000000
00000000
00000000
00000000
00000000
00000000
00000000
00000000
00000000
00000000
00000000
00000000
00000000
00000000
00000000
00000000
00000000
00000000
00000000
00000000
00000000
00000000
00000000
00000000
00000000
00000000
00000000
00000000
00000000
00000000
00000000
00000000
00000000
00000000
00000000
00000000
03300000
02200000
00000000
00000000
00000000
00000000
00000000
00000000
00000000
00000000
00000000
00000000
00000000
00000000
00000000
00000000
00000000
00000000
00000000
00000000
00000000
00000000
00000000
00000000
00000000
00000000
00000000
00000000
00000000
00000000
00000000
00000000
00000000
00000000
00000000
00000000
00000000
00000000
00000000
00000000
00000000
00000000
00000000
00000000
00000000
00000000
00000000
00000000
03300000
00000000
00000000
00000000
00000000
00000000
00000000
00000000
00000000
00000000
00000000
00000000
00000000
00000000
00000000
00000000
00000000
00000000
00000000
00000000
00000000
00000000
00000000
00000000
20020000
00000000
00000000
00000000
00000000
00000000
00000000
00000000
00000000
00000000
00000000
00000000
00000000
00000000
00000000
00000000
00000000
00000000
00000000
00000000
00000000
00000000
00000000
00000000
,
00000000
30030000
02200000
00000000
00000000
00000000
03300000
00000000
,
01000000
00100000
10000000
01000000
00200000
00000000
00300000
02000000
,
00000000
03000000
00200000
00000000
00000000
00000000
00000000
00300000
,
01000000
00100000
10000000
01000000
00200000
00000000
00300000
02000000
,
00000000
03000000
00200000
00000000
00000000
00000000
00000000
00300000
,
01000000
00100000
00010000
01000000
00200000
00000000
00300000
00010000
,
00000000
00100000
00001000
00000220
00000000
00000000
00000000
00000330
,
00002002
00003003
00000220
00000330
00000022
00000000
00000000
00000000
,
00000000
00000000
00000000
00000000
,
00000033
00000000
00000000
00000000
;
