#VERSION:0.83;
#TITLE:FAKE LOVE;
#SUBTITLE:;
#ARTIST:방탄소년단;
#TITLETRANSLIT:;
#SUBTITLETRANSLIT:;
#ARTISTTRANSLIT:BTS;
#GENRE:K-Pop/Trap;
#ORIGIN:;
#CREDIT:;
#BANNER:FAKE LOVE.png;
#BACKGROUND:FAKE LOVE-bg.png;
#PREVIEWVID:;
#JACKET:FAKE LOVE-jacket.png;
#CDIMAGE:;
#DISCIMAGE:;
#LYRICSPATH:;
#CDTITLE:Wrland.png;
#MUSIC:FAKE LOVE.ogg;
#OFFSET:-0.694000;
#SAMPLESTART:24.306999;
#SAMPLELENGTH:12.000000;
#SELECTABLE:YES;
#DISPLAYBPM:77.000000;
#BPMS:0.000=77.500;
#STOPS:;
#DELAYS:;
#WARPS:;
#TIMESIGNATURES:0.000=4=4;
#TICKCOUNTS:0.000=4;
#COMBOS:0.000=1;
#SPEEDS:0.000=1.000=0.000=0;
#SCROLLS:0.000=1.000;
#FAKES:;
#LABELS:0.000=Song Start;
#BGCHANGES:0.000=FAKE LOVE.avi=1.000=0=0=0=StretchNoLoop====,
99999=-nosongbg-=1.000=0=0=0 // don't automatically add -songbackground-
;
#KEYSOUNDS:;
#ATTACKS:
;

//---------------dance-single - ----------------
#NOTEDATA:;
#CHARTNAME:;
#STEPSTYPE:dance-single;
#DESCRIPTION:;
#CHARTSTYLE:;
#DIFFICULTY:Beginner;
#METER:1;
#RADARVALUES:0.044534,0.091573,0.051956,0.000000,0.000000,48.000000,40.000000,8.000000,0.000000,0.000000,0.000000,0.000000,0.000000,0.000000,0.044534,0.091573,0.051956,0.000000,0.000000,48.000000,40.000000,8.000000,0.000000,0.000000,0.000000,0.000000,0.000000,0.000000;
#CREDIT:;
#DISPLAYBPM:77.000000;
#NOTES:
0000
0000
0000
0000
,
0000
0000
0000
0000
,
0000
0000
0000
0000
,
0000
0000
0000
0000
,
1000
0000
0000
0000
,
0010
0000
0000
0000
,
0100
0000
0000
0000
,
0010
0000
0000
0000
,
0001
0000
0000
0000
,
1000
0000
0000
0000
,
0010
0000
0000
0000
,
0100
0000
0000
0000
,
0010
0000
0000
0000
,
0001
0000
0000
0000
,
1000
0000
0000
0000
,
0010
0000
0000
0000
,
1001
0000
0000
0000
,
0110
0000
0000
0000
,
1100
0000
0000
0000
,
0011
0000
0000
0000
,
0100
0000
0000
0000
,
0010
0000
0000
0000
,
1000
0000
0000
0000
,
0001
0000
0000
0000
,
0100
0000
0000
0000
,
0010
0000
0000
0000
,
1000
0000
0000
0000
,
0010
0000
0000
0000
,
1001
0000
0000
0000
,
0100
0000
0000
0000
,
0010
0000
0000
0000
,
0100
0000
0000
0000
,
0010
0000
0000
0000
,
0001
0000
0000
0000
,
1000
0000
0000
0000
,
0100
0000
0000
0000
,
0110
0000
0000
0000
,
0001
0000
0000
0000
,
1000
0000
0000
0000
,
0001
0000
0000
0000
,
0000
0000
0000
0000
,
0000
0000
0000
0000
,
0000
0000
0000
0000
,
0000
0000
0000
0000
,
1001
0000
0000
0000
,
0110
0000
0000
0000
,
1000
0000
0000
0000
,
0010
0000
0000
0000
;

//---------------dance-single - ----------------
#NOTEDATA:;
#CHARTNAME:;
#STEPSTYPE:dance-single;
#DESCRIPTION:;
#CHARTSTYLE:;
#DIFFICULTY:Easy;
#METER:3;
#RADARVALUES:0.090923,0.140282,0.000000,0.000000,0.000000,98.000000,98.000000,0.000000,0.000000,0.000000,0.000000,0.000000,0.000000,0.000000,0.090923,0.140282,0.000000,0.000000,0.000000,98.000000,98.000000,0.000000,0.000000,0.000000,0.000000,0.000000,0.000000,0.000000;
#CREDIT:;
#DISPLAYBPM:77.000000;
#NOTES:
0000
0000
0000
0000
,
0000
0000
0000
0000
,
0000
0000
0000
0000
,
0000
0000
0000
0000
,
1000
0000
0100
0000
,
0010
0000
0100
0000
,
0001
0000
1000
0000
,
0001
0000
0000
0000
0000
0100
0000
0000
,
0010
0010
1000
1000
,
0010
0010
0100
0100
,
0001
0001
1000
1000
,
0100
0100
1000
1000
,
0100
0000
0010
0000
,
0100
0000
0100
0000
,
0001
0000
0001
0000
,
1000
0000
1000
0000
,
0100
0000
0100
0000
,
0010
0000
0010
0000
,
0001
0000
1000
0000
,
0001
0000
1000
0000
,
0100
0000
0100
0000
,
0010
0000
0010
0000
,
0100
0000
0100
0000
,
0001
0000
0001
0000
,
1000
0000
0001
0000
,
1000
0000
0100
0000
,
1000
0000
0010
0000
,
0100
0000
0010
0000
,
0100
0000
0001
0000
,
1000
0000
0100
0000
,
0010
0000
0100
0000
,
1000
0000
0010
0000
,
0001
0000
0100
0000
,
0010
0000
0100
0000
,
1000
0000
0100
0000
,
1000
0000
0100
0000
,
0010
0010
1000
1000
,
0001
1000
0100
0100
,
0010
0001
0100
0001
,
0010
1000
1000
1000
,
0100
0000
0000
0000
,
0000
0000
0000
0000
,
0010
0000
0000
0000
,
0000
0000
0000
0000
,
1000
0000
0001
0000
,
0100
0000
1000
0000
,
0100
0000
1000
0000
,
0010
0000
0000
0000
,
0100
0000
0000
0000
;

//---------------dance-single - ----------------
#NOTEDATA:;
#CHARTNAME:;
#STEPSTYPE:dance-single;
#DESCRIPTION:;
#CHARTSTYLE:;
#DIFFICULTY:Medium;
#METER:5;
#RADARVALUES:0.188341,0.233803,0.000000,0.032473,0.000000,203.000000,203.000000,0.000000,5.000000,0.000000,0.000000,0.000000,0.000000,0.000000,0.188341,0.233803,0.000000,0.032473,0.000000,203.000000,203.000000,0.000000,5.000000,0.000000,0.000000,0.000000,0.000000,0.000000;
#CREDIT:;
#DISPLAYBPM:77.000000;
#NOTES:
0000
0000
0000
0000
,
0000
0000
0000
0000
,
0000
0000
0000
0000
,
0000
0000
0000
0000
,
1000
0100
1000
0000
,
0100
0001
0100
0000
,
0010
1000
0010
0000
,
0100
0001
0100
0000
,
0010
0000
0100
0010
1000
0000
1000
0100
,
1000
0000
0100
0010
0001
0000
0100
0000
,
0100
0010
1000
0000
0100
1000
0100
0000
,
0100
0010
1000
0000
1000
0100
1000
0100
,
0010
0000
0100
0010
0100
0000
0001
0000
,
1000
0000
0100
1000
0100
0000
0010
0100
,
0010
0000
0100
0001
0100
0000
1000
0100
,
1000
0000
0100
0000
0010
0100
0010
0000
,
0100
1000
0100
0001
,
0100
0100
0010
0010
,
1000
1000
0001
0100
,
0010
0100
0100
0010
,
0010
0001
1000
0001
,
2000
3000
0001
0000
,
0100
0100
0010
0010
,
0200
0300
1000
0000
,
0001
1000
0001
0000
,
0100
0100
0010
0000
,
0010
0100
1000
0001
,
0100
0000
0000
0000
0010
0100
0010
0001
,
1000
0000
1000
0100
0010
0000
0100
0010
,
0100
0000
1000
0100
0001
0000
0100
0010
,
0100
0000
1000
0100
0010
0000
0100
0010
,
0100
0001
1000
0001
1000
0000
0100
0010
,
0100
0000
0010
0100
0010
0000
1000
0100
,
1000
0100
0010
0100
0010
0000
0001
0100
,
0001
0000
0100
0010
0100
0000
1000
0100
,
1000
0100
0010
0100
0010
0100
0001
0100
,
0010
0000
0100
0010
1000
0000
1000
0100
,
0001
0000
0001
1000
0100
0000
0010
0100
,
0010
0000
0001
0100
1000
0000
0100
0010
,
1000
0000
0100
1000
0100
0000
0100
0010
,
0100
0010
0100
0010
,
0002
0003
1000
0000
,
0100
1000
0100
1000
,
0020
0030
0100
0000
,
0010
0010
0100
0000
,
1000
1000
0001
0000
,
0100
0010
0100
0010
,
0200
0300
0010
0100
,
0010
0000
0000
0000
;

//---------------dance-single - ----------------
#NOTEDATA:;
#CHARTNAME:;
#STEPSTYPE:dance-single;
#DESCRIPTION:;
#CHARTSTYLE:;
#DIFFICULTY:Hard;
#METER:9;
#RADARVALUES:0.463894,0.575962,0.019484,0.227308,0.659194,500.000000,497.000000,3.000000,35.000000,0.000000,0.000000,0.000000,0.000000,0.000000,0.463894,0.575962,0.019484,0.227308,0.659194,500.000000,497.000000,3.000000,35.000000,0.000000,0.000000,0.000000,0.000000,0.000000;
#CREDIT:;
#DISPLAYBPM:77.000000;
#NOTES:
// measure 0
0000
0000
0000
0000
,  // measure 1
0000
0000
0000
0000
,  // measure 2
0000
0000
0000
0000
,  // measure 3
0000
0000
0000
0000
,  // measure 4
0100
0010
0000
0000
0100
1000
0000
0000
0100
0000
0000
0000
0010
0000
0001
0000
1000
0000
0000
0000
0002
0000
0000
0000
0003
0000
0100
0000
0010
0000
0000
0000
,  // measure 5
0100
0010
0000
0000
0100
0010
0000
0000
1000
0000
0000
0000
0100
0000
0010
0000
1000
0000
0000
0000
0200
0000
0300
0000
0000
0000
0100
0000
0010
0000
0001
0000
,  // measure 6
1000
0000
0100
0010
0100
0001
0100
0000
1000
0000
0100
1000
0100
0010
0100
0010
,  // measure 7
0100
0000
0100
0000
1000
0000
0100
0000
0010
0100
0010
0001
1000
0100
0010
0000
,  // measure 8
0010
0100
0010
0000
0200
0000
0300
0000
1000
0100
1000
0000
0200
0000
0300
0000
,  // measure 9
0100
0010
0001
0000
0200
0000
0300
0000
1000
0000
0100
0010
0100
0010
0001
0000
,  // measure 10
0100
1000
0100
0000
2000
0000
3000
0000
0100
0010
0100
0000
0020
0000
0030
0000
,  // measure 11
0100
0010
0100
0000
0002
0000
0003
0000
1000
0000
0100
0010
0100
0010
1000
0100
,  // measure 12
0020
0000
0030
0000
0100
0000
0010
0000
0100
0000
1000
0000
0001
0100
0010
0100
,  // measure 13
0020
0000
0030
0000
0100
0000
0010
0000
0100
0000
0010
0000
0001
1000
0001
1000
,  // measure 14
0002
0000
0003
0000
0100
0000
0010
0000
0100
0000
0010
0000
0100
1000
0100
1000
,  // measure 15
0200
0000
0300
0000
0100
0000
0010
0000
0100
0000
0010
0100
0010
0001
0100
0010
,  // measure 16
0001
1000
0000
0000
0100
0010
0000
0000
0100
0010
0000
0000
0001
0000
0000
0000
0010
0100
0000
0000
0010
0100
0000
0000
1000
0001
0000
0000
0100
0000
0000
0000
,  // measure 17
0010
0100
0000
0000
0010
0100
0000
0000
1000
0000
0000
0000
0100
0000
0000
0000
0010
0100
0000
0000
0010
0100
0000
0000
1000
0000
0000
0000
0001
0000
0000
0000
,  // measure 18
1000
0100
0010
0100
0000
0000
1000
0100
0010
0100
0000
0000
0010
0100
0010
0100
0010
0100
1001
0000
0000
0100
0000
0000
,  // measure 19
0010
0000
0100
0000
0010
0000
1000
0000
0000
0000
0000
0000
0100
0000
1000
0000
0100
0000
1000
0000
0000
0000
0000
0000
0100
0000
0010
0000
0001
0000
0100
0000
0010
0000
0000
0000
1100
0000
0000
0000
0000
0000
0100
0000
0000
0010
0000
0000
,  // measure 20
0100
0010
1000
0000
0010
0000
0100
0010
1000
0010
0100
1000
0100
0010
0100
0010
,  // measure 21
1000
0000
0020
0000
0000
0030
0000
0000
0100
0000
0010
0100
0000
1000
0100
0010
,  // measure 22
0100
0010
0100
0001
1000
0100
1000
0100
1000
0100
0010
0100
0010
0100
0010
0100
,  // measure 23
1000
0000
0200
0000
0300
0000
0000
0000
0100
0000
0010
0100
0000
0010
0100
0010
,  // measure 24
1000
0100
0000
0000
0010
0001
0000
0000
0100
0010
0000
0000
0100
0000
1000
0000
0100
0000
0000
0000
0010
0000
0000
0000
0000
0000
0100
0000
0010
0000
0100
0000
,  // measure 25
1000
0100
0000
0000
1000
0100
0000
0000
0010
0000
0000
0000
0100
0000
0010
0000
0100
0000
0000
0000
1000
0000
0000
0000
0100
0000
0010
0000
0100
0000
0010
0000
,  // measure 26
0100
0010
1000
0100
1000
0100
1000
0100
0010
0100
0010
0100
0010
0001
0100
0001
,  // measure 27
0100
0000
0000
0000
0000
0000
0000
0000
0000
0000
0000
0000
0010
0000
0000
0000
0000
0000
0000
0000
0000
0000
0000
0000
0100
0000
0000
0000
0000
0000
0000
0000
0000
0000
0000
0000
0010
0000
0000
0000
0000
0000
0000
0000
0000
0000
0000
0000
1000
0000
0000
0000
0000
0000
0000
0000
0000
0000
0000
0000
0100
0000
0000
0000
0000
0000
0000
0000
0000
0000
0000
0000
0010
0000
0000
0000
0000
0000
0000
0000
0000
0000
0000
0000
0100
0000
0000
0000
0000
0000
0000
0000
0000
0000
0000
0000
0010
0000
0000
0000
0000
0000
0100
0000
0000
0000
0000
0000
0010
0000
0000
0000
0000
0000
0100
0000
0000
0000
0000
0000
0010
0000
0000
0000
0000
0000
0100
0000
0000
0000
0000
0000
0010
0000
0000
0000
0000
0000
0100
0000
0000
0000
0000
0000
0010
0000
0000
0000
0000
0000
0000
0000
0000
0000
0000
0000
0000
0000
0000
0000
0100
0000
0000
0000
0000
0000
0000
0000
0000
0000
0000
0000
0000
0000
0000
0000
0010
0000
0000
0000
0000
0000
0000
0000
0000
0000
0000
0000
0000
0000
0000
0000
,  // measure 28
2002
0000
0000
3003
0000
0000
0100
0000
0010
0000
0100
0000
2000
0000
0000
3000
0000
0000
0100
0000
0010
0000
0100
0000
,  // measure 29
0010
0000
0000
0000
0000
0000
0001
0000
0000
0000
0000
0000
0000
0000
0000
0000
0000
0000
0000
0000
0000
0000
0000
0000
1000
0000
0000
0000
0000
0000
0100
0000
0000
0000
0000
0000
0000
0000
0000
0000
0000
0000
0000
0000
0000
0000
0000
0000
0010
0000
0000
0000
0000
0000
0000
0000
0000
0000
0000
0000
0000
0000
0000
0000
0000
0000
0000
0000
0000
0000
0000
0000
0100
0000
0000
0000
0000
0000
0000
0000
0000
0000
0000
0000
0010
0000
0000
0000
0000
0000
0000
0000
0000
0000
0000
0000
0200
0000
0000
0000
0000
0000
0000
0000
0000
0000
0000
0000
0000
0000
0000
0000
0000
0000
0000
0000
0000
0000
0000
0000
0300
0000
0000
0000
0000
0000
0000
0000
0000
0000
0000
0000
0000
0000
0000
0000
0000
0000
0000
0000
0000
0000
0000
0000
0100
0000
0000
0000
0000
0000
0000
0000
0000
0000
0000
0000
0000
0000
0000
0000
1000
0000
0000
0000
0000
0000
0000
0000
0000
0000
0000
0000
0000
0000
0000
0000
0100
0000
0000
0000
0000
0000
0000
0000
0000
0000
0000
0000
0000
0000
0000
0000
,  // measure 30
0020
0000
0000
0030
0000
0000
0100
0000
0001
0000
0100
0000
0020
0000
0000
0030
0000
0000
0100
0000
0010
0000
1000
0000
,  // measure 31
0100
0000
0000
0000
0000
0000
0010
0000
0000
0000
0000
0000
0000
0000
0000
0000
0000
0000
0000
0000
0000
0000
0000
0000
0100
0000
0000
0000
0000
0000
0010
0000
0000
0000
0000
0000
0000
0000
0000
0000
0000
0000
0000
0000
0000
0000
0000
0000
0100
0000
0000
0000
0000
0000
0000
0000
0000
0000
0000
0000
0000
0000
0000
0000
0000
0000
0000
0000
0000
0000
0000
0000
0010
0000
0000
0000
0000
0000
0000
0000
0000
0000
0000
0000
1000
0000
0000
0000
0000
0000
0000
0000
0000
0000
0000
0000
0200
0000
0000
0000
0000
0000
0000
0000
0000
0000
0000
0000
0000
0000
0000
0000
0000
0000
0000
0000
0000
0000
0000
0000
0300
0000
0000
0000
0000
0000
0000
0000
0000
0000
0000
0000
0000
0000
0000
0000
0000
0000
0000
0000
0000
0000
0000
0000
0010
0000
0000
0000
0000
0000
0000
0000
0000
0000
0000
0000
0000
0000
0000
0000
0100
0000
0000
0000
0000
0000
0000
0000
0000
0000
0000
0000
0000
0000
0000
0000
0010
0000
0000
0000
0000
0000
0000
0000
0000
0000
0000
0000
0000
0000
0000
0000
,  // measure 32
2000
0000
0000
3000
0000
0000
0100
0000
0010
0000
0100
0000
0020
0000
0000
0030
0000
0000
0100
0000
0001
0000
0100
0000
,  // measure 33
0001
0000
0000
0000
0000
0000
0100
0000
0000
0000
0000
0000
0000
0000
0000
0000
0000
0000
0000
0000
0000
0000
0000
0000
1000
0000
0000
0000
0000
0000
0100
0000
0000
0000
0000
0000
0000
0000
0000
0000
0000
0000
0000
0000
0000
0000
0000
0000
0010
0000
0000
0000
0000
0000
0000
0000
0000
0000
0000
0000
0000
0000
0000
0000
0000
0000
0000
0000
0000
0000
0000
0000
0100
0000
0000
0000
0000
0000
0000
0000
0000
0000
0000
0000
0010
0000
0000
0000
0000
0000
0000
0000
0000
0000
0000
0000
0200
0000
0000
0000
0000
0000
0000
0000
0000
0000
0000
0000
0000
0000
0000
0000
0000
0000
0000
0000
0000
0000
0000
0000
0300
0000
0000
0000
0000
0000
0000
0000
0000
0000
0000
0000
0000
0000
0000
0000
0000
0000
0000
0000
0000
0000
0000
0000
0100
0000
0000
0000
0000
0000
0000
0000
0000
0000
0000
0000
0000
0000
0000
0000
1000
0000
0000
0000
0000
0000
0000
0000
0000
0000
0000
0000
0000
0000
0000
0000
0100
0000
0000
0000
0000
0000
0000
0000
0000
0000
0000
0000
0000
0000
0000
0000
,  // measure 34
0020
0000
0000
0030
0000
0000
0100
0000
0001
0000
0100
0000
0020
0000
0000
0030
0000
0000
0100
0000
1000
0000
0100
0000
,  // measure 35
0010
0001
0000
0000
1000
0100
0000
0000
0010
0000
0000
0000
0100
0000
0010
0000
0100
0000
0000
0000
1000
0000
0100
0000
0010
0000
0100
0000
1000
0000
0000
0000
,  // measure 36
0100
0010
0100
0000
0020
0000
0030
0000
0001
0100
0001
0000
0020
0000
0030
0000
,  // measure 37
1000
0100
1000
0000
0200
0000
0300
0000
0100
0000
0010
0100
0010
0001
1000
0010
,  // measure 38
0100
0010
1000
0000
0200
0000
0300
0000
0100
0010
0100
0000
0002
0000
0003
0000
,  // measure 39
1000
0100
1000
0000
0100
0000
0100
0010
1000
0000
0100
0010
0100
0010
0001
1000
,  // measure 40
0100
0010
0100
0010
0100
0010
0100
1000
0100
1000
0100
1000
0100
0010
0100
0001
,  // measure 41
0100
0000
0020
0000
0000
0030
0000
0000
0100
0000
0100
1000
0000
0100
0010
0100
,  // measure 42
0010
0100
0010
1000
0100
1000
0100
1000
0100
0000
0010
0001
0100
0010
0100
0010
,  // measure 43
0001
0000
0200
0000
0000
0300
0000
0000
1000
0000
0100
0010
0000
0100
0010
1000
,  // measure 44
0100
0010
0000
0000
1000
0100
0000
0000
1000
0000
0000
0000
0100
0000
0010
0000
0100
0000
0000
0000
0010
0000
0000
0000
0000
0000
0001
0000
0010
0000
0100
0000
,  // measure 45
0100
0010
0000
0000
0100
1000
0000
0000
0100
0000
0000
0000
0010
0000
0100
0000
0010
0000
0000
0000
0002
0000
0000
0000
0003
0000
1000
0000
0100
0000
0010
0000
,  // measure 46
0100
0010
0100
1000
0100
1000
0100
0000
0001
0000
0100
0010
1000
0100
0010
0100
,  // measure 47
0010
0000
0002
0000
0000
0003
0000
0000
1000
0000
0100
0010
0000
0100
0010
0100
;
