#TITLE:Dynamite;
#SUBTITLE:;
#ARTIST:방탄소년단;
#TITLETRANSLIT:;
#SUBTITLETRANSLIT:;
#ARTISTTRANSLIT:BTS;
#GENRE:Funk/K-Pop;
#CREDIT:;
#MUSIC:Dynamite.ogg;
#BANNER:Dynamite.png;
#BACKGROUND:Dynamite-bg.png;
#JACKET:Dynamite-jacket.png;
#CDTITLE:Wrland.png;
#SAMPLESTART:41.344;
#SAMPLELENGTH:12.000;
#SELECTABLE:YES;
#OFFSET:-0.291;
#BPMS:0.000=114.000;
#STOPS:;
#DISPLAYBPM:114.000;
#BGCHANGES:;
#FGCHANGES:;

//--------------- dance-single - ----------------
#NOTES:
     dance-single:
     :
     Beginner:
     1:
     0,0,0,0,0:
0000
0000
0000
0000
,
0000
0000
0000
0000
,
0000
0000
0000
0000
,
0000
0000
0000
0000
,
1000
0000
0000
0000
,
0100
0000
0000
0000
,
0010
0000
0000
0000
,
0001
0000
0000
0000
,
1000
0000
0000
0000
,
0100
0000
0000
0000
,
0010
0000
0000
0000
,
1000
0000
0000
0000
,
0001
0000
0000
0000
,
0100
0000
0000
0000
,
0010
0000
0000
0000
,
1000
0000
0000
0000
,
0100
0000
0000
0000
,
0010
0000
0000
0000
,
1000
0000
0000
0000
,
0001
0000
0000
0000
,
1001
0000
0000
0000
,
0100
0000
0000
0000
,
0010
0000
0000
0000
,
1000
0000
0000
0000
,
0100
0000
0000
0000
,
0010
0000
0000
0000
,
0001
0000
0000
0000
,
1000
0000
0000
0000
,
0100
0000
0000
0000
,
0010
0000
0000
0000
,
0001
0000
0000
0000
,
1000
0000
0000
0000
,
0100
0000
0000
0000
,
0001
0000
0000
0000
,
1000
0000
0000
0000
,
0100
0000
0000
0000
,
1001
0000
0000
0000
,
0110
0000
0000
0000
,
1001
0000
0000
0000
,
0100
0000
0000
0000
,
1010
0000
0000
0000
,
0101
0000
0000
0000
,
0110
0000
0000
0000
,
1001
0000
0000
0000
,
1000
0000
0000
0000
,
0100
0000
0000
0000
,
0010
0000
0000
0000
,
0001
0000
0000
0000
,
0001
0000
0000
0000
,
0100
0000
0000
0000
,
0010
0000
0000
0000
,
1000
0000
0000
0000
,
1001
0000
0000
0000
,
0100
0000
0000
0000
,
0010
0000
0000
0000
,
1000
0000
0000
0000
,
0100
0000
0000
0000
,
0010
0000
0000
0000
,
0100
0000
0000
0000
,
0001
0000
0000
0000
,
1000
0000
0000
0000
,
0100
0000
0000
0000
,
0010
0000
0000
0000
,
0100
0000
0000
0000
,
0010
0000
0000
0000
,
1000
0000
0000
0000
,
0001
0000
0000
0000
,
0100
0000
0000
1001
;

//--------------- dance-single - ----------------
#NOTES:
     dance-single:
     :
     Easy:
     4:
     0,0,0,0,0:
0000
0000
0000
0000
,
0000
0000
0000
0000
,
0000
0000
0000
0000
,
0000
0000
0000
0000
,
1000
0010
0100
0000
,
0100
0010
0001
0000
,
1000
0100
1000
0000
,
0100
0010
0100
0000
,
0001
1000
0001
0000
,
0100
0010
0100
0000
,
1000
0100
1000
0000
,
0100
0010
0001
0000
,
1001
0001
0100
0010
,
0100
0000
0100
0010
,
0001
1000
0001
1000
,
0100
0010
0001
0000
,
1000
0100
0100
0010
,
0001
1000
0100
0010
,
0100
0010
0100
0010
,
0001
0000
1000
0000
,
1001
0000
0100
0010
,
0100
0000
0100
0010
,
0001
0000
1000
0100
,
1000
0000
0100
0010
,
0100
0000
0010
0000
,
0100
1000
0100
0000
,
0100
0010
0100
0010
,
0001
0000
1000
0000
,
1000
0100
0100
0010
,
0001
0000
1000
0000
,
0100
0010
0100
0010
,
1000
0000
1000
0000
,
0100
0000
0010
0000
,
0100
0000
0010
0000
,
0001
0000
1000
0100
,
1000
0000
0100
0000
,
0020
0000
0030
0000
,
0200
0000
0300
0000
,
2000
0000
3000
0000
,
0002
0000
0003
0000
,
0100
0000
0010
0000
,
1000
1000
1000
0000
,
0100
0000
0010
0000
,
0001
0001
0001
0000
,
1001
0000
0100
0000
,
0100
0010
0100
0000
,
1000
0000
1000
0000
,
0100
0010
0001
0000
,
1000
0000
1000
0001
,
1000
0000
0100
0000
,
0010
0100
0010
0001
,
1001
0000
0100
0010
,
1001
0000
0100
0010
,
0100
1000
0001
0000
,
0110
0000
1000
0001
,
1000
0000
1000
0100
,
0010
0000
0100
0010
,
1000
0010
0001
0000
,
1001
0100
0010
0100
,
0010
1000
0100
0010
,
0001
0000
1000
0001
,
0100
0010
0100
1000
,
1001
0000
0100
0010
,
0100
1000
0100
0000
,
0100
0010
0100
0010
,
0001
1000
0100
0000
,
1000
1100
0001
0011
,
0100
0010
0100
1001
;

//--------------- dance-single - ----------------
#NOTES:
     dance-single:
     :
     Medium:
     8:
     0,0,0,0,0:
0000
0000
0000
0000
,
0000
0000
0000
0000
,
0000
0000
0000
0000
,
0000
0000
0000
0000
,
1000
0000
0100
0000
0010
0100
0010
0000
,
0001
1000
0001
0100
0010
0000
1001
0000
,
0100
0010
0100
0000
1000
0100
1000
0100
,
0010
0100
0010
0001
1000
0000
1001
0000
,
0100
0010
0100
0000
0100
0010
0001
1000
,
0100
1000
0100
0010
0001
0000
0101
0000
,
0100
1000
0100
0000
0100
0010
0100
0000
,
1000
0100
0010
0001
0110
0000
1001
0000
,
0100
0010
0100
0000
1000
0100
1000
0000
,
0100
0010
0001
0100
0010
0000
1001
0000
,
0100
1000
0100
0000
1000
0100
0010
0000
,
0100
0010
0100
0010
0001
0000
1001
0000
,
0100
0010
0100
0000
1000
0100
1000
0000
,
0100
0010
0100
0010
0010
0000
0001
0000
,
1001
0100
0010
0100
1000
0100
0010
0000
,
0100
0010
0100
0000
1001
0000
0100
0010
,
1000
0000
1001
0000
0100
0000
1000
0100
,
1000
0100
0000
0010
0100
0000
0010
0001
,
0100
0000
0100
1000
0100
0000
0100
0010
,
0001
1000
0000
1000
0002
0003
0100
0000
,
0100
0010
0100
0000
0100
0010
0100
0000
,
0010
0000
0100
0000
0100
0100
0010
0000
,
1000
0000
0100
0000
0010
0001
1000
0100
,
0010
0001
0000
0100
0010
1001
0100
0000
,
0100
1000
0100
0000
0100
0010
0001
0000
,
0100
0010
0100
1000
0100
0010
1001
0000
,
0100
0010
0100
0000
0100
0010
0010
0000
,
0001
1000
0100
0100
0010
2000
0000
3000
,
0001
0200
0300
0010
0002
0003
1000
0100
,
0020
0030
0001
1000
0100
0010
0001
0100
,
1010
0000
0100
0000
0010
0100
1000
0100
,
0010
0001
0000
0100
0010
0100
1000
0000
,
1000
0000
0100
0000
0010
0100
0002
0003
,
0100
0000
0010
0000
0100
0010
2000
3000
,
0100
0000
0010
0000
1000
0010
2000
3000
,
0100
0001
0100
0010
1000
0010
0200
0300
,
1000
0000
0200
0300
0001
0100
0020
0030
,
1000
0000
0100
0000
0001
0100
0020
0030
,
1000
0000
0100
0000
0010
0100
0002
0003
,
1000
0000
1010
0000
0100
0001
0100
0010
,
1010
0000
0100
0000
0001
0100
0001
1000
,
0010
0100
0000
0010
1000
0010
0100
0000
,
0001
0000
0100
0000
0010
1000
0010
0100
,
0010
0100
0000
0010
0100
0001
1000
0010
,
0110
0000
1000
0010
1000
0000
0100
0001
,
0001
0100
0010
1000
0010
0100
0010
0000
,
1010
0000
0200
0300
0001
0100
0010
1000
,
0010
0100
0010
0100
0010
0100
0010
0000
,
2002
3003
0100
0000
0010
0100
0010
0100
,
0010
1000
0000
1000
0010
0100
0001
0100
,
0010
1000
0010
0100
,
0010
0100
0010
0001
1001
0000
0100
0000
,
0010
0100
0010
1000
0100
0010
0100
0000
,
0010
0001
1000
0100
0020
1030
0100
0000
,
0010
0000
0100
0000
1001
0000
0100
0010
,
1000
0010
0200
0000
0300
0000
1000
0000
1001
0000
0000
0000
0100
0000
0000
0000
,
0010
0100
1000
0100
,
0010
0100
0010
0001
1001
0000
0100
0000
,
0110
0000
1000
0000
0100
0000
1000
0100
,
0010
0100
0000
0001
1000
0100
1001
0000
,
0100
0000
0010
0000
0100
0010
1000
0100
,
0010
0001
0100
0010
0100
0110
0000
0000
,
0100
0000
1000
0000
0100
0010
0100
0010
,
0010
0100
1000
0001
1000
0100
1001
0000
;

//--------------- dance-single - ----------------
#NOTES:
     dance-single:
     :
     Hard:
     11:
     0,0,0,0,0:
0000
0000
0000
0000
,
0000
0000
0000
0000
,
0000
0000
0000
0000
,
0000
0000
0000
0000
,
1001
0000
0000
0000
0100
0000
0000
0000
0010
1000
0100
0010
0001
0000
1000
0001
,
1000
0000
0010
0001
0100
0000
0001
0000
1000
0000
0100
0000
1000
0000
0000
0000
,
0100
0000
1000
0000
0020
0000
0030
0000
0100
0000
0010
0000
0001
0000
0000
0001
,
0100
0000
0010
1000
0100
0001
0100
0000
1000
0000
0010
0000
0101
0000
0000
0000
,
2000
0000
3001
0000
0100
0000
0001
1000
0010
0000
0100
0010
1000
0000
0001
0100
,
1000
0000
0000
0000
0100
0000
0000
0000
0001
0000
1000
0100
0000
0000
0000
0000
,
0100
0010
0100
0010
,
0100
0010
1000
0100
0010
0000
1001
0000
,
0100
2000
0000
3000
0010
0002
0000
0003
0100
0020
0000
0030
0100
0010
0000
0000
,
0100
0010
0000
0100
0010
0000
0001
0000
1000
0100
0000
0000
0110
0000
0010
0000
,
0001
1000
0000
0000
0100
2000
3000
0000
0010
0100
0000
0000
0010
0100
0000
0000
,
1000
0100
0010
0001
1001
0100
0010
0000
,
0100
0000
0000
0000
0010
0000
0000
0000
0100
0000
0010
1000
0000
0000
0100
0000
,
0010
0100
0010
0001
1000
0000
0110
0000
,
0100
0010
1000
0100
0010
0001
0100
0001
,
1000
0000
0000
0000
0100
0000
0010
1000
0110
0000
0000
0000
1000
0000
0100
0000
,
0002
0000
0000
0003
0200
0000
0000
0300
0020
0000
0000
0030
0100
0000
0010
1000
,
0000
0010
0100
0000
0001
0000
0100
0000
2002
0000
3003
0000
0100
0020
0000
0030
,
2000
0000
0000
3000
0020
0000
0000
0030
0200
0000
0000
0300
0001
0000
1000
0001
,
0000
0100
0010
0000
0100
0000
0010
0000
1000
0000
2002
0000
3003
0000
0001
1000
,
0200
0300
0010
0001
0010
0100
0001
1000
,
0010
0000
0000
0010
1000
0000
0000
0010
0001
2000
0000
0000
3010
0002
0000
0003
,
0200
0000
0300
0000
2002
0000
3003
0000
0200
0000
0000
0300
0010
0000
0100
0010
,
0000
1000
0100
0000
0001
0010
1000
0001
0100
0000
1000
0010
0001
1000
0100
0010
,
1000
0001
0010
1000
0100
0000
0100
0010
0001
0000
1000
0100
0010
0000
0001
0010
,
0100
0000
0100
0010
1000
0000
0100
0010
0001
0000
0100
0010
1001
0000
0000
0000
,
0010
0000
0100
0010
0100
0000
0001
0100
1000
0000
0010
1000
0001
0000
0100
0010
,
0100
0000
0010
0100
1000
0100
0001
0010
0001
1000
0001
0000
0001
1000
0001
0000
,
0100
0010
1000
0000
0100
0000
0001
0000
0010
0000
0100
0000
1000
0000
0100
0000
,
0010
0001
0100
1000
0010
0001
2002
3003
,
0110
0000
0000
0000
0010
0000
0000
0000
0100
0000
0000
0000
0010
0000
1000
0010
,
0000
0100
0010
0000
0100
0000
0010
0000
1010
0000
0000
0000
0100
0000
0000
0000
,
0010
0000
0100
0010
0100
0000
0010
0100
0010
0100
0010
0100
0020
0000
0030
0000
,
1000
0000
0010
1000
0010
0000
1000
0010
1000
0010
1000
0010
2000
0000
3000
0000
,
0100
0000
0001
0100
0001
0000
0100
0001
0100
0001
0100
0001
0200
0000
0300
0000
,
0001
1000
0001
0000
0100
0000
0100
0001
0010
1000
0001
0000
2002
0000
3003
0000
,
0010
0000
0100
0010
0100
0000
0001
0100
0001
1000
0100
0010
0200
0000
0300
0000
,
0001
0000
1000
0010
0100
0000
0010
1000
0010
1000
0010
0100
0020
0000
0030
0000
,
0100
0000
0001
0100
0001
0000
0100
0001
1000
0010
0100
0010
0200
0000
0000
0300
,
0010
0000
0100
1000
0000
0000
0100
0000
0010
0001
1000
0000
0100
0000
0001
0000
,
0020
0000
0000
0030
0200
0000
0000
0300
0020
0000
0000
0030
1000
0000
0100
0010
,
0000
0100
0020
0000
0000
0030
1000
0000
0200
0000
0300
0000
0100
0010
0000
0000
,
0200
0000
0000
0300
0002
0000
0000
0003
1000
0000
0000
0000
0001
0000
1000
0001
,
0000
0100
0020
0000
0000
0030
0100
0000
0020
0000
0000
0030
0100
0000
0000
0000
,
0010
0100
0010
1000
0100
0010
0001
1000
,
0100
0000
0010
0000
1000
0000
0100
0000
0020
0000
0030
0000
0100
0010
0000
0000
,
0100
0000
0000
0000
1001
0000
0000
0000
0100
0000
0000
0000
0010
0000
0100
0010
,
0000
1000
0100
0000
0010
0000
0100
1000
0010
0000
0010
0000
0100
0000
0000
0000
,
2002
0000
3003
0000
0200
0000
0000
0300
0020
0000
0000
0030
0100
0000
0010
0100
,
0000
1000
0100
0000
0010
0000
0001
0000
1000
0000
0100
0000
0010
0002
0000
0003
,
0200
0000
0000
0300
0002
0000
0003
0000
0200
0000
0000
0300
0010
0000
0100
0010
,
0000
0100
1000
0000
0100
0000
0010
0000
0100
0000
1000
0000
0010
0100
0010
0100
,
0020
0030
0100
0010
1000
0100
0010
0001
,
0100
0000
0001
0000
0010
0000
1000
0000
0020
0000
0030
0000
0100
0020
0000
0030
,
0002
0000
0000
0003
2000
0000
3000
0000
0200
0000
0000
0300
0010
0000
0100
0010
,
0000
1000
0100
0000
0001
0010
0001
0000
0001
1000
0010
0100
0002
0000
0000
0003
,
1000
0000
0001
0010
0100
0000
1000
0100
0010
0000
0100
0010
1000
0000
0010
0100
,
0020
0000
0030
0000
0100
0000
0010
0100
0001
1000
0100
0000
0020
0000
0030
0000
,
0100
0000
0100
0001
0010
0000
0100
0010
0002
0000
0000
0003
0100
0000
1000
0100
,
0010
0000
0100
0010
0100
0000
1000
0100
0001
0010
1000
0001
0200
0000
0300
0000
,
1000
0100
0010
0100
0010
0100
1000
0100
,
0010
0000
0001
0000
0100
0000
0001
1000
0001
0000
0001
1000
0200
0000
0300
0000
,
0002
0000
0000
0003
0020
0000
0000
0030
0200
0000
0000
0300
0010
0000
0100
0010
,
0000
1000
0100
0000
0010
0000
0001
0000
1000
0000
0100
0000
2002
0000
0000
0000
,
3003
0000
0000
0000
;
