#TITLE:Dabbi Doo;
#SUBTITLE:;
#ARTIST:Ni-Ni;
#TITLETRANSLIT:;
#SUBTITLETRANSLIT:;
#ARTISTTRANSLIT:;
#GENRE:Techno;
#CREDIT:;
#MUSIC:Dabbi Doo.ogg;
#BANNER:Dabbi Doo.png;
#BACKGROUND:Dabbi Doo-bg.png;
#CDTITLE:Wrland.png;
#SAMPLESTART:58.140;
#SAMPLELENGTH:12.000;
#SELECTABLE:YES;
#OFFSET:-7.705;
#BPMS:0.000=138.000;
#STOPS:;
#DISPLAYBPM:138.000;
#JACKET:Dabbi Doo-jacket.png;
#BGCHANGES:;
#FGCHANGES:;

//--------------- dance-single - ----------------
#NOTES:
     dance-single:
     :
     Beginner:
     1:
     0,0,0,0,0:
0000
0000
0000
0000
,
0000
0000
0000
0000
,
0000
0000
0000
0000
,
0000
0000
0000
0000
,
0000
0000
0000
0000
,
1000
0000
0000
0000
,
1000
0000
0000
0000
,
0001
0000
0000
0000
,
0001
0000
0000
0000
,
0100
0000
0000
0000
,
0100
0000
0000
0000
,
0001
0000
0000
0000
,
0001
0000
0000
0000
,
1001
0000
0000
0000
,
0100
0000
0000
0000
,
0010
0000
0000
0000
,
0100
0000
0000
0000
,
0010
0000
0000
0000
,
0010
0000
0000
0000
,
1000
0000
0000
0000
,
0001
0000
0000
0000
,
1000
0000
0000
0000
,
0100
0000
0000
0000
,
1000
0000
0000
0000
,
0010
0000
0000
0000
,
0100
0000
0000
0000
,
0010
0000
0000
0000
,
0010
0000
0000
0000
,
0001
0000
0000
0000
,
1001
0000
0000
0000
,
1000
0000
0000
0000
,
0100
0000
0000
0000
,
0010
0000
0000
0000
,
0100
0000
0000
0000
,
0010
0000
0000
0000
,
0001
0000
0000
0000
,
1000
0000
0000
0000
,
0100
0000
0000
0000
,
0010
0000
0000
0000
,
0100
0000
0000
0000
,
0010
0000
0000
0000
,
0001
0000
0000
0000
,
1000
0000
0000
0000
,
0100
0000
0000
0000
,
0010
0000
0000
0000
,
0110
0000
0000
0000
;

//--------------- dance-single - ----------------
#NOTES:
     dance-single:
     :
     Easy:
     2:
     0,0,0,0,0:
0000
0000
0000
0000
,
0000
0000
0000
0000
,
0000
0000
0000
0000
,
0000
0000
0000
0000
,
0000
0000
0000
0000
,
1000
0000
1000
0000
,
0001
0000
0001
0000
,
0100
0000
0100
0000
,
0010
0000
0010
0000
,
0001
0000
0001
0000
,
0010
0000
0010
0000
,
0100
0000
0100
0000
,
1000
0000
1000
0000
,
1001
0000
0100
0000
,
0010
0000
0100
0000
,
0110
0000
0100
0000
,
0010
0000
1000
0000
,
0110
0000
1000
0000
,
0100
0000
1000
0000
,
0101
0000
0010
0000
,
0100
0000
0010
0000
,
1010
0000
0100
0000
,
0010
0000
0010
0000
,
0110
0000
0100
0000
,
0100
0000
1000
0000
,
1010
0000
0100
0000
,
0001
0000
0100
0000
,
0010
0000
0100
0000
,
0100
0000
0010
0000
,
0020
0000
0030
0100
,
2000
0000
3000
0001
,
0200
0000
0300
0010
,
0100
0000
0010
0000
,
2000
0000
3000
0001
,
0200
0000
0300
0100
,
0020
0000
0030
0010
,
0100
0000
1000
0000
,
0001
0000
1000
0000
,
0001
0000
0001
0000
,
0100
0000
0100
0000
,
0010
0000
0010
0000
,
0100
0000
0100
0000
,
0010
0000
0010
0000
,
0100
0000
0100
0000
,
1000
0000
1000
0000
,
1000
0000
0000
1001
;

//--------------- dance-single - ----------------
#NOTES:
     dance-single:
     :
     Medium:
     5:
     0,0,0,0,0:
0000
0000
0000
0000
,
0000
0000
0000
0000
,
0000
0000
0000
0000
,
0000
0000
0000
0000
,
0000
0000
0000
0000
,
1000
1000
1000
0100
,
0010
0010
0010
0010
,
0100
0100
0100
0100
,
0010
0001
0010
0100
,
1000
1000
1000
0100
,
0010
0100
0010
0100
,
0001
0001
0001
0001
,
0100
0010
0001
1000
,
1001
1000
0100
1000
,
0100
0010
0100
0010
,
0000
0010
0100
0010
0000
0100
0010
0100
,
0110
0000
0000
0010
0100
1000
0010
0000
,
0001
0100
0010
0100
,
0010
0001
1000
0001
,
0000
0010
1000
0100
0000
0010
1000
0100
,
1001
0000
0000
0100
0010
0100
0010
0000
,
0100
0010
0100
0010
,
0100
0010
0001
1000
,
1000
0001
1000
0001
,
1000
0001
1000
0100
,
1000
0100
1000
0100
,
1000
0100
1000
0100
,
0010
0100
0010
0100
,
0220
0330
0100
0010
,
0100
0000
0010
0000
0001
0100
0001
0000
,
0100
0000
0011
0000
0100
0010
0100
0000
,
1000
0000
0100
0000
1000
0100
1000
0000
,
0100
0010
0100
0010
,
0100
0000
0001
0000
0100
0001
0100
0000
,
0010
0000
0100
0000
0010
0100
0010
0000
,
1000
0000
0010
0000
1000
0010
1000
0000
,
1000
0100
0010
0101
,
0010
0000
1000
0000
0100
0010
0100
0000
,
0010
0000
0001
0000
0100
0010
0100
0000
,
0010
0000
1000
0000
0100
1000
0100
0000
,
0100
0000
0010
0000
0100
0010
0100
0000
,
0001
0000
0100
0000
0010
0100
0010
0000
,
0001
0000
1000
0000
0001
1000
0001
0000
,
0100
0000
1000
0000
0100
1000
0100
0000
,
0010
0000
0100
0000
0010
0100
0010
0000
,
0220
0000
0330
1001
;

//--------------- dance-single - ----------------
#NOTES:
     dance-single:
     :
     Hard:
     10:
     0,0,0,0,0:
0000
0000
0000
0000
,
0000
0000
0000
0000
,
0000
0000
0000
0000
,
0000
0000
0000
0000
,
0000
0000
0000
0000
,
1000
0000
0001
0000
0100
0000
0010
0000
1000
0000
0000
0001
0000
0000
0100
0000
,
0010
0000
1000
0000
0010
0000
0100
0000
0100
0000
0010
0000
0100
0001
0010
0000
,
0100
0000
0010
0000
1000
0000
0001
0000
0100
0000
0000
1000
0000
0000
0001
0000
,
0010
0000
0100
0000
0010
0000
0100
0000
0010
0000
0000
0100
0000
0010
0100
0000
,
0100
0000
0010
0000
0100
0000
1000
0000
0100
0000
0000
0100
0000
0000
0010
0000
,
0100
0000
0010
0000
0001
0000
1000
0000
0001
0000
0000
0100
0000
0010
0100
0000
,
0010
0000
0010
0000
1000
0000
0100
0000
0010
0000
0000
0100
0000
0000
0010
0000
,
0100
0000
0100
0000
0010
0000
0100
0000
0010
0000
0000
0001
0000
0100
0010
0000
,
1000
0100
1000
0100
0100
0000
0010
0100
,
0010
0001
1000
0001
0100
0010
0200
0300
,
0000
0010
0100
0010
0000
0100
0010
0100
,
1001
0000
0100
0010
0100
0010
0002
0003
,
1000
0100
0010
0100
0010
0100
0010
1000
,
0100
1000
0100
0001
0001
0100
0002
0003
,
0000
0100
0010
0100
0000
0010
0100
0010
,
1100
0000
1000
0100
0000
0010
0100
0000
0010
0000
0001
0000
0010
0100
1000
0100
,
1000
0010
0100
0010
0001
1000
0001
1000
,
0000
0000
0100
0010
0101
0000
1001
0000
,
0101
0000
0010
0100
0010
0100
0010
1000
0100
0010
0001
0010
0001
0010
0100
0010
,
0100
0001
1000
0001
0100
0010
0200
0300
,
0000
0001
1000
0100
1000
0100
0000
0001
,
0010
0100
0010
0100
0010
0000
1000
0000
0010
0000
0000
0000
0001
0000
0000
0000
,
1001
0100
0010
0001
0010
0001
0010
0001
0010
0100
1000
0100
1000
0100
0010
0100
,
0011
1000
0100
0010
0101
0000
1001
0110
,
0110
0000
0100
0010
0000
0100
1000
0000
0200
0000
0001
0000
0310
0000
0000
0000
,
0100
0000
0010
0100
0000
0001
0100
0100
1000
0000
0001
0000
0100
0000
0000
0000
,
0010
0000
0001
1000
0100
0000
0010
0000
0100
0000
0010
0000
0200
0000
0000
0000
,
0300
1000
0100
0010
0100
0010
0001
1000
,
0010
0000
0010
0100
0000
0010
0100
0000
0010
0000
0001
0000
0020
0000
0030
0000
,
0100
0000
1000
0100
0000
1000
0100
0000
0100
0000
0010
0000
0100
0000
0000
0000
,
0100
0000
0010
1000
0000
0100
0010
0000
0001
0000
1000
0000
0002
0000
0003
0000
,
0010
0100
0010
1000
0100
1000
0100
0010
,
0100
0000
0010
0100
0000
0010
0100
0000
1000
0000
0100
0000
0010
0000
0000
0000
,
0010
0000
0100
1000
0000
0100
1000
0000
0010
0000
0100
0000
0010
0000
0000
0000
,
1000
0000
0100
1000
0000
0100
1000
0000
0100
0000
0010
0000
0100
0000
0000
0000
,
0100
0000
0010
0100
0010
0000
0100
0000
1000
0000
0100
0000
0020
0000
0030
0000
,
0100
0000
0010
0100
0000
0010
0001
0000
0001
0000
0010
0000
0002
0000
0003
0000
,
0100
0000
0001
0000
0100
0000
0010
0000
0100
0000
0000
0010
0000
0001
0100
0000
,
1000
0000
0100
0010
0000
0010
0100
0000
0010
0000
1000
0000
0100
0000
0010
0000
,
0100
0000
0010
0000
0100
0000
0010
0000
0010
0100
0010
0100
0010
0100
0010
0100
,
0220
0000
0330
0110
;
