#TITLE:コッペリアの柩;
#SUBTITLE:;
#ARTIST:ALI PROJECT;
#TITLETRANSLIT:Coppelia no Hitsugi;
#SUBTITLETRANSLIT:;
#ARTISTTRANSLIT:;
#GENRE:J-Pop;
#CREDIT:;
#MUSIC:Coppelia no Hitsugi.ogg;
#BANNER:Coppelia no Hitsugi.png;
#BACKGROUND:Coppelia no Hitsugi-bg.png;
#CDTITLE:Noir.png;
#SAMPLESTART:73.847;
#SAMPLELENGTH:12.000;
#SELECTABLE:YES;
#OFFSET:-3.655;
#BPMS:0.000=129.929
,32.000=64.964
,36.000=129.929
,220.000=64.964
;
#STOPS:;
#DISPLAYBPM:64.000:129.000;
#JACKET:Coppelia no Hitsugi-jacket.png;
#BGCHANGES:;
#FGCHANGES:;

//--------------- dance-single - ----------------
#NOTES:
     dance-single:
     :
     Beginner:
     1:
     0,0,0,0,0:
0000
0000
0000
0000
,
0000
0000
0000
0000
,
0000
0000
0000
0000
,
0000
0000
0000
0000
,
1000
0000
0000
0000
,
0000
0000
0000
0000
,
0001
0000
0000
0000
,
0000
0000
0000
0000
,
1000
0000
0000
0000
,
0001
0000
0000
0000
,
0000
0000
0000
0000
,
0100
0000
0000
0000
,
0000
0000
0000
0000
,
1000
0000
0000
0000
,
0000
0000
0000
0000
,
0001
0000
0000
0000
,
0000
0000
0000
0000
,
0010
0000
0000
0000
,
0000
0000
0000
0000
,
0001
0000
0000
0000
,
0000
0000
0000
0000
,
0100
0000
0000
0000
,
0000
0000
0000
0000
,
0010
0000
0000
0000
,
0000
0000
0000
0000
,
0100
0000
0000
0000
,
0000
0000
0000
0000
,
0001
0000
0000
0000
,
0000
0000
0000
0000
,
1000
0000
0000
0000
,
0000
0000
0000
0000
,
0100
0000
0000
0000
,
0000
0000
0000
0000
,
0010
0000
0000
0000
,
0000
0000
0000
0000
,
0001
0000
0000
0000
,
0000
0000
0000
0000
,
1001
0000
0000
0000
,
0000
0000
0000
0000
,
0100
0000
0000
0000
,
0000
0000
0000
0000
,
0010
0000
0000
0000
,
0000
0000
0000
0000
,
0100
0000
0000
0000
,
0000
0000
0000
0000
,
0010
0000
0000
0000
,
0000
0000
0000
0000
,
1001
0000
0000
0000
,
0000
0000
0000
0000
,
0100
0000
0000
0000
,
0000
0000
0000
0000
,
0010
0000
0000
0000
,
0000
0000
0000
0000
,
1000
0000
0000
0000
,
0000
0000
0000
0000
,
0001
0000
0000
0000
,
1000
0000
0000
0000
,
1001
0000
0000
0000
;

//--------------- dance-single - ----------------
#NOTES:
     dance-single:
     :
     Easy:
     4:
     0,0,0,0,0:
0000
0000
0000
0000
,
0000
0000
0000
0000
,
0000
0000
0000
0000
,
0000
0000
0000
0000
,
1000
0000
0000
0000
,
0001
0000
0000
0000
,
1000
0000
0000
0000
,
0001
0000
0000
0000
,
0100
0000
0000
0000
,
0010
0000
0000
0000
,
0100
0000
0000
0000
,
0010
0000
0000
0000
,
0001
0000
0000
0000
,
0010
0000
0000
0000
,
0100
0000
0000
0000
,
0010
0000
0000
0000
,
0100
0000
0000
0000
,
0001
0000
0000
0000
,
1000
0000
0000
0000
,
0001
0000
0000
0000
,
1000
0000
0000
0000
,
0100
0000
0000
0000
,
1000
0000
0000
0000
,
0100
0000
0000
0000
,
0010
0000
0000
0000
,
0001
0000
0000
0000
,
0010
0000
0000
0000
,
0001
0000
0000
0000
,
0010
0000
0000
0000
,
0100
0000
0000
0000
,
0010
0000
0000
0000
,
0001
0000
0000
0000
,
1000
0000
0000
0000
,
1000
0000
0000
0000
,
0001
0000
0000
0000
,
1000
0000
0000
0000
,
2002
0000
0000
3003
,
0100
0000
0000
0000
,
0010
0000
0000
0000
,
0100
0000
0000
0000
,
0010
0000
0000
0000
,
0100
0000
0000
0000
,
1000
0000
0000
0000
,
0100
0000
0000
0000
,
0010
0000
0000
0000
,
1001
0000
0000
0000
,
0110
0000
0000
0000
,
1000
0000
0000
0000
,
0001
0000
0000
0000
,
1000
0000
0000
0000
,
0001
0000
0000
0000
,
0100
0000
0000
0000
,
0010
0000
0000
0000
,
0100
0000
0000
0000
,
0001
0000
0000
0000
,
1001
0000
0000
0000
,
0110
0000
0000
0000
,
1001
0000
0000
0000
;

//--------------- dance-single - ----------------
#NOTES:
     dance-single:
     :
     Medium:
     7:
     0,0,0,0,0:
0000
0000
0000
0000
,
0000
0000
0000
0000
,
0000
0000
0000
0000
,
0000
0000
0000
0000
,
1000
0000
0001
0000
,
1000
1000
1000
0000
,
0100
0000
0010
0000
,
0100
0100
0100
0000
,
0010
0000
0100
0000
,
0001
0000
0000
0000
,
1000
0000
0000
0000
,
0001
0000
0000
0000
,
1000
0001
1000
0000
,
0100
0000
0100
0000
,
0010
0000
0010
0000
,
0100
0000
0100
0000
,
0001
0000
0001
0000
,
1000
0000
1000
0000
,
0100
0000
0100
0000
,
0010
0000
0010
0000
,
0100
0000
0100
0000
,
0001
0000
0001
0000
,
1000
0000
1000
0000
,
0100
0000
0100
0000
,
1000
0000
1000
0000
,
0010
0000
0010
0000
,
0100
0000
0100
0000
,
0001
0000
0001
0000
,
1000
0000
1000
0000
,
0100
0000
0010
0000
,
0100
0000
0010
0000
,
0100
0000
0010
0000
,
1000
0000
0100
0000
,
0001
0000
0100
0000
,
0001
0000
0010
0000
,
1000
0010
0100
0001
,
0200
0000
0300
0000
,
1000
0000
0001
0000
,
1000
0001
1000
0000
,
0100
0000
0100
0000
,
0010
0100
0010
0000
,
1000
0000
0100
0000
,
0001
0010
0001
0000
,
0010
0000
0100
0000
,
1000
0010
1000
0000
,
1001
0000
0100
0010
,
0100
0010
0000
0000
,
0100
0000
0100
0000
,
0100
0010
0100
0000
,
0001
0000
0010
0000
,
0001
0010
0001
0000
,
1000
0000
0100
0000
,
1000
0100
1000
0000
,
0100
0000
0100
0000
,
0010
0100
0010
0000
,
2002
0000
3003
0000
,
0220
0000
0330
0000
;

//--------------- dance-single - ----------------
#NOTES:
     dance-single:
     :
     Hard:
     10:
     0,0,0,0,0:
0000
0000
0000
0000
,
0000
0000
0000
0000
,
0000
0000
0000
0000
,
0000
0000
0000
0000
,
1000
0000
0001
0100
0010
0000
0100
0000
,
0010
0000
0001
0000
0100
0000
1000
0100
,
0010
0100
0010
0001
0100
0010
1000
0100
,
1000
0100
0010
0100
0010
0001
0100
0010
,
0200
0300
0020
0030
0001
0200
0300
1001
,
1000
0001
0010
0100
0010
1000
0100
0010
0100
0010
0001
0010
0100
1000
0100
0010
,
0100
0010
0001
0100
0010
0100
0010
0001
0010
0100
1000
0100
0010
0100
0010
0001
,
0110
1010
0011
1100
,
0110
0000
0101
0000
1010
0000
0011
0100
,
0010
0000
0100
1000
0000
0100
0000
0010
,
0100
0010
0000
0002
0000
0000
0003
0000
,
0100
0000
0010
0100
0000
0010
0000
0100
,
0010
0200
0000
0000
0300
0000
0000
0000
,
1000
0000
0001
1000
0000
0001
0000
0100
,
0010
0100
0000
0010
0000
0100
0010
0001
,
0000
0100
0010
0100
0010
0000
0100
0010
,
0200
0000
0300
0020
0000
0030
0000
0000
,
0100
0000
1000
0100
0000
0010
0000
0100
,
0010
0100
0000
0020
0000
0000
0030
0000
,
0001
0000
1000
0001
0000
0100
0000
0010
,
0100
0020
0000
0000
0030
0000
0000
0000
,
0100
0000
0010
0100
0000
0010
0000
0001
,
1000
0001
0000
0100
0000
0010
0100
0010
,
0000
0100
1000
0100
0000
0010
0100
0010
,
0001
1000
0001
1000
0001
1000
0001
1000
0001
1000
0100
0010
0100
0010
0100
0010
,
0100
0010
0100
2000
0000
3000
0100
0010
,
0100
0000
0000
0020
0000
0000
0000
0000
0030
0000
0000
0000
0000
0000
0000
0000
,
0100
0010
0001
1000
0000
0000
0100
1000
,
0100
0000
0000
0020
0000
0000
0000
0000
0030
0000
0000
0000
0000
0000
0000
0000
,
0100
0010
0000
0200
0000
0300
0001
0000
,
1000
0001
0000
0200
0000
0300
0010
0000
,
0100
0010
0001
2000
0000
3000
0100
0000
,
2002
0000
0000
3003
,
1001
0000
0100
0010
0100
0000
0100
0000
,
1000
0000
0100
0000
0001
0000
0100
0010
,
1000
0100
0010
0001
0100
0010
0100
1000
,
0100
0010
0001
0100
0020
0000
0000
0030
,
1000
0000
0100
0010
0001
0000
0100
0000
,
0010
0000
0100
0000
0010
0000
1000
0100
,
0010
0100
0010
0001
0100
0010
0100
0010
,
0100
0010
0001
0100
0010
1000
0100
0010
,
0100
0010
0100
0010
,
0100
0001
1000
0001
,
0100
0000
0010
0100
0010
0000
1000
0000
,
0100
0000
1000
0000
0100
0000
0010
0100
,
0010
0001
0100
0010
0100
1000
0100
0010
,
0001
0100
0010
0100
2000
0000
0000
3000
,
0100
0000
0010
0100
0010
0000
0100
0000
,
0010
0000
0001
0000
1000
0000
1000
0001
,
1000
0001
0100
0010
0100
0010
0100
0010
,
0100
0000
1000
0100
0010
0001
0010
0100
1000
0100
0010
0001
0010
0100
1000
0100
,
0020
0030
0200
0300
0020
0030
0002
0003
,
2002
0000
0000
0000
,
3003
0000
0000
0000
;
