#VERSION:0.83;
#TITLE:Bills, Bills, Bills;
#SUBTITLE:;
#ARTIST:Destiny's Child;
#TITLETRANSLIT:;
#SUBTITLETRANSLIT:;
#ARTISTTRANSLIT:;
#GENRE:RnB;
#ORIGIN:;
#CREDIT:;
#BANNER:Bills, Bills, Bills.png;
#BACKGROUND:Bills, Bills, Bills-bg.png;
#PREVIEWVID:;
#JACKET:Bills, Bills, Bills-jacket.png;
#CDIMAGE:;
#DISCIMAGE:;
#LYRICSPATH:;
#CDTITLE:Wrland.png;
#MUSIC:Bills, Bills, Bills.ogg;
#OFFSET:0.001000;
#SAMPLESTART:60.090000;
#SAMPLELENGTH:12.000000;
#SELECTABLE:YES;
#DISPLAYBPM:63.000000;
#BPMS:0.000=63.903;
#STOPS:72.000=0.235,
72.250=0.235,
72.500=0.235,
72.750=0.235,
73.000=0.939,
74.500=0.235,
74.750=0.235,
75.000=0.235,
75.250=0.235,
85.000=0.235,
85.250=0.235,
85.500=0.235,
85.750=0.235,
88.000=0.235,
88.250=0.235,
88.500=0.235,
88.750=0.235,
99.000=0.235,
99.250=0.235,
99.500=0.235,
99.750=0.235,
102.000=0.235,
102.250=0.235,
102.500=0.235,
102.750=0.235,
115.000=0.939,
118.000=0.469,
118.500=1.174;
#DELAYS:;
#WARPS:;
#TIMESIGNATURES:0.000=4=4;
#TICKCOUNTS:0.000=4;
#COMBOS:0.000=1;
#SPEEDS:0.000=1.000=0.000=0;
#SCROLLS:0.000=1.000;
#FAKES:;
#LABELS:0.000=Song Start;
#BGCHANGES:0.000=Bills, Bills, Bills.avi=0.000=0=0=0=StretchNoLoop====,
99999=-nosongbg-=1.000=0=0=0 // don't automatically add -songbackground-
;
#KEYSOUNDS:;
#ATTACKS:
;

//---------------dance-single - ----------------
#NOTEDATA:;
#CHARTNAME:;
#STEPSTYPE:dance-single;
#DESCRIPTION:;
#CHARTSTYLE:;
#DIFFICULTY:Beginner;
#METER:1;
#RADARVALUES:0.042659,0.061174,0.000000,0.000000,0.004147,36.000000,36.000000,0.000000,0.000000,0.000000,0.000000,0.000000,0.000000,0.000000,0.042659,0.061174,0.000000,0.000000,0.004147,36.000000,36.000000,0.000000,0.000000,0.000000,0.000000,0.000000,0.000000,0.000000;
#CREDIT:;
#DISPLAYBPM:63.000000;
#NOTES:
// measure 0
0000
0000
0000
0000
,  // measure 1
0000
0000
0000
0000
,  // measure 2
0000
0000
0000
0000
,  // measure 3
0000
0000
0000
0000
,  // measure 4
1000
0000
0000
0000
,  // measure 5
0010
0000
0000
0000
,  // measure 6
0100
0000
0000
0000
,  // measure 7
0010
0000
0000
0000
,  // measure 8
0001
0000
0000
0000
,  // measure 9
0100
0000
0000
0000
,  // measure 10
0001
0000
0000
0000
,  // measure 11
1000
0000
0000
0000
,  // measure 12
0100
0000
0000
0000
,  // measure 13
0010
0000
0000
0000
,  // measure 14
0100
0000
0000
0000
,  // measure 15
0001
0000
0000
0000
,  // measure 16
1000
0000
0000
0000
,  // measure 17
0001
0000
0000
0000
,  // measure 18
0100
0000
0000
0000
0010
0000
0000
0000
1000
0000
0000
0000
0000
0001
0000
0000
,  // measure 19
0000
1000
0000
0000
,  // measure 20
0000
0001
0000
0000
,  // measure 21
0000
0100
0010
0000
,  // measure 22
0001
1000
0000
0010
,  // measure 23
0000
0000
0000
0100
,  // measure 24
0000
0000
0000
1000
,  // measure 25
0001
0000
0010
0100
,  // measure 26
0000
0001
0000
0000
,  // measure 27
0000
1000
0000
0000
,  // measure 28
0000
0010
0000
0100
,  // measure 29
0010
0000
0001
0000
;

//---------------dance-single - ----------------
#NOTEDATA:;
#CHARTNAME:;
#STEPSTYPE:dance-single;
#DESCRIPTION:;
#CHARTSTYLE:;
#DIFFICULTY:Easy;
#METER:3;
#RADARVALUES:0.107833,0.195758,0.074653,0.000000,0.008295,91.000000,82.000000,9.000000,0.000000,0.000000,0.000000,0.000000,0.000000,0.000000,0.107833,0.195758,0.074653,0.000000,0.008295,91.000000,82.000000,9.000000,0.000000,0.000000,0.000000,0.000000,0.000000,0.000000;
#CREDIT:;
#DISPLAYBPM:63.000000;
#NOTES:
0000
0000
0000
0000
,
0000
0000
0000
0000
,
0000
0000
0000
0000
,
0000
0000
0000
0000
,
1000
0000
0001
0000
,
1000
0000
0001
0000
,
0100
0000
0100
0000
,
1000
0000
0100
0000
,
0010
0000
0010
0100
,
0010
0000
1000
0000
,
0100
0000
1000
0000
,
0001
0000
1000
0000
,
0100
0000
0010
0000
,
0010
0000
0100
0000
,
0001
0000
0100
0000
,
0001
0000
0100
0000
,
1000
0001
0001
1000
,
0100
0100
0010
0010
,
0110
0000
0110
0000
1001
0000
0000
0000
1100
0000
0000
0110
0000
1001
0000
0000
,
0000
1000
0001
1000
,
0001
0100
0010
0100
,
0010
0000
1000
0001
1000
0000
0001
0000
,
0100
0100
0010
0000
0000
0000
1000
0000
,
0100
1000
0100
1000
,
0010
0000
1000
0000
0010
0000
0101
1010
,
0101
0000
0000
0000
0010
0100
0010
0000
,
0000
1000
0100
1000
,
0010
1000
0100
1000
,
0010
0100
0100
0010
,
0010
0100
0010
0000
;

//---------------dance-single - ----------------
#NOTEDATA:;
#CHARTNAME:;
#STEPSTYPE:dance-single;
#DESCRIPTION:;
#CHARTSTYLE:;
#DIFFICULTY:Medium;
#METER:6;
#RADARVALUES:0.214481,0.232463,0.016590,0.232255,0.066359,181.000000,179.000000,2.000000,28.000000,0.000000,0.000000,0.000000,0.000000,0.000000,0.214481,0.232463,0.016590,0.232255,0.066359,181.000000,179.000000,2.000000,28.000000,0.000000,0.000000,0.000000,0.000000,0.000000;
#CREDIT:;
#DISPLAYBPM:63.000000;
#NOTES:
0000
0000
0000
0000
,
0000
0000
0000
0000
,
0000
0000
0000
0000
,
0000
0000
0000
0000
,
0100
0000
0010
0100
0020
0030
0000
0000
,
1000
0000
0100
1000
0100
0010
0200
0300
,
0001
0100
0001
0100
1000
0100
1000
0100
,
1000
1000
1000
0000
0001
0000
0100
0000
0001
0001
0001
0000
0100
0000
0010
0000
,
0100
1000
0100
0010
0200
0300
0020
0030
,
0100
0100
0010
1000
0100
1000
0100
0001
,
1000
0001
1000
0100
1000
0100
0010
0100
,
0010
0010
0010
0000
0100
0000
0010
0000
0100
0100
0100
0000
0100
0000
1000
0000
,
0100
1000
0002
0003
0100
0010
0100
0010
,
0000
1000
0200
0300
1000
0100
0010
0100
,
0000
0010
0000
0001
0100
0001
0100
1000
,
0000
1000
0000
0100
1000
0100
0010
0100
,
0010
0010
0200
0300
0100
0100
0020
0030
,
1000
1000
0002
0003
0001
0001
2000
3000
,
1000
0100
1000
0100
0110
0000
0000
0000
0100
0000
0100
0100
0010
1001
0000
0000
,
0000
0000
0100
1000
0200
0300
0010
0100
,
0020
0030
0001
1000
0002
0003
0100
0010
,
0200
0000
0300
0000
1000
1000
1000
0001
2000
0000
3000
0000
0200
0000
0300
0000
,
0010
0010
0010
0001
0020
0000
0030
0000
1000
0000
0100
0000
0010
0000
0100
0000
,
0020
0030
0100
1000
0200
0300
0010
0100
,
0020
0000
0030
0000
0001
0000
0100
0000
0002
0000
0003
0000
1000
1000
0100
1000
,
0020
0000
0030
0000
0200
0000
0300
0000
0100
0010
0100
0010
0002
0000
0003
0000
,
0100
0010
1000
0100
2000
3000
0010
0100
,
0020
0030
0001
0010
0002
0003
0001
0100
,
0002
0003
0010
0100
0010
0100
1000
0000
,
0100
1000
0100
0001
0001
0000
0000
0000
;

//---------------dance-single - ----------------
#NOTEDATA:;
#CHARTNAME:;
#STEPSTYPE:dance-single;
#DESCRIPTION:;
#CHARTSTYLE:;
#DIFFICULTY:Hard;
#METER:9;
#RADARVALUES:0.432516,0.455088,0.282024,0.223960,0.709208,365.000000,331.000000,34.000000,27.000000,0.000000,0.000000,0.000000,0.000000,0.000000,0.432516,0.455088,0.282024,0.223960,0.709208,365.000000,331.000000,34.000000,27.000000,0.000000,0.000000,0.000000,0.000000,0.000000;
#CREDIT:;
#DISPLAYBPM:63.000000;
#NOTES:
0000
0000
0000
0000
,
0000
0000
0000
0000
,
0000
0000
0000
0000
,
0000
0000
0000
0000
,
0001
0000
0100
0010
1000
0000
0100
0000
0010
0000
0100
0000
0010
0000
0100
0000
0020
0000
0000
0000
0030
0000
0000
0000
0200
0000
0000
0000
0300
0000
0000
0000
,
0100
0000
0010
0000
1000
0000
0100
0000
1000
0000
0100
0000
0010
0000
0100
0000
0010
0000
0000
0100
0000
0000
2000
0000
0000
0000
3000
0000
0001
0000
0100
0000
,
1000
0100
0010
0100
0001
0100
0001
0100
0010
1000
0100
1000
0100
0010
0100
0010
,
0100
0000
0010
0100
0000
0001
1000
0000
0100
0000
0010
0000
0100
0000
0100
0000
0010
0000
0001
0000
0100
0000
0010
0000
0100
0000
1000
0000
0100
0001
0010
0000
,
0000
0000
0100
0000
1000
0000
0100
0000
1000
0000
0100
0000
0010
0000
0100
0000
0020
0000
0000
0000
0030
0000
0000
0000
1001
0000
0001
1000
0001
1000
0001
1000
,
0001
0000
0100
0000
0010
0000
0100
0000
1000
0000
0100
0000
0010
0000
0100
0000
0010
0000
0000
0001
0000
0000
0200
0000
0000
0300
0000
0000
1000
0000
0100
0000
,
0010
0100
0010
0100
1000
0100
0010
0100
0001
0100
0001
0100
0001
0010
0001
0100
,
0001
0000
0100
1000
0000
0000
0100
0000
0010
0000
0100
0000
0010
0000
0000
0000
0100
0000
0010
0000
0100
0000
1000
0000
0100
0000
0010
0000
0001
0000
0100
0000
,
0000
0010
0100
1000
0020
0000
0030
0000
0100
0010
0100
0010
1000
0100
1000
0100
,
0000
0000
0100
0010
0200
0000
0300
0000
0100
0010
0100
0001
0100
0010
0100
0010
,
0000
0000
0001
0000
0100
0000
1000
0000
0000
0000
0100
0000
0010
0000
0100
0010
0000
0000
1000
0000
0010
0000
0100
0000
0010
0000
0100
0000
0010
0000
0000
0000
,
0100
0000
1000
0000
0100
0000
1000
0000
0000
0000
0100
0000
0010
0000
0100
0010
0001
0100
0010
0100
1000
0100
0010
0001
0010
0000
0100
0000
0010
0000
1000
0000
,
0020
0000
0030
0000
0200
0000
0300
0000
0020
0000
0000
0000
0030
0000
1000
0000
0100
0000
0010
0100
0000
0001
0010
0000
0200
0000
0000
0000
0300
0000
1000
0000
,
0100
0000
0010
1000
0000
0000
0100
0000
0020
0000
0000
0000
0030
0000
0100
0000
0010
0000
1000
0100
0000
0000
1000
0000
0200
0000
0000
0000
0300
0000
0000
0000
,
0101
0000
1001
0000
0101
0000
1001
0000
0101
0000
0000
0000
0000
0000
0000
0000
1010
0000
0000
0000
1001
0000
1010
0000
1001
0000
1010
0000
0000
0000
1000
0100
,
0010
0001
1000
0001
0100
0000
0010
0100
0020
0030
0100
1000
0100
0100
0010
0100
,
2000
0000
3000
0000
0000
0000
1000
0000
0100
0000
0001
0100
0000
0000
0100
0000
0001
0000
0000
0010
0000
0000
0100
0000
1000
0000
0000
0100
0000
0000
0010
0000
,
0100
0010
0100
0010
0101
1001
0101
1001
0101
0000
0100
0000
0010
0000
1000
0000
,
1010
0000
1001
0000
1010
0000
1001
0000
1010
0000
0000
0000
0000
0000
0001
1000
0001
0000
0100
0000
0010
0000
0100
0000
0010
0000
0000
0000
0100
0000
0010
0000
,
0200
0000
0000
0000
0300
0000
1000
0000
0100
0000
0100
0010
0000
0000
0100
0000
0020
0000
0000
0000
0030
0000
0001
0000
1000
0000
0000
0001
1000
0000
0001
0000
,
0200
0000
0000
0000
0300
0000
1000
0000
0100
0000
0100
0001
0010
0000
0100
0000
0020
0000
0000
0000
0030
0000
0000
0000
0101
0000
1001
0000
0101
0000
1001
0000
,
0101
0000
0000
0000
0000
0000
0000
0000
2002
0000
0000
0000
3003
0000
0000
0000
1010
0000
1001
0000
1010
0000
1001
0000
1010
0000
0000
0000
0000
0000
1000
0001
,
0100
0000
0001
0000
1000
0000
0001
0000
0100
0000
0000
0000
0010
0000
0100
0000
0020
0000
0000
0000
0030
0000
0100
0000
0010
0000
0100
0010
0000
0000
0100
0000
,
2000
0000
0000
0000
3000
0000
0100
0000
0010
0000
0100
0001
0010
0000
0100
0000
0020
0000
0000
0000
0030
0000
1000
0000
0100
0000
0001
1000
0100
0000
1000
0000
,
0200
0300
0100
0010
0100
0010
0110
0000
,
0010
0000
0000
0000
0001
0000
0000
0000
1000
0000
0000
0000
0001
0000
0000
0000
1000
0000
0000
0000
2002
3003
0000
0000
0000
0000
0000
0000
0000
0000
0000
0000
;
