#VERSION:0.83;
#TITLE:내 머리가 나빠서;
#SUBTITLE:;
#ARTIST:SS501;
#TITLETRANSLIT:Because I'm Stupid;
#SUBTITLETRANSLIT:;
#ARTISTTRANSLIT:;
#GENRE:K-Pop;
#CREDIT:;
#MUSIC:Because I'm Stupid.ogg;
#BANNER:Because I'm Stupid.png;
#BACKGROUND:Because I'm Stupid-bg.png;
#JACKET:Because I'm Stupid-jacket.png;
#CDTITLE:Boys Over Flowers.png;
#SAMPLESTART:70.100;
#SAMPLELENGTH:12.000;
#SELECTABLE:YES;
#OFFSET:-0.549;
#BPMS:0.000=113.012;
#STOPS:;
#DISPLAYBPM:113.000;
#BGCHANGES:;
#FGCHANGES:;

//--------------- dance-single - ----------------
#NOTEDATA:;
#STEPSTYPE:dance-single;
#DESCRIPTION:;
#DIFFICULTY:Beginner;
#METER:1;
#RADARVALUES:0,0,0,0,0;
#NOTES:
0000
0000
0000
0000
,
0000
0000
0000
0000
,
0000
0000
0000
0000
,
0000
0000
0000
0000
,
0000
0000
0000
0000
,
0000
0000
0000
0000
,
0000
0000
0000
0000
,
0000
0000
0000
0000
,
0000
0000
0000
0000
,
1000
0000
0000
0000
,
0010
0000
0000
0000
,
0100
0000
0000
0000
,
0001
0000
0000
0000
,
1000
0000
0000
0000
,
0100
0000
0000
0000
,
0010
0000
0000
0000
,
0001
0000
0000
0000
,
1000
0000
0000
0000
,
0100
0000
0000
0000
,
0010
0000
0000
0000
,
0001
0000
0000
0000
,
0100
0000
0000
0000
,
0010
0000
0000
0000
,
1000
0000
0000
0000
,
0001
0000
0000
0000
,
0110
0000
0000
0000
,
0001
0000
0000
0000
,
1000
0000
0000
0000
,
0100
0000
0000
0000
,
0001
0000
0000
0000
,
1000
0000
0000
0000
,
0001
0000
0000
0000
,
0100
0000
0000
0000
,
1001
0000
0000
0000
,
0100
0000
0000
0000
,
0010
0000
0000
0000
,
1000
0000
0000
0000
,
0010
0000
0000
0000
,
0100
0000
0000
0000
,
0001
0000
0000
0000
,
1000
0000
0000
0000
,
0100
0000
0000
0000
,
0010
0000
0000
0000
,
0100
0000
0000
0000
,
0001
0000
0000
0000
,
1001
0000
0000
0000
,
0000
0000
0000
0000
,
0000
0000
0000
0000
,
0000
0000
0000
0000
,
0000
0000
0000
0000
,
0000
0000
0000
0000
,
0000
0000
1001
0000
;

//--------------- dance-single - ----------------
#NOTEDATA:;
#STEPSTYPE:dance-single;
#DESCRIPTION:;
#DIFFICULTY:Easy;
#METER:3;
#RADARVALUES:0,0,0,0,0;
#NOTES:
0000
0000
0000
0000
,
0000
0000
0000
0000
,
0000
0000
0000
0000
,
0000
0000
0000
0000
,
0000
0000
0000
0000
,
0000
0000
0000
0000
,
0000
0000
0000
0000
,
0000
0000
0000
0000
,
0000
0000
0000
0000
,
1001
0000
0100
0000
,
0100
0000
0010
0000
,
0100
0000
0001
0000
,
1000
0000
0100
0000
,
0010
0000
0010
0000
,
1000
0000
1000
0000
,
0001
0000
0001
0000
,
0100
0000
0020
0030
,
1001
0000
0100
0000
,
0010
0000
0100
0000
,
0010
0000
0001
0000
,
1000
0000
0100
0000
,
0010
0000
1000
0000
,
0100
0000
0001
0000
,
0100
0000
0010
0000
,
0100
0000
0010
0000
,
1001
0000
0100
0000
,
0010
0000
0100
0000
,
0010
0000
1000
0000
,
0100
0000
0001
0000
,
0100
0000
0010
0000
,
1000
0000
0001
0000
,
0100
0000
0010
0000
,
0100
0000
2000
3000
,
2002
0000
3003
0000
0020
0000
0000
0030
,
1001
0000
0100
0000
,
0010
0000
0100
0000
,
0010
0000
0100
0000
,
1000
0000
0100
0000
,
0010
0000
0100
0000
,
0010
0000
0001
0000
,
1000
0000
0100
0000
,
0010
0000
0100
0000
,
0010
0000
0001
0000
,
1000
0000
0100
0000
,
0010
0000
0100
0000
,
0010
0000
1001
0000
,
0000
0000
0000
0000
,
0000
0000
0000
0000
,
0000
0000
0000
0000
,
0000
0000
0000
0000
,
0000
0000
0000
0000
,
0000
0000
1001
0000
;

//--------------- dance-single - ----------------
#NOTEDATA:;
#STEPSTYPE:dance-single;
#DESCRIPTION:;
#DIFFICULTY:Medium;
#METER:5;
#RADARVALUES:0,0,0,0,0;
#NOTES:
0000
0000
0000
0000
,
0000
0000
0000
0000
,
0000
0000
0000
0000
,
0000
0000
0000
0000
,
0000
0000
0000
0000
,
0000
0000
0000
0000
,
0000
0000
0000
0000
,
0000
0000
0000
0000
,
0000
0000
0000
0000
,
1000
0000
0100
0000
0010
0100
0010
0100
,
0010
0000
0100
0001
0000
0100
0000
0010
,
0100
0000
1010
0000
0100
0001
0100
0001
,
1000
0000
0100
0000
0000
0100
0010
0100
,
0010
0000
0100
0000
0001
0100
0001
1000
,
1010
0000
0100
0000
0000
0100
0010
0100
,
0000
0001
0100
0001
1000
0010
0100
0001
,
0100
0000
0020
0000
0030
1000
0010
0100
,
0000
0100
0010
0100
0010
1000
0001
0100
,
0010
0000
0100
0010
0000
0100
0000
0010
,
0000
0100
0001
1000
0001
0100
0001
0000
,
2002
0000
3003
0000
0000
0100
0010
0100
,
0000
0100
0010
1000
0010
0100
0010
0100
,
0010
0000
0100
0000
0000
0001
1000
0001
,
0000
0100
0010
0100
0010
1000
0010
0100
,
0010
1001
0100
0010
,
1001
0000
0100
0000
0010
0000
0100
0010
,
0200
0000
0300
0000
0000
1000
0100
0001
,
0000
0100
0001
0100
0010
0000
1000
0020
,
0000
0000
0030
0000
0000
0100
0010
0100
,
0000
0000
0010
0100
0000
0001
1000
0001
,
0000
0100
0000
0010
0000
1000
0010
0200
,
0300
0002
0003
2000
3000
0001
0100
0010
,
1000
0010
0100
0010
,
1001
0100
0010
0100
,
1010
0000
0100
0001
0100
0010
1000
0010
,
0200
0000
0300
0100
0000
0010
0100
0010
,
0000
1000
0010
0000
0100
0001
0100
0001
,
2000
3000
0002
0000
0003
0100
0010
0100
,
0000
0010
0100
0010
1000
0010
0100
0010
,
0000
0100
0000
0010
0000
0100
0010
1000
,
0000
0100
0010
0100
0000
0010
0100
0001
,
1000
0000
0200
0300
0000
0100
0010
0200
,
0300
0010
0100
0010
1000
0010
0100
0010
,
2000
0000
0000
0000
3000
0001
1000
0002
,
0003
0100
0010
1000
0010
0100
0010
0000
,
0200
0300
2002
3003
,
0100
0000
0010
0000
,
0100
0000
0000
0000
,
0010
0000
1000
0000
,
0001
0000
0000
0000
,
0100
0000
0000
0000
0000
0010
0000
0000
,
0000
0000
2002
0000
,
3003
0000
0000
0000
;

//--------------- dance-single - ----------------
#NOTEDATA:;
#STEPSTYPE:dance-single;
#DESCRIPTION:;
#DIFFICULTY:Hard;
#METER:8;
#RADARVALUES:0,0,0,0,0;
#NOTES:
0000
0000
0000
0000
,
0000
0000
0000
0000
,
0000
0000
0000
0000
,
0000
0000
0000
0000
,
0000
0000
0000
0000
,
0000
0000
0000
0000
,
0000
0000
0000
0000
,
0000
0000
0000
0000
,
1001
0110
1010
0101
,
1001
0000
0100
0010
0100
0010
1000
0010
,
0200
0300
0001
2000
3000
0200
0300
0010
,
0000
0100
0010
0100
0010
1000
0001
0100
,
2002
0000
0000
3003
0100
0010
0100
0010
,
0000
1000
0010
0100
0010
0100
0001
1000
,
0002
0000
0003
0000
0100
0000
0001
1000
0001
0000
0100
0000
0010
0000
0100
0000
,
0010
0000
0000
0000
0100
0000
0010
0000
1000
0000
0100
0000
0010
0000
0001
0100
,
0002
0000
0003
0000
0100
0000
0010
0100
0010
0000
0010
0000
1000
0000
0100
0000
,
1001
0000
0100
0010
0100
0010
0001
1000
,
0020
0030
0100
0010
0000
0200
0300
0010
,
0000
0000
0010
0000
1000
0000
0100
0000
0010
0000
0001
0000
0100
0000
0010
0100
,
0020
0030
0100
2000
3000
0100
0010
0001
,
2002
0000
3003
0000
0100
0000
0010
0000
0100
0000
0010
0000
1000
0000
0100
0010
,
0200
0000
0310
0010
0000
0001
1000
0002
,
0003
0100
0100
0010
1000
0100
0010
0001
,
1000
0000
2002
3003
0100
0010
0100
0001
,
2002
3003
0200
0300
0010
0100
0010
0100
,
0020
0030
1000
0100
0000
0010
0100
0020
,
0030
0001
1000
0001
2000
3000
0100
0010
,
0200
0300
0020
0030
0100
0010
1000
0200
,
0000
0300
0010
0200
0300
0010
0001
2000
,
3000
0200
0300
0020
0030
0100
0010
0200
,
0300
0000
0100
0000
0000
0000
0020
0000
0030
0000
0100
0000
1000
0000
0100
0010
,
0200
0300
0200
0300
0002
0003
2002
3003
,
0110
0000
1010
0000
0101
0000
0100
0010
0100
1000
0100
0010
1001
0010
0100
0010
,
0100
1000
0100
0100
0010
1000
0100
0010
,
2002
3003
0100
0010
0000
0100
0010
0002
,
0003
0000
0010
0000
0100
0000
0010
0000
0100
0000
0100
0000
0010
0000
1000
0010
,
2002
3003
0100
0020
0030
0100
0010
0100
,
0000
0100
1000
0100
0010
0001
1000
2002
,
3003
0100
0010
0200
0300
0100
0010
0200
,
0000
0300
1000
0000
0100
0000
0100
0000
0010
0000
0001
0000
1000
0000
0001
0000
,
2002
0000
0000
3003
0100
0000
0020
0000
0030
0000
0100
0000
0010
0000
0002
0000
,
0003
1000
0100
0010
0010
0001
1000
0100
,
0020
0000
0000
0030
0100
0000
0020
0000
0000
0030
0100
0000
0010
0000
0200
0000
,
0300
1000
0100
0010
0001
0100
0010
0000
,
0010
2000
0000
0000
0000
0000
0000
0000
3001
0000
0000
0000
0100
0000
0010
0000
,
0100
0000
1000
0100
0010
0000
0001
0100
,
0010
0000
0100
0000
0000
0100
1000
0100
,
0010
0001
2002
0000
3003
0100
0010
0100
,
0010
0000
0000
0000
0200
0000
0000
0000
0000
0300
0000
0100
0000
0010
0000
0100
,
0000
2000
0000
0000
3000
0000
0100
0000
0010
0000
0000
0200
0000
0000
0300
0000
,
0020
0030
2002
0000
,
0000
3003
0000
0000
;
