#TITLE:愛されルート A or B?;
#SUBTITLE:;
#ARTIST:アンジュルム;
#TITLETRANSLIT:Aisare Route A or B?;
#SUBTITLETRANSLIT:;
#ARTISTTRANSLIT:ANGERME;
#GENRE:J-Pop;
#CREDIT:;
#MUSIC:Aisare Route A or B.ogg;
#BANNER:Aisare Route A or B.png;
#BACKGROUND:Aisare Route A or B-bg.png;
#CDTITLE:Wrland.png;
#SAMPLESTART:33.719;
#SAMPLELENGTH:12.000;
#SELECTABLE:YES;
#OFFSET:-0.005;
#BPMS:0.000=105.000
,3.000=210.000
,45.000=105.000
,93.000=52.500
,96.000=210.000
,236.000=52.500
;
#STOPS:;
#JACKET:Aisare Route A or B-jacket.png;
#BGCHANGES:;
#FGCHANGES:;

//--------------- dance-single - ----------------
#NOTES:
     dance-single:
     :
     Beginner:
     1:
     0,0,0,0,0:
0000
0000
0000
0000
,
0000
0000
0000
0000
,
0000
0000
0000
0000
,
0000
0000
0000
0000
,
0000
0000
0000
0000
,
0000
0000
0000
0000
,
0000
0000
0000
1000
,
0000
0000
0000
0000
,
0000
0000
0000
0000
,
0000
0000
0000
1000
,
0000
0000
0000
0000
,
0000
0000
0000
0000
,
0001
0000
0000
0000
,
0000
0000
0001
0000
,
0000
0000
0000
0000
,
0100
0000
0000
0000
,
0000
0000
0001
0000
,
0000
0000
0000
0000
,
0010
0000
0000
0000
,
0000
0000
1000
0000
,
0000
0000
0000
0000
,
0010
0000
0000
0000
,
0000
0000
0100
0000
,
0000
0000
0000
0000
,
0001
0000
0000
0000
,
0000
0000
0000
0000
,
0000
0000
0000
0000
,
1000
0000
0000
0000
,
0000
0000
0000
0000
,
0000
0000
0000
0000
,
0001
0000
0000
0000
,
0000
0000
0000
0000
,
0000
0000
0000
0000
,
1000
0000
0000
0000
,
0000
0000
0000
0000
,
0000
0000
0000
0000
,
0100
0000
0000
0000
,
0000
0000
0000
0000
,
0000
0000
0000
0000
,
1000
0000
0000
0000
,
0000
0000
0000
0000
,
0000
0000
0000
0000
,
0010
0000
0000
0000
,
0000
0000
0000
0000
,
0000
0000
0000
0000
,
0100
0000
0000
0000
,
0000
0000
1000
0000
,
0000
0000
0000
0000
,
0000
0000
0000
0000
,
0000
0000
0001
0000
,
0000
0000
0000
0000
,
0000
0000
0000
0000
,
0000
0000
0100
0000
,
0000
0000
0000
0000
,
0000
0000
0000
0000
,
0000
0000
0010
0000
,
0000
0000
0000
0000
,
0000
0000
0000
0000
,
0000
0000
0000
0000
,
2002
0000
0000
0000
,
3003
0000
0000
0000
;

//--------------- dance-single - ----------------
#NOTES:
     dance-single:
     :
     Easy:
     4:
     0,0,0,0,0:
0000
0000
0000
0000
,
0000
0000
0000
0000
,
0000
0000
0000
0000
,
0000
0000
0000
0000
,
0000
0000
0000
0000
,
0000
0000
0000
0000
,
0000
0000
0000
1000
,
0000
0000
0000
0000
,
0000
1000
0000
0000
,
0000
0000
0000
0001
,
0000
0000
0000
0000
,
0000
0001
0000
0000
,
0100
0000
0000
0100
,
0000
0000
0010
0000
,
0000
0010
0000
0000
,
0100
0000
0000
1000
,
0000
0000
0001
0000
,
0000
0000
0100
0000
0000
0000
0000
0010
,
0000
0000
0000
0000
0000
0100
0000
0000
,
0000
0000
0010
0000
,
0000
0100
0000
0000
,
0001
0000
0000
1000
,
0000
0000
0000
0100
0000
0000
0000
0000
,
0000
0010
0000
0000
,
1000
0000
0000
0000
,
0000
0000
1000
0000
,
0000
0000
0000
0000
,
0001
0000
0000
0000
,
0000
0000
0001
0000
,
0000
0000
0000
0000
,
0100
0000
0000
0000
,
0000
0000
0100
0000
,
0000
0000
0000
0000
,
0010
0000
0000
0000
,
0000
0010
0000
0000
,
0000
0000
0000
0000
,
0100
0000
0000
0000
,
0000
0000
0001
0000
,
0000
0000
0000
0000
,
0100
0000
0000
0000
,
0000
0000
0001
0000
,
0000
0000
0000
0000
,
0010
0000
0000
0000
,
0000
0000
1000
0000
,
0000
0000
0000
0000
,
0010
0000
0000
0000
,
0000
0000
1001
0000
,
0000
0000
0000
0000
,
0100
0000
0000
0000
,
0000
0000
0010
0000
,
0000
0000
0000
0100
,
0000
0000
0000
0000
,
0000
0000
0010
0000
,
0000
0000
0000
0000
,
0100
0000
0000
0000
,
0000
0000
0010
0000
,
0000
0000
0000
0000
,
0100
0000
0000
0000
,
0000
0000
0000
0000
0000
0000
0000
2002
,
0000
0000
0000
0000
,
3003
0000
0000
0000
;

//--------------- dance-single - ----------------
#NOTES:
     dance-single:
     :
     Medium:
     6:
     0,0,0,0,0:
0000
0000
0000
0000
,
0000
0000
0000
0000
,
0000
0000
0000
0000
,
0000
0000
0000
0000
,
0000
0000
0000
0000
,
0000
0000
0000
0000
,
0000
0000
0000
1000
,
0000
0000
0001
0000
,
0000
1000
0000
0000
,
1000
0001
1000
0001
,
0000
0000
0001
0000
,
0000
0100
0010
0100
,
0010
0000
0000
0100
,
0000
0000
0000
0000
0001
1000
0001
0100
,
0010
0100
0010
0000
0100
0010
0001
0100
,
0020
0000
0030
0000
0000
0010
0200
0000
,
0000
0000
0300
0000
0100
0010
0100
0010
,
0001
1000
0100
0000
0100
0010
0000
0100
,
0010
0001
0100
0010
0000
0100
0010
1000
,
0100
0010
0000
0100
0020
0030
0100
0020
,
0030
0001
1000
0001
1000
0002
0003
0100
,
0020
0030
0100
0020
0030
0100
0001
0100
,
0001
0200
0300
0010
1000
0100
0010
0100
,
0010
0000
0100
0000
0020
0000
0030
2002
0000
3003
2002
0000
3003
2002
0000
3003
,
0100
0010
0100
0010
,
0100
0000
0010
0100
,
0010
0100
0010
0000
,
0001
1000
0001
1000
,
0001
0100
0010
0100
,
0010
0020
0000
0030
,
0100
1000
0010
0100
,
0010
0000
0100
0010
,
0001
0100
0010
0000
,
1000
0100
0010
0100
,
0010
0001
0100
1000
,
0100
0020
0000
0030
,
0100
0010
0100
0010
,
0001
0100
0010
1000
,
0100
0020
0030
0100
,
0010
0100
0010
0001
,
0100
0010
0100
0010
,
1000
0200
0000
0300
,
1001
1001
1001
0110
,
0110
0110
1010
1100
,
0101
2020
3030
0100
,
0010
0100
0010
0001
,
1000
0100
1001
0000
,
0000
0100
0000
0000
,
0010
0000
0000
0100
,
0010
1000
0100
0000
,
0000
0100
0000
0000
,
0100
0010
0100
0010
,
0001
1000
0100
0000
,
0000
0100
0000
0000
,
0010
0000
0000
0100
,
0010
0001
1000
0000
,
0000
0100
0000
0000
,
0010
0100
0010
0001
,
0100
0000
0010
0000
0100
0010
0000
2002
,
0000
0000
0000
0000
,
3003
0000
0000
0000
;

//--------------- dance-single - ----------------
#NOTES:
     dance-single:
     :
     Hard:
     11:
     0,0,0,0,0:
0000
0000
0000
0000
0000
0000
0100
0010
,
0000
0100
0010
0001
0100
0001
0000
1000
,
0100
0010
0100
0010
0000
0010
0100
0001
,
1000
0001
0100
0010
0100
0010
0001
0100
,
0000
0010
0001
0100
0010
0001
0000
1000
,
0100
0010
0100
0000
0010
0000
0100
0000
,
0010
0100
0010
0001
1000
0010
0100
0010
,
0000
0100
0010
1000
0010
0001
0000
0100
,
0010
0100
0010
0100
0000
0010
0100
1000
,
0100
0000
0001
0100
1000
0001
0100
0010
,
0000
0100
0010
0100
0010
0001
0000
0100
,
0010
1000
0101
0000
1001
0100
1000
0010
,
2002
0000
0000
0000
0000
0000
0000
0000
3003
0000
0100
0010
0200
0000
0000
0000
,
0000
0000
0000
0000
0300
0000
0000
0000
0100
0010
0100
0001
1000
0010
0100
1000
,
0100
0010
0100
0000
2002
0000
3003
0000
0100
0000
0010
0000
0100
0000
0010
0000
,
0002
0000
0000
0000
0000
0000
0003
0000
1000
0000
0100
0010
0200
0000
0000
0000
,
0000
0000
0000
0000
0300
0000
0000
0000
0100
0000
0010
0100
0001
0010
0100
0010
,
1000
0000
0010
0000
0200
0000
0300
0000
0010
0000
0200
0000
0300
0000
1000
0100
,
0020
0000
0030
0000
0010
0000
0200
0000
0300
0000
0010
0001
0100
0000
0010
0000
,
0001
2000
3000
0100
0020
0030
0010
0200
,
0300
0000
0000
0000
0100
0000
0010
0001
1100
0000
0000
0000
1100
0000
0000
0000
0011
0000
0000
0000
2002
0000
0000
0000
3003
0000
0000
0000
0100
0000
0000
0000
,
0020
0000
0030
0000
1000
0001
0100
0000
0000
0000
0100
0000
0010
0000
0100
0000
,
1000
0100
0000
0100
0010
0100
0001
1000
,
0100
0000
0000
0000
0010
0000
0000
0000
2002
0000
0000
0000
3003
0000
0220
0000
0000
0000
0330
0000
0220
0000
0000
0000
0330
0000
1001
0000
0100
0010
0100
1000
,
0010
0000
0100
0010
0100
0010
0100
0000
,
2002
0000
0000
3003
0100
0000
0010
0100
,
0010
1000
0010
0000
0220
0000
0330
0000
,
0010
0000
0100
0010
0001
0100
1000
0000
,
0110
0100
0010
1000
,
0100
0000
0020
0000
0000
0000
0000
0030
,
0100
0000
0010
1000
0010
0100
0010
0000
,
2002
0000
0000
3003
0100
0000
1000
0100
,
0010
0100
0010
0000
2002
0000
0000
3003
,
0100
0000
0001
0100
0010
1000
0100
0000
,
0110
0100
0010
0100
,
0010
2002
0000
3003
,
1000
0001
1000
0001
,
1000
0001
0100
0010
,
0100
0000
0020
0000
0000
0030
1000
0010
,
0100
0010
0001
0010
,
0100
1000
0100
0010
,
0001
0200
0000
0300
,
1001
0100
0010
0100
,
0010
0100
0001
0100
,
1000
0000
0200
0000
0300
0000
0010
0100
,
0010
1000
0100
0001
1000
0010
0100
0010
,
0001
1000
0100
0001
0110
1000
0000
0010
,
0001
0100
0010
1000
0000
0100
0001
0010
,
0100
0010
0000
0001
1000
0010
0100
0001
,
1000
0100
0010
0100
0001
0010
0000
0010
,
0001
0100
1000
0100
0000
0100
0010
0100
,
0010
0000
0100
0001
0010
0000
1000
0000
,
0010
0000
0001
0000
0101
1000
0000
0100
,
0010
0100
0010
0100
0000
0100
0010
1000
,
0001
1000
0000
0100
0010
0100
1000
0000
,
0100
0001
0010
0100
0010
0100
0000
1000
,
0100
1000
0100
1000
0000
0100
0010
0001
,
0101
0000
0000
1000
0100
0001
0010
0100
,
0010
0100
0010
0001
0100
0010
0000
2002
,
0000
0000
0000
0000
,
3003
0000
0000
0000
;
