#VERSION:0.83;
#TITLE:25時ノ悪戯;
#SUBTITLE:;
#ARTIST:足立美幸;
#TITLETRANSLIT:25ji no itazura;
#SUBTITLETRANSLIT:;
#ARTISTTRANSLIT:Miyuki Adachi;
#GENRE:Bemani;
#CREDIT:;
#MUSIC:25ji no itazura.ogg;
#BANNER:25ji no itazura.png;
#BACKGROUND:25ji no itazura-bg.png;
#JACKET:25ji no itazura-jacket.png;
#CDTITLE:Wrland;
#SAMPLESTART:19.876;
#SAMPLELENGTH:12.000;
#SELECTABLE:YES;
#OFFSET:-0.192;
#BPMS:0.000=113.480
,30.000=94.480
,31.000=56.480
,34.000=113.480
,56.000=117.480
,58.000=114.480
,62.000=112.480
,68.000=117.480
,70.000=116.480
,71.000=113.480
,84.000=117.480
,86.000=112.480
,96.000=114.480
,100.000=113.480
,106.000=114.480
,120.000=111.480
,126.000=114.480
,134.000=112.480
,144.000=115.480
,148.000=113.480
,165.000=104.480
,166.000=57.480
,167.000=52.480
,170.000=62.480
;
#STOPS:;
#DISPLAYBPM:55.000:114.000;
#BGCHANGES:;
#FGCHANGES:;

//--------------- dance-single - ----------------
#NOTEDATA:;
#STEPSTYPE:dance-single;
#DESCRIPTION:;
#DIFFICULTY:Easy;
#METER:2;
#RADARVALUES:0,0,0,0,0;
#NOTES:
0000
0000
0000
0000
,
0000
0000
0000
0000
,
0000
0000
0000
0000
,
0000
0000
0000
0000
,
0000
0000
0000
0000
,
0000
0000
0000
0000
,
0000
0000
0000
0000
,
0000
0000
0000
0000
,
0000
0000
0100
0000
,
0000
0000
0000
0000
,
0100
0000
0000
0000
,
0000
0000
0010
0000
,
0000
0000
0000
0000
,
0010
0000
0000
0000
,
0000
0000
0001
0000
,
0000
0000
0000
0000
,
1000
0000
0000
0000
,
0000
0000
0100
0000
,
0000
0000
0000
0000
,
0010
0000
0000
0000
,
0000
0000
0100
0000
,
0000
0000
0000
0000
,
0020
0000
0000
0030
,
0000
0000
0001
0000
,
0000
0000
0000
0000
,
1000
0000
0000
0000
,
0000
0000
1000
0000
,
0000
0000
0000
0000
,
0100
0000
0000
0000
,
0000
0000
0010
0000
,
0000
0000
0000
0000
,
0001
0000
0000
0000
,
0000
0000
1000
0000
,
0000
0000
0000
0000
,
1000
0000
0000
0000
,
0000
0000
0100
0000
,
0000
0000
0000
0000
,
0010
0000
0000
0000
,
0000
0000
0100
0000
,
0000
0000
0000
0000
,
0010
0000
0000
0000
,
0000
0000
0001
0000
,
0000
1000
0000
2002
,
0000
3003
0000
0000
;

//--------------- dance-single - ----------------
#NOTEDATA:;
#STEPSTYPE:dance-single;
#DESCRIPTION:;
#DIFFICULTY:Medium;
#METER:3;
#RADARVALUES:0,0,0,0,0;
#NOTES:
0000
0000
0000
0000
,
0000
0000
0000
0000
,
0000
0000
0000
0000
,
0000
0000
0000
0000
,
0000
0000
0000
0000
,
0000
0000
0000
0000
,
0000
0000
0000
0000
,
0000
0000
0000
0000
,
0000
0000
0000
0100
,
0100
0000
0010
0010
,
0000
1000
1000
0000
,
0100
0100
0000
0010
,
0010
0000
0001
0001
,
0000
0010
0010
0000
,
0100
0100
0000
1000
,
1000
0000
0100
0100
,
0000
0010
0010
0000
,
0100
0100
0000
0010
,
0010
0000
0001
0001
,
0000
1000
1000
0000
,
0100
0100
0000
0010
,
0010
0000
0001
0001
,
2000
0000
3000
0001
,
0000
0000
0100
0000
,
0000
0000
0000
0000
,
0010
0000
0000
0000
,
0000
0000
0001
0000
,
0000
0000
0000
0000
,
1000
0000
0000
0000
,
0000
0000
0100
0000
,
0000
0000
0000
0000
,
0010
0000
0000
0000
,
0000
0000
0100
0000
,
0000
0000
0000
0000
,
0010
0000
0000
0000
,
0000
0000
0000
0100
,
0100
0000
0010
0010
,
0000
0001
0001
0000
,
1000
1000
0000
0100
,
0100
0000
0010
0010
,
0000
0100
0100
0000
,
0010
0010
0002
0000
,
0003
2000
0000
3001
;

//--------------- dance-single - ----------------
#NOTEDATA:;
#STEPSTYPE:dance-single;
#DESCRIPTION:;
#DIFFICULTY:Hard;
#METER:5;
#RADARVALUES:0,0,0,0,0;
#NOTES:
0000
0000
0000
0000
,
0000
0000
0000
0000
,
0000
0000
0000
0000
,
0000
0000
0000
0000
,
0000
0000
0000
0000
,
0000
0000
0000
0000
,
0000
0000
0000
0000
,
0000
0000
0000
0000
,
0000
0000
0000
0000
,
0000
0000
0000
0000
,
0000
0000
0000
0000
,
0000
0000
0000
0100
0020
0030
0100
0000
,
0010
0001
0200
0300
2000
3000
0000
0100
,
0020
0030
0000
0000
0001
1000
0002
0003
,
0200
0300
0020
0030
0200
0300
0000
0000
,
1000
0100
2000
3000
0200
0300
0000
0010
,
0200
0300
0000
0000
1000
0100
0020
0030
,
0002
0003
0000
0001
0020
0030
0200
0300
,
1000
0100
0020
0030
0200
0300
0000
1000
,
0200
0300
0001
0000
0100
0001
0200
0300
,
0020
0030
2000
3000
0020
0000
0030
0000
,
0200
0300
0020
0030
0002
0003
0200
0300
,
2000
3000
0001
0002
,
0003
1000
0200
0300
,
0020
0030
0200
0300
0000
0000
0200
0300
,
0020
0000
0030
0000
0002
0003
0020
0000
,
0030
0000
0200
0300
0020
0000
0030
0000
,
0200
0300
2000
3000
0200
0300
0020
0030
,
0002
0000
0003
0000
0020
0030
0200
0000
,
0300
0000
0010
0000
0200
0300
0000
0000
,
0020
0030
0002
0003
0000
0000
0010
0100
,
2000
3000
0000
0000
0100
0000
0020
0030
,
0000
0000
0001
0100
0020
0030
0000
0000
,
0001
0100
0020
0030
0000
0000
0100
1000
,
0200
0300
0000
0220
,
0330
0000
0000
0010
0002
0000
0003
0000
,
0001
0010
0200
0300
2000
0000
3000
0100
,
2000
0000
3000
0001
0100
0001
0020
0030
,
0200
0300
0020
0030
0200
0000
0300
0000
,
1000
0001
0100
0010
0010
0001
0100
0010
,
0200
0300
0000
2000
,
3000
0000
0000
0000
0000
0000
0000
0000
0002
0000
0003
0000
2000
3000
0002
0003
,
2000
3000
0000
0001
2000
0000
0000
0000
3000
0000
0000
0000
0220
0000
0000
0000
,
0000
0330
0000
0000
;
