#TITLE:!!!YABASUGI!!!;
#SUBTITLE:;
#ARTIST:P*Light;
#TITLETRANSLIT:;
#SUBTITLETRANSLIT:;
#ARTISTTRANSLIT:;
#GENRE:Hardcore;
#CREDIT:;
#MUSIC:!!!YABASUGI!!!.ogg;
#BANNER:!!!YABASUGI!!!.png;
#BACKGROUND:!!!YABASUGI!!!-bg.png;
#CDTITLE:Wrland.png;
#SAMPLESTART:22.588;
#SAMPLELENGTH:12.000;
#SELECTABLE:YES;
#OFFSET:0.003;
#BPMS:0.000=169.982
,32.000=84.991
,48.000=169.982
,108.000=84.991
,110.000=169.982
,141.000=339.963
,142.000=169.982
,173.000=339.963
,174.000=84.991
,202.000=42.495
,204.000=169.982
,235.000=339.963
,236.000=169.982
;
#STOPS:141.000=0.176
,173.000=0.176
,235.000=0.176
;
#DISPLAYBPM:82.000:169.000;
#JACKET:!!!YABASUGI!!!-jacket.png;
#BGCHANGES:;
#FGCHANGES:;

//--------------- dance-single - ----------------
#NOTES:
     dance-single:
     :
     Beginner:
     2:
     0,0,0,0,0:
0000
0000
0000
0000
,
0000
0000
0000
0000
,
0000
0000
0000
0000
,
0000
0000
0000
0000
,
0000
0000
0000
0000
,
0000
0000
0000
0000
,
0000
0000
0000
0000
,
0000
0000
0000
0000
,
1000
0000
0100
0000
,
0010
0000
0100
0000
,
0001
0000
1000
0000
,
0100
0000
0010
0000
,
1000
0000
1000
0000
,
0001
0000
0100
0000
,
0010
0000
0100
0000
,
0010
0000
0100
0000
,
0001
0000
1000
0000
,
0100
0000
0010
0000
,
0100
0000
0010
0000
,
0001
0000
1000
0000
,
1001
0000
0100
0000
,
0010
0000
0100
0000
,
1100
0000
0100
0000
,
0010
0000
0001
0000
,
1000
0000
0001
0000
,
1000
0000
0001
0000
,
0100
0000
0110
0000
,
1001
0000
1001
0000
,
0000
0000
0110
0000
,
0000
0000
1001
0000
,
0000
0000
1100
0000
,
0000
0000
0011
0000
,
0000
0000
1001
0000
,
0000
0000
1100
0000
,
0000
0000
0110
0000
,
0000
0000
1001
0000
,
0000
0000
1100
0000
,
0000
0000
0110
0000
,
0000
0000
0101
0000
,
0000
0000
1100
0000
,
0000
0000
0110
0000
,
0000
0000
0101
0000
,
0000
0000
1001
0000
,
0000
0000
1000
0100
,
0010
0100
0010
0001
,
1000
0100
0010
0100
,
0001
1000
0100
0010
,
0100
0010
0001
1000
,
0100
0010
0100
0010
,
0100
0010
0001
1000
,
1000
0100
0010
0000
,
0110
0000
0000
0000
,
1000
0000
0000
0000
,
0011
0000
0000
0000
,
0100
0000
0000
0000
,
0010
0000
0000
0000
,
1000
0000
0000
0000
,
1100
0000
0000
0000
,
0001
0000
0000
0000
,
1001
0000
0000
0000
,
0100
0000
0000
0000
,
0110
0000
0000
0000
,
0001
0000
0000
0000
,
1001
0000
0000
0000
,
0100
0000
0000
0000
,
1010
0000
0000
0000
,
0110
0000
0000
0000
,
1001
0000
0000
0000
;

//--------------- dance-single - ----------------
#NOTES:
     dance-single:
     :
     Easy:
     4:
     0,0,0,0,0:
0000
0000
0000
0000
,
0000
0000
0000
0000
,
0000
0000
0000
0000
,
0000
0000
0000
0000
,
0000
0000
0000
0000
,
0000
0000
0000
0000
,
0000
0000
0000
0000
,
0000
0000
0000
0000
,
1000
1000
0010
0010
,
0100
0100
0001
0001
,
1000
0100
0010
0001
,
0010
0100
1000
1001
,
1000
1000
0100
0000
,
0010
0100
0010
0000
,
0001
1000
0001
0000
,
0100
0010
0100
0000
,
0010
0000
1000
0000
,
0100
0010
0100
0000
,
0010
1000
0100
0000
,
0001
0100
0010
0000
,
1000
0000
0001
0000
,
1000
0100
0010
0000
,
0100
0010
0100
0000
,
0001
1000
0001
0000
,
0100
0000
0010
0000
,
0100
0010
0100
0000
,
1000
0001
1000
0001
,
1001
0000
0100
0010
,
0100
0010
1000
0100
,
0010
0100
0110
0001
,
1000
0001
0100
0010
,
0100
0010
0010
0100
,
1000
0100
0010
0100
,
0010
0001
1000
0001
,
1000
0001
1000
0001
,
1000
0001
1000
0000
1000
0000
0100
0000
,
0010
0100
0010
0100
,
0010
0100
0110
0001
,
1000
0001
0100
0010
,
0100
0010
0110
0100
,
1000
0100
0010
1000
,
0100
0010
0100
0010
,
0001
1000
0100
0010
,
0100
0010
0100
0000
0100
0001
0100
0000
,
1000
0100
0010
0000
0100
0010
1000
0000
,
0100
0010
0100
0000
0001
1000
0001
0000
,
0100
0010
0100
0000
0010
0100
0010
0000
,
1000
0100
0100
0000
0010
0100
0010
0000
,
0001
1000
0001
0000
0100
0010
0100
0000
,
0010
0001
0100
0000
1000
0100
0010
0000
,
0100
0010
0100
0000
0220
0000
0000
0330
,
1000
1000
0100
0010
,
0001
0100
0010
0100
,
0110
0001
1000
0100
,
0010
0000
0100
0000
0010
0100
0010
0001
,
0100
1000
0100
0010
,
0001
0100
0010
1000
,
0001
0100
0001
1000
,
0010
0000
0100
0000
0010
0100
0010
0000
,
0100
0010
0100
0010
,
1000
0010
0100
0001
,
1001
0100
0010
0100
,
0010
0000
1000
0000
0010
0100
0010
0100
,
0010
1000
0010
0100
,
0001
0100
0010
1000
,
1001
0100
0010
0110
,
1001
0000
0100
0010
,
0110
0000
0000
0000
;

//--------------- dance-single - ----------------
#NOTES:
     dance-single:
     :
     Medium:
     7:
     0,0,0,0,0:
0000
0000
0000
0000
,
0000
0000
0000
0000
,
0000
0000
0000
0000
,
0000
0000
0000
0000
,
0000
0000
0000
0000
,
0000
0000
0000
0000
,
0000
0000
0000
0000
,
0000
0000
0000
0000
,
1000
0001
0100
0100
0010
0100
0010
0100
,
1000
0100
0010
0001
0100
0010
0100
1000
,
0100
0010
0100
0010
0001
1000
0001
0100
,
0010
0100
0010
0100
0110
1000
0001
0100
,
0010
0100
0010
0100
,
1000
0100
0010
0100
,
0010
0001
1000
0001
,
0100
0010
0100
0010
,
0100
0010
0001
1000
,
0001
0100
0010
0100
,
0010
0100
0100
1000
,
0100
0010
0001
0100
,
0010
0110
0010
0110
,
0001
0011
1000
1100
,
0010
0110
1000
0011
,
1000
1100
0100
1010
,
0001
0101
0010
1100
,
0010
1100
0100
1010
,
0100
0010
0101
0010
0100
0010
1001
0100
,
2002
0000
0000
0000
0000
3003
0110
0000
1000
0000
0001
0000
0010
0000
1000
0000
,
0100
0001
0010
1000
0000
0100
0010
0001
,
1000
0001
0010
1000
0101
0010
0100
0001
,
1000
0001
0100
1000
0010
0100
0001
0100
,
0010
0001
0100
0001
1010
0001
0100
1000
,
0010
0100
0001
0010
0100
1000
0010
0001
,
0100
0100
0010
0001
0100
0010
0010
0100
,
1000
0001
0100
1000
0010
0001
0100
1000
,
0010
0001
0110
0000
1000
0001
0100
1000
,
0010
0100
0001
0010
0000
1000
0010
0001
,
0100
1000
0010
0100
1000
0001
0100
1000
,
0010
0100
0001
0010
0100
1000
0010
0001
,
0100
1000
0010
0001
0110
0010
1000
0010
,
0100
1000
0010
0001
0100
1000
0010
0001
,
0100
0010
1000
0010
0100
1000
0010
0001
,
0100
1000
0010
0001
1000
0100
0010
0001
,
0100
0000
0110
0000
0100
0010
1000
0001
,
0100
1000
0010
0100
1001
0010
0100
1000
,
0010
0001
0100
1000
0110
0100
0001
0010
,
1000
0001
0100
0010
1100
1000
0010
0001
,
0100
1000
0001
0010
0101
0100
1010
0100
,
1100
0010
0110
1000
0011
0001
1100
0010
,
0110
0100
1010
1000
0101
0010
0110
0010
,
1001
0100
0110
0010
0220
0000
0000
0330
,
0010
0001
0100
1000
0100
0010
0100
0010
,
0100
0010
0100
0010
0001
0000
0100
0000
,
1000
0100
0010
0100
0010
0001
0100
0010
,
0100
0010
0100
0010
0100
0000
0100
0000
,
0010
1000
0100
0010
0001
0100
0010
0100
,
1000
0100
0010
0100
0010
0000
0110
0000
,
0010
0100
1000
0100
0010
0001
1000
0100
,
0010
0100
0010
0001
0110
0000
0110
0000
,
0010
0100
0010
1000
0100
0010
0100
0010
,
0100
0010
0001
0100
0010
0100
1000
0000
,
0010
0100
0010
0001
0010
0100
0010
1000
,
0100
0010
0100
0010
0110
0000
1001
0000
,
0100
0010
0100
0010
0100
0010
0100
1000
,
0100
0010
0001
0100
0010
1000
0100
0000
,
0100
1000
0100
0010
0001
0100
0010
0100
,
0010
0110
0110
1001
,
0110
0000
0000
0000
;

//--------------- dance-single - ----------------
#NOTES:
     dance-single:
     :
     Hard:
     9:
     0,0,0,0,0:
0000
0000
0000
0000
,
0000
0000
0000
0000
,
0000
0000
0000
0000
,
0000
0000
0000
0000
,
1000
0000
0100
0000
0010
0100
0000
0010
,
0100
1000
0100
0010
,
0100
0000
0010
0000
0100
0010
0000
0001
,
1000
0000
0100
0010
0000
0100
0010
0000
,
0010
1100
0010
0011
0100
1010
0100
0110
,
0001
1010
0001
1010
0100
0011
1000
0101
,
0010
0101
0010
1100
0010
0110
0100
1010
,
0010
0000
0000
0000
1100
0000
0000
0000
0010
0000
0000
0000
0101
0000
0000
0000
0110
0000
0000
0010
0000
0000
1000
0000
0200
0000
0000
0000
0300
0000
0000
0000
,
0100
0010
0100
0001
0010
1000
0010
0010
,
0100
0100
0010
1000
0100
0010
0100
0010
,
0100
0001
1000
0100
0010
0100
0010
0100
,
0010
0100
0001
1000
0100
0010
0100
0010
,
0100
0100
0001
1000
0100
0010
1100
0100
,
0010
0001
0100
0010
1000
0100
0010
0100
,
0010
0010
0001
1000
0100
0010
0100
0010
,
0100
0010
1000
0100
0010
0100
0010
0001
,
0100
0010
0110
1000
0010
0100
0010
1000
,
0100
0010
0001
0100
0010
0100
0010
1000
,
0100
0010
0100
0100
0001
1000
0100
0010
,
0100
0010
0001
0100
0010
1000
0100
0010
,
0100
0010
1000
0100
0010
0100
0010
0100
,
0010
0001
1000
0100
0010
0100
0010
0100
,
0010
0100
1000
0100
0010
0001
0100
0010
0100
1000
0100
0010
0100
0010
0001
0100
,
0220
0000
0000
0000
0000
0000
0330
0000
0010
0000
0100
0001
1000
0000
0100
0000
,
0010
0000
0010
1000
0100
0000
0020
0000
0000
0030
0100
0000
0010
0000
1000
0100
,
0001
0100
0010
0100
0110
1000
0100
0010
,
0100
0001
1000
0100
0010
1000
0100
0010
,
0100
0001
1000
0010
0100
1000
0010
0000
0001
0000
0100
0000
0010
0000
1000
0000
,
0100
0010
0100
0001
0100
1000
0100
0010
,
0100
0000
0010
0000
0100
0000
0010
0000
0001
0010
1000
0001
0100
1000
0010
1000
,
0100
1000
0010
1000
0100
0001
0010
0010
0100
1000
0001
0010
0100
1000
0100
0001
,
0110
1000
0001
0010
0220
0330
0000
0000
0100
0000
0001
0010
0001
0000
0100
0000
,
1000
0000
0010
1000
0001
0000
0200
0000
0000
0300
0010
0000
0010
0000
1000
0100
,
0010
0000
0001
0000
1000
0000
0001
0000
1001
0000
0010
0001
0100
0001
0010
1000
,
0100
0010
0010
1000
0100
0001
1000
0100
,
0010
0100
1000
0001
0010
0100
0010
0000
1000
0000
0010
0000
0100
0000
0001
0000
,
1000
0100
0010
1000
0001
1000
0100
0010
,
0100
0000
0010
0000
0100
0000
0010
0000
0001
0010
1000
0001
0100
1000
0010
1000
,
0100
1000
0010
1000
0100
0001
0010
0010
0100
1000
0001
0010
0100
1000
0100
0001
,
0110
1000
0001
0010
0220
0330
0000
0000
0110
0000
1000
0000
0100
0000
0010
0000
,
0100
1000
0010
0001
0100
1000
0010
0000
0110
0000
1000
0000
0100
0000
0010
0000
,
0100
0010
0100
0010
1000
0001
1000
0000
0100
0000
0010
0000
0100
0000
0001
0000
,
0100
0010
0100
1000
0100
0010
0100
0000
0110
0000
0001
0000
1000
0000
0100
0000
,
0010
0100
0010
1000
0100
0010
0100
0000
0100
0000
1010
0000
0100
0000
0110
0000
,
1000
0101
1000
1100
0100
0011
0100
0110
,
0001
1100
0001
0110
1000
0110
0100
1001
,
0010
0000
0011
0000
0001
0000
1100
0000
0220
0000
0000
0000
0000
0330
0010
0100
,
0100
0010
1000
0100
0010
0100
0010
0001
,
1000
0100
0010
0100
0110
0000
0100
0000
,
1000
0100
0010
0100
0010
1000
0100
0001
,
0100
0010
0100
0010
0100
0000
0010
0000
,
1000
0100
0010
0100
0010
0110
0001
1000
,
0100
0100
0010
0001
0110
0000
1001
0000
,
0100
1000
0100
0010
0001
1000
0100
0010
,
0100
0000
0010
0000
0100
0000
0010
0000
1100
0100
0010
1000
0011
0000
0000
0000
,
1000
0100
0010
0001
1000
0100
0010
0100
,
0010
0000
0100
0000
0010
0000
0001
0000
0100
0000
1000
0001
0100
0000
0010
0000
,
0100
0010
0110
0100
1000
0100
0010
0100
,
1000
0000
0001
0000
0010
0000
0100
0000
0010
0001
0100
0010
0100
0010
1000
0000
,
0100
0010
0100
0010
0100
0010
0001
1000
,
0100
0000
0010
0000
0100
0000
0010
0000
1000
0000
0100
0001
0010
0000
0100
0000
,
0010
0000
0001
0000
1000
0000
0100
0000
0010
1000
0100
0001
0010
1000
0100
0001
,
0110
1001
0110
1001
,
0220
0000
0000
0000
,
0330
0000
0000
0000
;

//--------------- dance-single - ----------------
#NOTES:
     dance-single:
     :
     Challenge:
     14:
     0,0,0,0,0:
0000
0000
0000
0000
,
0000
0000
0000
0000
,
0000
0000
0000
0000
,
0000
0000
0000
0000
,
2000
0000
0000
3000
0200
0000
0000
0300
0010
0000
0100
0000
0000
0000
0010
0000
,
0200
0000
0000
0300
0001
0000
2000
0000
3000
0000
0100
0000
0010
0000
0100
0000
,
0020
0000
0000
0030
2000
0000
0000
3000
0100
0000
0020
0000
0000
0030
0100
0000
,
0020
0000
0000
0030
0001
0000
2000
0000
0000
3000
0001
0000
1000
0000
0100
0000
,
0010
0100
0010
0001
1000
0100
0020
0030
0001
1000
0100
0010
0100
0010
0002
0003
,
1000
0100
0010
0001
1000
0100
0020
0030
0100
0010
0100
1000
0100
0010
0002
0003
,
1000
0100
0010
0100
0010
0100
0002
0003
1000
0100
0010
0100
0010
0001
0020
0030
,
0100
0000
0010
0000
0100
0000
0010
0000
1000
0000
0100
0000
0020
0000
0030
0000
1000
0000
0000
0001
0000
0000
0100
0000
0010
0001
1000
0010
0100
0000
0010
0000
,
2002
0000
3003
0000
0200
0000
0000
0300
0010
0000
1000
0000
0200
0000
0000
0300
,
0020
0000
0000
0030
0200
0000
0000
0300
0010
0000
0100
0000
0020
0000
0000
0030
,
0002
0000
0000
0003
2000
0000
0000
3000
0001
0000
0100
0000
0020
0000
0000
0030
,
0200
0000
0000
0300
0020
0000
0000
0030
1000
0000
0100
0000
0020
0000
0000
0030
,
0200
0000
0000
0300
0020
0000
0000
0030
0001
0000
1000
0000
0200
0000
0000
0300
,
0020
0000
0000
0030
0200
0000
0000
0300
0010
0000
0100
0000
0020
0000
0000
0030
,
0002
0000
0000
0003
2000
0000
3000
0000
0100
0000
0010
0000
0200
0000
0000
0300
,
0020
0000
0000
0030
2000
0000
0000
3000
0100
0000
0010
0000
0200
0000
0300
0000
,
0100
0110
1000
1100
,
1000
1001
0100
0110
,
0001
1001
0100
0110
,
0001
0011
1000
1100
,
0010
0100
1010
0100
0010
0100
0011
0001
,
1000
0100
0011
0100
0010
0001
1010
0001
,
0100
0010
0100
1000
0110
0001
0010
0100
0010
1000
0100
0010
1001
0100
0010
0100
,
2002
0000
0000
0000
0000
3003
0110
0000
0100
0010
0100
1000
0010
0001
0100
0010
,
1000
0100
0010
0001
1000
0010
0100
0000
1000
0010
0001
0010
0100
0001
0010
1000
,
0100
0010
1000
0100
0010
0100
0010
0001
1101
0000
0000
0010
0001
0010
1000
0100
,
0010
0100
0001
0010
1000
0100
0001
0010
1000
0100
0010
0001
0100
0010
1000
0100
,
0010
0100
0001
1000
0100
0010
0001
0010
0110
1000
0100
0001
0100
0010
0100
1000
,
0100
0010
0001
0100
0010
0001
0100
1000
0100
0010
0100
0001
0010
1000
0100
0100
,
1000
0100
0010
0100
1000
0100
0010
0001
0110
0000
0000
1000
0100
0010
0100
0010
,
0001
0100
0010
1000
0100
0000
1000
0100
0010
0100
1000
0010
0000
0001
1000
0100
,
0010
0100
0010
0001
0110
0000
0000
0000
1100
0001
0010
1000
0010
0100
0010
0001
,
0100
1000
0001
0100
0010
1000
0100
0000
0010
0001
0100
1000
0010
1000
0010
0001
,
0100
0010
1000
0100
0010
0001
0010
0000
1001
0010
0100
1000
0100
0010
0100
1000
,
0010
1000
0001
1000
0001
0010
0100
1000
0100
0001
0010
1000
0100
0100
1000
0010
,
0100
0010
0001
1000
0001
0100
0010
1000
0110
1000
0001
0100
0010
0001
0100
1000
,
0100
0010
0100
0010
0100
1000
0100
0010
0001
0100
0010
1000
0100
0010
0100
0010
,
0001
1000
0100
1000
0100
0100
0010
0001
1100
0010
0100
1000
0100
0001
0010
0100
,
1000
0100
0010
0100
0010
0000
1000
0100
0010
0100
0010
0100
0010
0000
0100
0010
,
0001
0100
0010
0100
1001
0000
0000
0000
0110
0000
0010
0001
1000
0100
0020
0030
,
0100
0010
1000
0100
0010
0100
0020
0030
0110
0000
0100
0010
0100
1000
0200
0300
,
0010
0100
0010
0010
1000
0100
0010
0100
1101
0000
0010
1000
0100
0010
0002
0003
,
1000
0100
0010
0100
0010
1000
0020
0030
0110
0000
0010
1000
0100
0010
0200
0300
,
0010
0000
1000
0000
0100
0000
0010
0000
0010
0001
1000
0010
0100
0001
0010
0100
1001
0000
0000
0000
0100
0000
0010
0000
1000
0000
0100
0000
0020
0000
0030
0000
,
0100
0010
0100
1000
0100
0010
0002
0003
0110
0000
0010
1000
0100
0010
0200
0300
,
0010
1000
0100
0010
0100
0001
0010
0010
1100
0000
0010
0001
1000
0100
0020
0030
,
0100
0000
0010
0000
1000
0000
0100
0000
0010
0000
0100
0000
0010
0000
0010
0000
0220
0000
0000
0000
0000
0000
0000
0000
0000
0000
0000
0330
1000
0000
0001
0000
,
0100
0010
0000
0000
1000
0010
0000
0000
0010
0100
0000
0000
0010
0100
0000
0000
,
0010
0100
0000
0000
1000
0100
0000
0000
0010
0100
0000
0000
0010
0001
0000
0000
,
0110
0000
0000
0000
0100
0010
0000
0000
0100
1000
0000
0000
0100
0010
0000
0000
,
0001
0100
0000
0000
1000
0100
0000
0000
0010
0100
1000
0100
0010
0100
0010
0001
,
0110
0000
0000
0000
1000
0100
0000
0000
0010
0001
0000
0000
0100
0010
0000
0000
,
1000
0100
0000
0000
0010
0100
0000
0000
0010
0001
0000
0000
1000
0100
0000
0000
,
0110
0000
0000
0000
1000
0100
0000
0000
0010
0100
0000
0000
1000
0100
0000
0000
,
0010
0100
0000
0000
0001
1000
0000
0000
0100
1000
0100
0010
1001
0000
0000
0000
,
0110
0000
0001
1000
0100
0000
0010
0000
1000
0000
0001
1000
0010
0000
0100
0000
,
0010
0000
0100
0001
1000
0000
0001
0000
0010
0000
1000
0100
0001
0000
1000
0000
,
0011
0000
0100
0001
0010
0000
0100
0000
0010
0000
1000
0001
0010
0000
1000
0000
,
0011
0000
0100
0001
1000
0000
0010
0000
1101
0000
0000
0000
0111
0000
0000
0000
,
0110
0100
1001
0000
0110
0001
1010
0000
,
0110
1000
1001
0000
0110
0001
0101
0000
,
1000
0100
0010
0100
0001
1000
0100
0010
0001
0100
0010
1000
0100
0010
0100
0010
,
0101
0000
2000
0000
0000
3000
0100
0000
0010
0100
0010
0000
1001
0000
0100
0000
,
0220
0000
0000
0000
,
0000
0000
0000
0000
,
0330
0000
0000
0000
;
