#TITLE:mint candy☆citrus drop;
#SUBTITLE:;
#ARTIST:U.KI;
#TITLETRANSLIT:mint candy*citrus drop;
#SUBTITLETRANSLIT:;
#ARTISTTRANSLIT:;
#CREDIT:;
#BANNER:mint candy citrus drop.png;
#BACKGROUND:;
#LYRICSPATH:;
#CDTITLE:./CDTITLES/GuitarFreaks&DrumMania.png;
#MUSIC:mint candy citrus drop.mp3;
#OFFSET:1.815;
#SAMPLESTART:65.647;
#SAMPLELENGTH:15.800;
#SELECTABLE:YES;
#BPMS:0.000=128.000;
#STOPS:;
#BGCHANGES:;

//---------------dance-single - ----------------
#NOTES:
     dance-single:
     :
     Beginner:
     1:
     0.063,0.101,0.000,0.000,0.000: // measure 1
0000
0000
0000
0000
,  // measure 2
0000
0000
0000
0000
,  // measure 3
0000
0000
0000
0000
,  // measure 4
0000
0000
0000
0000
,  // measure 5
0000
0000
0000
0000
,  // measure 6
0010
0000
0000
0000
,  // measure 7
0100
0000
0000
0000
,  // measure 8
0001
0000
0000
0000
,  // measure 9
0000
0000
0000
0000
,  // measure 10
0100
0000
0000
0000
,  // measure 11
0000
0000
0000
0000
,  // measure 12
1000
0000
0000
0000
,  // measure 13
0000
0000
0000
0000
,  // measure 14
0001
0000
0000
0000
,  // measure 15
0000
0000
0000
0000
,  // measure 16
0010
0000
0000
0000
,  // measure 17
0000
0000
0000
0000
,  // measure 18
0001
0000
0000
0000
,  // measure 19
0000
0000
0000
0000
,  // measure 20
0000
0001
0000
0000
,  // measure 21
0000
0000
1000
0000
,  // measure 22
0000
1000
0000
0000
,  // measure 23
0000
0000
0001
0000
,  // measure 24
0000
0010
0000
0000
,  // measure 25
0000
0000
0100
0100
,  // measure 26
0000
0010
0000
0000
,  // measure 27
1000
0000
1000
0000
,  // measure 28
0000
0000
0000
0000
,  // measure 29
0010
0000
0000
0000
,  // measure 30
0000
0000
0000
0000
,  // measure 31
0100
0000
0000
0000
,  // measure 32
0000
0000
0000
0000
,  // measure 33
0001
0000
0000
0000
,  // measure 34
0000
0000
0000
0000
,  // measure 35
1000
0000
0000
0000
,  // measure 36
0000
0000
0000
0000
,  // measure 37
0010
0000
0010
0000
,  // measure 38
0000
0000
0001
0000
,  // measure 39
0100
0000
0100
0000
,  // measure 40
0000
0000
1000
0000
,  // measure 41
0001
0000
0001
0000
,  // measure 42
0000
0000
0010
0000
,  // measure 43
1000
0000
1000
0000
,  // measure 44
0000
0000
0000
0000
,  // measure 45
0000
0001
0000
0001
,  // measure 46
0000
0000
0000
0001
,  // measure 47
0000
1000
0000
1000
,  // measure 48
0000
0000
0000
1000
,  // measure 49
0000
0010
0000
0010
,  // measure 50
0000
0000
0000
0010
,  // measure 51
0000
0000
0000
1000
,  // measure 52
0000
0000
0001
0001
;

//---------------dance-single - ----------------
#NOTES:
     dance-single:
     :
     Easy:
     2:
     0.122,0.153,0.010,0.010,0.000: // measure 1
0000
0000
0000
0000
,  // measure 2
0000
0000
0000
0000
,  // measure 3
0000
0000
0000
0000
,  // measure 4
0000
0000
0000
0000
,  // measure 5
0000
0000
0000
0000
,  // measure 6
0100
0100
0000
0000
,  // measure 7
0010
0000
0000
0000
,  // measure 8
1000
0000
0001
0000
,  // measure 9
0000
0000
1000
0000
,  // measure 10
0010
0000
0100
0000
,  // measure 11
0000
0000
0010
0000
,  // measure 12
0001
0000
1000
0000
,  // measure 13
0000
0000
0001
0000
,  // measure 14
1000
0000
0001
0000
,  // measure 15
0000
0000
1000
0000
,  // measure 16
0100
0000
0010
0000
,  // measure 17
0000
0000
0100
0000
,  // measure 18
1000
0000
0001
0000
,  // measure 19
0000
0000
1000
0000
,  // measure 20
0000
1000
0000
0001
,  // measure 21
0000
0000
0001
1000
,  // measure 22
0000
0001
0000
1000
,  // measure 23
0000
0000
1000
0001
,  // measure 24
0000
0100
0000
0010
,  // measure 25
0000
0000
0010
0100
,  // measure 26
0000
0100
0000
0000
,  // measure 27
0000
1000
0001
0000
,  // measure 28
0100
0000
0000
0000
,  // measure 29
0100
1000
0100
0000
,  // measure 30
0010
0000
0000
0000
,  // measure 31
0010
0100
0010
0000
,  // measure 32
1000
0000
0000
0000
,  // measure 33
1000
0001
1000
0000
,  // measure 34
0001
0000
0000
0000
,  // measure 35
0001
0100
0001
0000
,  // measure 36
0020
0000
0030
0000
,  // measure 37
0100
0000
1000
0000
,  // measure 38
0000
0100
0010
0000
,  // measure 39
0010
0000
0001
0000
,  // measure 40
0000
0010
0100
0000
,  // measure 41
0010
0000
1000
0000
,  // measure 42
0000
1000
0001
0000
,  // measure 43
0100
0000
0001
0000
,  // measure 44
0001
0001
0001
0000
,  // measure 45
0000
1000
0000
0001
,  // measure 46
0000
0000
1000
0100
,  // measure 47
0000
0001
0000
1000
,  // measure 48
0000
0000
0001
0010
,  // measure 49
0000
0100
0000
0010
,  // measure 50
0000
0000
0100
0001
,  // measure 51
0000
0000
0000
0001
,  // measure 52
0000
0000
1001
0000
,  // measure 53
0010
0000
0000
0000
;

//---------------dance-single - ----------------
#NOTES:
     dance-single:
     :
     Medium:
     4:
     0.174,0.178,0.049,0.010,0.000: // measure 1
0000
0000
0000
0000
,  // measure 2
0000
0000
0000
0000
,  // measure 3
0000
0000
0000
0000
,  // measure 4
0000
0000
0000
0000
,  // measure 5
0000
0000
0000
0000
,  // measure 6
0000
0010
0000
0010
,  // measure 7
0000
0100
0000
0100
,  // measure 8
0001
0000
0001
0001
,  // measure 9
0000
0100
0000
0100
,  // measure 10
1000
0000
1000
1000
,  // measure 11
0000
0010
0000
0010
,  // measure 12
0100
0000
0100
0100
,  // measure 13
0000
0001
0000
0001
,  // measure 14
0010
0000
0010
0010
,  // measure 15
0000
1000
0000
1000
,  // measure 16
0001
0000
1000
1000
,  // measure 17
0000
0010
0000
0010
,  // measure 18
1000
0000
0001
0001
,  // measure 19
0000
0100
0100
0000
,  // measure 20
0000
0001
0000
0100
,  // measure 21
0000
0010
1000
1000
,  // measure 22
0000
0100
0000
0001
,  // measure 23
0000
1000
0010
0010
,  // measure 24
0000
1000
0000
0100
,  // measure 25
0000
0010
0001
0001
,  // measure 26
0000
0000
0010
0010
,  // measure 27
0000
0100
0010
0000
,  // measure 28
1000
0010
0000
1000
,  // measure 29
0000
0100
0010
0001
,  // measure 30
1000
0000
0000
1000
,  // measure 31
0000
0010
0100
0001
,  // measure 32
0001
0000
0000
0001
,  // measure 33
0000
0100
0010
1000
,  // measure 34
0001
0000
0000
1000
,  // measure 35
0010
0100
0001
0000
,  // measure 36
2000
0000
0000
3010
,  // measure 37
0010
1000
0100
0000
,  // measure 38
0000
0001
0000
0100
,  // measure 39
0100
1000
0010
0000
,  // measure 40
0000
0001
0000
0010
,  // measure 41
0010
0001
0100
0000
,  // measure 42
0000
1000
0000
0100
,  // measure 43
0010
1000
0001
0000
,  // measure 44
0000
0000
1001
1001
,  // measure 45
0000
0010
0001
0001
,  // measure 46
0000
0010
0000
1001
,  // measure 47
0000
0100
1000
1000
,  // measure 48
0000
0100
0000
1001
,  // measure 49
0000
0001
0100
0100
,  // measure 50
0000
0001
0000
1001
,  // measure 51
0000
0000
0100
0100
,  // measure 52
0010
0100
0001
1000
,  // measure 53
0010
0000
0000
0000
;

//---------------dance-single - ----------------
#NOTES:
     dance-single:
     :
     Hard:
     6:
     0.255,0.280,0.078,0.010,0.000: // measure 1
0000
0000
0000
0000
,  // measure 2
0000
0000
0000
0000
,  // measure 3
0000
0000
0000
0000
,  // measure 4
0000
0000
0000
0000
,  // measure 5
0000
0000
0000
0000
,  // measure 6
0001
0100
0010
1000
,  // measure 7
0001
0001
1000
1000
,  // measure 8
0100
0100
0001
0001
,  // measure 9
0010
0001
1000
0011
,  // measure 10
0001
0010
0100
1000
,  // measure 11
0001
0001
1000
1000
,  // measure 12
0010
0010
0001
0001
,  // measure 13
0100
0001
1000
0101
,  // measure 14
1000
0100
0010
0001
,  // measure 15
1000
1000
0001
0001
,  // measure 16
0100
0100
1000
1000
,  // measure 17
0010
1000
0001
1010
,  // measure 18
1000
0001
0100
0010
,  // measure 19
0100
0100
0001
0010
,  // measure 20
0000
0100
0010
0100
,  // measure 21
0000
0010
0001
1000
,  // measure 22
0000
1000
1000
0110
,  // measure 23
0000
0100
0010
1000
,  // measure 24
0000
0010
0100
0010
,  // measure 25
0000
0100
1000
0001
,  // measure 26
0000
0001
1000
0010
,  // measure 27
0000
0100
0001
0001
,  // measure 28
0010
0001
1000
0100
,  // measure 29
0100
0000
0000
0000
0000
0010
0010
0000
,  // measure 30
0010
1000
0001
0100
,  // measure 31
0100
0000
0000
0000
0000
0010
0010
0000
,  // measure 32
0100
0001
1000
0010
,  // measure 33
0010
0000
0000
0000
0000
0100
0100
0000
,  // measure 34
0001
0010
0100
1000
,  // measure 35
0100
0010
1000
0010
,  // measure 36
0002
0000
0100
0103
,  // measure 37
1000
1000
0100
1000
,  // measure 38
0010
1000
0001
0000
,  // measure 39
0001
0001
0100
0001
,  // measure 40
0010
0001
1000
0000
,  // measure 41
1000
1000
0010
1000
,  // measure 42
0100
1000
0001
0000
,  // measure 43
0001
0001
0010
0001
,  // measure 44
0100
1001
0110
0000
,  // measure 45
0001
0010
0001
0010
,  // measure 46
0001
0000
0010
0000
0000
0010
0001
0000
,  // measure 47
1000
0010
1000
0010
,  // measure 48
1000
0000
0010
0000
0000
0010
1000
0000
,  // measure 49
0001
0100
0001
0100
,  // measure 50
0001
0000
0100
0000
0000
0100
0001
0000
,  // measure 51
0010
1000
0101
1010
,  // measure 52
0001
0100
1000
0100
,  // measure 53
0010
0000
0000
0000
;
