#TITLE:apxn;
#SUBTITLE:;
#ARTIST:Dormir;
#TITLETRANSLIT:;
#SUBTITLETRANSLIT:;
#ARTISTTRANSLIT:;
#CREDIT:;
#BANNER:apxn.png;
#BACKGROUND:apxn-bg.png;
#LYRICSPATH:;
#CDTITLE:./CDTITLES/GuitarFreaks&DrumMania.PNG;
#MUSIC:apxn.mp3;
#OFFSET:1.894;
#SAMPLESTART:0.030;
#SAMPLELENGTH:15.740;
#SELECTABLE:YES;
#DISPLAYBPM:120.000;
#BPMS:0.000=120.000;
#STOPS:;
#BGCHANGES:;

//---------------dance-single - ----------------
#NOTES:
     dance-single:
     :
     Hard:
     8:
     0.260,0.277,0.168,0.177,0.000:
0000
0000
0000
0000
,
0000
0000
0000
0000
,
0000
0000
0000
0000
,
0000
0000
0000
0000
0001
0000
0000
1000
,
0000
0010
0000
0100
0100
0000
1000
0000
,
0000
0010
0000
0100
0000
0001
0010
0000
,
0100
0000
0000
1000
0000
0001
0001
0000
,
0000
1000
0100
0000
0001
0000
0000
1000
,
0000
0000
0100
0000
0000
0010
0000
0000
,
0100
0000
0000
0001
0000
1000
1000
0000
,
0000
0001
0100
0000
1000
0000
0000
0001
,
0000
0000
0100
0000
0000
0010
0000
0000
,
0100
0100
0000
1000
1000
0000
0010
0010
,
0000
0001
0001
0000
1000
0000
0000
0010
,
0000
0000
0001
0000
0000
1000
0000
0000
,
0200
0000
0000
0301
0000
0020
0000
0000
,
1030
0000
0100
0000
0000
1100
0000
0000
,
0001
0000
0000
0110
0000
0000
1001
0000
,
0000
0100
0000
1000
0010
0000
0000
1000
,
0100
0000
0001
0000
0000
0100
0000
0000
,
0020
0000
0000
2030
0000
0000
3200
0000
,
0000
0320
0000
0000
0031
0000
0000
0110
,
0000
0000
1001
0000
0000
0100
0000
0001
,
0010
0000
0000
0001
0100
0000
1000
0000
,
0000
0100
0000
0000
0020
0000
0000
0032
,
0000
0000
0203
0000
0000
0320
0000
0000
,
1030
0000
0000
0110
0000
0000
1000
0000
,
0000
0100
0000
0000
0011
0000
0000
0100
,
0000
0000
1000
0000
0000
0010
0000
0000
,
0101
0000
0000
0010
0000
0000
0001
0000
,
0000
0100
0000
0000
1010
0000
0000
0100
,
0000
0000
0001
0000
0000
0010
0000
0000
,
1100
0000
0000
0010
0000
0000
1000
0000
,
0000
0010
0010
0000
0010
0000
0000
0100
,
0100
0000
0001
0000
0000
0010
0010
0000
,
0100
0000
0000
0100
0100
0000
1001
0000
,
0000
0100
0000
0000
0010
0000
0000
0101
,
0000
0000
1001
0000
0000
0100
0000
0000
,
0010
0000
0000
1100
0000
0000
0000
0000
,
0000
1001
0000
0000
0100
0000
0000
0010
,
0000
0000
1000
0001
1000
0001
0000
0000
,
0100
0000
0000
0001
0000
0000
1100
0000
,
0000
1001
0000
0000
0100
0000
0000
0010
,
0000
0000
0001
1000
0001
1000
0000
0000
,
0100
0000
0000
1000
0000
0000
0101
0000
,
0000
2000
0000
0000
0000
3000
0000
0100
,
0000
0000
0100
0000
0000
0002
0000
0000
,
0000
0003
0000
0100
0000
0000
0010
0000
,
0000
0002
0000
0000
0103
0000
0000
1000
,
0000
1000
0010
0000
0000
2000
0000
0000
,
3100
0000
0000
0001
0000
0001
0010
0000
,
0000
0200
0000
0000
0310
0000
0000
0020
,
0000
0000
0130
0000
0000
1000
1000
1000
,
0002
0000
0000
0013
0010
0010
0200
0000
,
0000
1300
0000
0000
0010
0000
0100
0000
,
0000
0001
0000
2200
0000
0000
0000
0000
,
0000
0000
0000
0000
,
0000
3300
0000
0000
0000
0000
0000
0000
;

//---------------dance-single - ----------------
#NOTES:
     dance-single:
     :
     Medium:
     5:
     0.193,0.202,0.097,0.159,0.000:
0000
0000
0000
0000
,
0000
0000
0000
0000
,
0000
0000
0000
0000
,
0000
0000
0000
0000
0010
0000
0000
1000
,
0000
0001
0000
0000
0100
0000
0001
0000
,
0000
0100
0000
0010
0000
0000
1000
0000
,
0100
0000
0000
0010
0000
0000
0001
0000
,
0000
0100
0000
0000
0010
0000
0000
0001
,
0000
1000
0000
0000
,
0010
0000
0000
0100
0000
0000
0001
0000
,
0000
0010
0000
0000
0100
0000
0000
0001
,
0000
1000
0000
0000
,
1000
0000
0000
0001
0001
0000
0010
0000
,
0000
0100
0100
0000
0001
0000
0000
0000
,
0000
0000
0100
0000
0000
0010
0000
0000
,
0002
0000
0000
0003
0000
0200
0000
0000
,
0300
0000
0001
0000
0000
1000
0000
0000
,
0010
0000
0000
0100
0000
0000
1001
0000
,
0000
0100
0000
0000
0010
0000
0000
1000
,
0000
0000
0001
0000
0000
0010
0000
0000
,
0200
0000
0000
0300
0000
0000
0020
0000
,
0000
0130
0000
0000
0002
0000
0000
0103
,
0000
0000
1001
0000
0000
0100
0000
0000
,
0010
0000
0000
0001
0000
0000
1000
0000
,
0000
0010
0000
0000
0200
0000
0000
0300
,
0000
0000
0020
0000
0000
0130
0000
0000
,
2000
0000
0000
3100
0000
0000
0001
0000
,
0000
0000
0000
0000
1010
0000
0000
0100
,
0000
0001
0000
0000
,
0101
0000
0000
0010
0000
0000
1000
0000
,
0000
0000
0000
0000
0011
0000
0000
0100
,
0000
1000
0000
0000
,
1100
0000
0000
0010
0000
0000
0000
0000
,
0000
1000
1000
0000
0000
0000
0000
0100
,
0000
0000
0000
0000
0000
0001
0001
0000
,
0000
0000
0000
0100
0000
0000
0010
0000
,
0000
1100
0000
0000
0001
0000
0000
1000
,
0000
0000
0010
0000
0000
0101
0000
0000
,
1000
0000
0000
0001
0000
0000
0000
0000
,
0000
1001
0000
0000
1000
0000
0000
0001
,
0000
0000
0100
0000
0000
0001
0000
0000
,
0100
0000
0000
1000
0000
0000
0100
0000
,
0000
1001
0000
0000
0001
0000
0000
1000
,
0000
0000
0010
0000
0000
1000
0000
0000
,
0010
0000
0000
0001
0000
0000
0010
0000
,
0000
2000
0000
0000
0000
3000
0000
0000
,
0000
0000
0001
0000
0000
0002
0000
0000
,
0000
0003
0000
0000
0000
0000
0010
0000
,
0000
0001
0000
0000
0000
0000
0000
1000
,
0000
0100
0100
0000
0000
1000
0000
0000
,
0000
0000
0000
0001
0000
0100
0100
0000
,
0000
0020
0000
0000
0030
0000
0000
2000
,
0000
0000
3000
0000
0000
0200
0000
0000
,
0320
0000
0000
0032
0000
0000
0203
0000
,
0000
0310
0000
0000
0100
0000
0001
0000
,
0000
0100
0000
2002
0000
0000
0000
0000
,
0000
0000
0000
0000
,
0000
3003
0000
0000
0000
0000
0000
0000
;

//---------------dance-single - ----------------
#NOTES:
     dance-single:
     :
     Easy:
     3:
     0.124,0.151,0.115,0.071,0.000: // measure 1
0000
0000
0000
0000
,  // measure 2
0000
0000
0000
0000
,  // measure 3
0000
0000
0000
0000
,  // measure 4
0000
0000
0000
0000
1000
0000
0000
0001
,  // measure 5
0000
0000
0100
0100
,  // measure 6
0000
0010
0000
0000
0000
0000
1000
0000
,  // measure 7
0001
0000
0000
1000
,  // measure 8
0000
0000
0000
0000
0010
0000
0000
0001
,  // measure 9
0000
0100
0000
0000
,  // measure 10
1000
0000
0000
0001
,  // measure 11
0000
0000
0000
0000
0010
0000
0000
1000
,  // measure 12
0000
0100
0000
0000
,  // measure 13
0000
0000
0000
0100
0000
0000
0000
0000
,  // measure 14
0000
0100
0000
0000
0001
0000
0000
0000
,  // measure 15
0000
1000
0000
0000
,  // measure 16
0001
0000
0000
0000
0000
1000
0000
0000
,  // measure 17
0000
0100
0000
0000
,  // measure 18
0010
0000
0000
1001
,  // measure 19
0000
0000
0000
0000
0100
0000
0000
0010
,  // measure 20
0000
0100
0000
0000
,  // measure 21
0002
0000
0000
0003
0000
0000
0100
0000
,  // measure 22
0000
0000
1000
0000
,  // measure 23
0000
1001
0000
0000
,  // measure 24
0100
0000
0000
0010
0000
0000
0100
0000
,  // measure 25
0000
0000
0000
0000
2000
0000
0000
3000
,  // measure 26
0000
0100
0000
0000
,  // measure 27
0001
0000
0000
0001
,  // measure 28
0000
0000
1001
0000
,  // measure 29
0000
1000
0000
0000
,  // measure 30
0110
0000
0000
1000
,  // measure 31
0000
0000
1001
0000
,  // measure 32
0000
0001
0000
0000
,  // measure 33
0110
0000
0000
1000
,  // measure 34
0000
0000
0100
0000
,  // measure 35
0000
0001
0000
0000
,  // measure 36
0100
0000
0000
0000
,  // measure 37
0000
1001
0000
0000
0000
0000
0000
0110
,  // measure 38
0000
0000
0000
0000
0000
1001
0000
0000
,  // measure 39
0000
0000
0000
0110
0000
0000
0000
0000
,  // measure 40
0000
1001
0000
0000
0000
0000
0000
1000
,  // measure 41
0000
0000
0000
0000
0000
0100
0000
0000
,  // measure 42
0000
0000
0000
0010
0000
0000
0000
0000
,  // measure 43
0000
1001
0000
0000
0000
0000
0000
0001
,  // measure 44
0000
0000
0000
0000
0000
0100
0000
0000
,  // measure 45
0000
0000
0000
1010
0000
0000
0000
0000
,  // measure 46
0000
2000
0000
0000
0000
3000
0000
0000
,  // measure 47
0000
0000
0000
0000
0000
0002
0000
0000
,  // measure 48
0000
0003
0000
0000
0000
0000
0000
0000
,  // measure 49
0000
1000
0000
0000
0000
0000
0000
0010
,  // measure 50
0000
0000
0010
0000
0000
0001
0000
0000
,  // measure 51
0000
0000
0000
0100
0000
0000
0100
0000
,  // measure 52
0000
0200
0000
0000
0000
0300
0000
0020
,  // measure 53
0000
0000
0000
0030
0000
0200
0000
0000
,  // measure 54
0000
0000
0000
0000
0000
0300
0000
0000
,  // measure 55
0000
0001
0000
0000
0000
0000
1000
0000
,  // measure 56
0000
0001
0000
0200
0000
0000
0000
0000
,  // measure 57
0000
0000
0000
0000
,  // measure 58
0000
0300
0000
0000
0000
0000
0000
0000
;

//---------------dance-single - ----------------
#NOTES:
     dance-single:
     :
     Beginner:
     2:
     0.085,0.098,0.071,0.000,0.000:
0000
0000
0000
0000
,
0000
0000
0000
0000
,
0000
0000
0000
0000
,
0000
0000
1000
0000
,
0000
0100
0000
0000
0000
0000
0001
0000
,
0000
0000
0000
0010
0000
0000
0000
0000
,
0001
0000
0000
0100
,
0000
0000
0100
0000
,
0000
0010
0000
0000
,
1000
0000
0000
0100
,
0000
0000
0100
0000
,
0000
0010
0000
0000
,
0000
0000
0000
0001
0000
0000
0000
0000
,
0000
1000
0000
0000
0000
0000
0000
0010
,
0000
0000
0000
0000
,
0100
0000
0000
0000
0000
0100
0000
0000
,
0000
0010
0000
0000
,
0100
0000
0000
1000
,
0000
0000
0001
0000
,
0000
0001
0000
0000
,
0010
0000
0000
0000
,
0000
0000
0100
0000
,
0000
0001
0000
0000
,
1000
0000
0000
1000
,
0000
0000
0100
0000
,
0000
0000
0000
0000
,
0010
0000
0000
1001
,
0000
0000
0000
0000
,
0000
1001
0000
0000
,
0000
0000
0000
1001
,
0000
0000
0000
0000
,
0000
1001
0000
0000
,
0000
0000
0000
0001
,
0000
0000
1000
0000
,
0000
0001
0000
0000
,
1000
0000
0000
0000
,
0000
0100
0000
0000
0000
0000
0000
1001
,
0000
0000
0000
0000
0000
0010
0000
0000
,
0000
0000
0000
1001
0000
0000
0000
0000
,
0000
0001
0000
0000
0000
0000
0000
0010
,
0000
0000
0000
0000
0000
0100
0000
0000
,
0000
0000
0000
0000
,
0000
1000
0000
0000
0000
0000
0000
0010
,
0000
0000
0000
0000
0000
0100
0000
0000
,
0000
0000
0000
0000
,
0000
1000
0000
0000
0000
0000
0000
0000
,
0000
0000
0000
0000
0000
0001
0000
0000
,
0000
0000
0000
0000
,
0000
0100
0000
0000
0000
0000
0000
0010
,
0000
0000
0000
0000
0000
0010
0000
0000
,
0000
0000
0000
0100
0000
0000
0000
0000
,
0000
0100
0000
0000
0000
0000
0000
0010
,
0000
0000
0000
0000
0000
1001
0000
0000
,
0000
0000
0000
0000
,
0000
0010
0000
0000
0000
0000
0100
0000
,
0000
0000
0000
1001
0000
0000
0000
0000
;
