#TITLE:You made me a woman;
#SUBTITLE:;
#ARTIST:Winx Club;
#TITLETRANSLIT:;
#SUBTITLETRANSLIT:;
#ARTISTTRANSLIT:;
#CREDIT:;
#BANNER:You made me a woman.png;
#BACKGROUND:You made me a woman-bg.png;
#LYRICSPATH:;
#CDTITLE:./CDTITLES/DanceDanceRevolution Winx Club.png;
#MUSIC:You made me a woman.mp3;
#OFFSET:2.987;
#SAMPLESTART:2.307;
#SAMPLELENGTH:15.760;
#SELECTABLE:YES;
#BPMS:0.000=90.000;
#STOPS:;
#BGCHANGES:;

//---------------dance-single - ----------------
#NOTES:
     dance-single:
     :
     Beginner:
     1:
     0.059,0.092,0.009,0.000,0.000:
0000
0000
0000
0000
,
0000
0000
0000
0000
,
0000
0000
0000
0000
,
0000
0000
0000
0000
,
0000
0000
0000
0000
,
0001
0000
0000
0000
,
1000
0000
0000
0000
,
0001
0000
1000
0000
,
0001
0000
0000
0000
,
1000
0000
0000
0000
,
0001
0000
0000
0000
,
1000
0000
0001
0000
,
1000
0000
0000
0000
,
1000
0000
0000
0001
,
0001
0000
0000
0000
,
1000
0000
0000
0001
,
0001
0000
0000
0000
,
0000
0000
0000
0000
,
0001
0000
0000
0000
,
0000
0000
0000
0000
,
1000
0000
0000
0000
,
0001
0000
0000
0000
,
1000
0000
0001
0000
,
1000
0000
0000
0000
,
0000
0000
0000
0000
,
1001
0000
0000
0000
,
0001
0000
0000
1000
,
1000
0000
0001
0000
,
0001
0000
0000
0000
,
1000
0000
0000
0000
,
0001
0000
1000
0000
,
0001
0000
0000
0000
,
1000
0000
0000
0000
,
0001
0000
0000
0000
,
1000
0000
0001
0000
,
1000
0000
0000
0000
,
1000
0000
0000
0001
,
0001
0000
0000
0000
,
1000
0000
0000
0001
,
0001
0000
0000
0000
;

//---------------dance-single - ----------------
#NOTES:
     dance-single:
     :
     Easy:
     2:
     0.072,0.110,0.009,0.000,0.000:
0000
0000
0000
0000
,
0000
0000
0000
0000
,
0000
0000
0000
0000
,
0000
0000
0000
0000
,
0000
0000
0000
0000
,
1000
0000
0000
1000
,
0001
0000
0000
0000
,
0010
0000
1000
0000
,
1000
0000
0000
0000
,
0010
0000
0000
0010
,
0001
0000
0000
0000
,
0010
0000
0100
0000
,
1000
0000
0000
0000
,
0001
0000
0000
0001
,
1000
0000
0000
0000
,
0010
0000
0000
1000
,
0001
0000
0000
0000
,
0000
0000
0000
0000
,
1000
0000
0000
0000
,
0001
0000
0000
0000
,
1000
0000
0000
0000
,
1000
0000
0100
0000
,
0100
0000
0010
0000
,
0010
0000
0000
0000
,
0000
0010
0100
0010
,
1001
0000
0000
0000
,
0100
0000
0000
0100
,
1000
0000
0001
0000
,
1000
0000
0000
1000
,
0001
0000
0000
0000
,
0010
0000
1000
0000
,
1000
0000
0000
0000
,
0010
0000
0000
0010
,
0001
0000
0000
0000
,
0010
0000
0100
0000
,
1000
0000
0001
0000
,
0001
0000
0000
0001
,
1000
0000
0000
0000
,
0010
0000
0000
1000
,
0001
0000
0000
0000
;

//---------------dance-single - ----------------
#NOTES:
     dance-single:
     :
     Medium:
     3:
     0.121,0.185,0.019,0.009,0.000:
0000
0000
0000
0000
,
0000
0000
0000
0000
,
0000
0000
0000
0000
,
0000
0000
0000
0000
,
0000
0000
0000
0000
,
0001
0000
0100
0001
,
1000
0000
0000
0000
,
0100
0000
0001
1000
,
0001
0000
0000
0000
,
0100
0000
0010
0100
,
1000
0000
1000
0000
,
0100
0000
0010
0010
,
0001
0000
0000
0000
,
1000
0000
0100
1000
,
0001
0000
0000
0000
,
0100
0000
1000
0001
,
1000
0000
0000
0000
,
0000
0000
0000
0000
,
0002
0000
0000
0003
,
1000
0000
0100
0010
,
1001
0000
0000
0010
,
0001
0000
0010
0100
,
0010
0000
0100
0000
,
0010
0000
1000
0100
,
0010
0100
0010
0100
,
1001
0010
0001
0010
,
0010
0000
0001
0010
,
0001
0000
1000
0000
,
0001
0010
0100
0001
,
1000
0000
0010
0000
,
0100
0100
0001
1000
,
0001
0000
0010
0000
,
0100
0000
0010
0100
,
1000
0010
1000
0000
,
0100
0000
0010
0010
,
0001
0000
1000
0000
,
1000
0010
0100
1000
,
0001
0000
0010
0000
,
0100
0100
1000
0001
,
1000
0000
0010
0000
;

//---------------dance-single - ----------------
#NOTES:
     dance-single:
     :
     Hard:
     5:
     0.172,0.241,0.028,0.009,0.000:
0000
0000
0000
0000
,
0000
0000
0000
0000
,
0000
0000
0000
0000
,
0000
0000
0000
0000
,
0000
0000
0000
0000
,
1000
0100
0010
1000
,
0001
0000
0100
0000
,
0010
0010
1000
0001
,
1000
0000
0100
0000
,
0010
0000
0100
0010
,
0001
0100
0001
0000
,
0010
0000
0100
0100
,
1000
0000
0001
0000
,
0001
0100
0010
0001
,
1000
0000
0100
0000
,
0010
0010
0001
1000
,
0001
0000
0100
0000
,
0000
0000
0000
0000
,
2000
0000
0000
3000
,
0001
0010
0010
0100
,
1001
0000
0100
0100
,
1000
0100
0100
0010
,
0100
0100
0010
0010
,
0100
1000
0001
0010
,
0100
0000
0010
0100
0010
0100
0010
0000
,
1001
0000
0100
0000
1000
1000
0100
0000
,
1000
0000
0100
0000
1000
1000
0100
0000
,
1000
1000
0001
0001
,
1000
0000
0100
0000
0010
0010
1000
0000
,
0001
0000
0001
0000
0100
0100
0100
0000
,
0010
0010
1000
0001
,
1000
0000
0100
0000
,
0010
0000
0100
0010
,
1001
0000
0100
0000
0001
0001
0100
0000
,
0010
0000
0100
0000
0010
0010
0100
0000
,
1000
1000
0001
0001
,
0001
0000
0100
0000
0010
0010
0001
0000
,
1000
0000
1000
0000
0100
0100
0100
0000
,
0010
0010
0001
1000
,
0001
0000
0100
0000
;
